#VERSION:0.83;
#TITLE:JupiterEVOLVED;
#ARTIST:BMR underground;
#GENRE:HARDCORE TECHNO;
#CREDIT:B. M'Rey;
#MUSIC:JupiterEVOLVED.ogg;
#BANNER:JupiterEVOLVED-BN.png;
#BACKGROUND:JupiterEVOLVED-BG.png;
#CDTITLE:./CDTITLES/DANCE DANCE REVOLUTION SPACE.PNG;
#SAMPLESTART:60.619;
#SAMPLELENGTH:15;
#OFFSET:-0.040;
#BPMS:0=190;

//--------------- dance-single - B. M'Rey ----------------
#NOTEDATA:;
#STEPSTYPE:dance-single;
#DESCRIPTION:B. M'Rey;
#DIFFICULTY:Beginner;
#CREDIT:B. M'Rey;
#METER:9;
#RADARVALUES:0,0,0,0,0;
#NOTES:
0000
0000
0000
0000
,
0000
0000
0000
0000
,
0000
0000
0000
0000
,
0000
0000
0000
0000
,
0001
0010
0100
0010
,
0100
0010
0001
0000
,
1001
0000
0011
0000
,
1100
0000
0110
0000
,
0001
0100
0001
0010
,
0100
1000
0100
0000
,
0001
0100
0010
1000
,
0010
0100
0010
0000
,
0001
1000
0100
0010
,
0001
0010
0100
0000
,
0110
0000
1010
0000
,
0110
0000
0101
0000
,
0010
1000
0000
0010
,
0001
0010
0000
1000
,
0010
1000
0000
1000
,
0011
0000
1100
0000
,
0001
1000
0001
0000
,
0100
0010
0100
0000
,
0001
1000
0001
0000
,
1001
0000
1100
0000
,
0100
0010
0001
0000
,
0001
1000
0010
0000
,
0100
1000
0100
0000
,
0010
0000
0100
0000
,
0100
0010
0100
0000
,
0010
1000
0001
0000
,
0010
0100
0010
0000
,
0200
0000
0000
0000
,
0301
0100
0001
1000
,
0001
0100
0010
1000
,
0001
0100
0010
0100
,
0010
1000
0002
0000
,
0013
1000
0010
0100
,
0001
0010
0100
1000
,
0001
0010
0200
0000
,
0301
0100
0002
0000
,
1003
0010
0100
0020
,
0130
1000
0001
2000
,
3110
0000
1100
0000
,
0022
0000
0000
0033
0202
0000
0000
0303
,
0010
1000
0001
1000
,
0100
0010
0001
0100
,
0002
0000
0000
0000
,
0013
0000
0000
0000
,
0011
0000
1100
0000
,
1010
0000
0001
0100
,
0010
0000
0110
0000
,
0010
1000
0100
0010
,
0110
0000
1001
0000
,
1010
0000
0010
1000
,
0100
0010
0001
1000
,
0001
0000
0100
0000
,
0110
0000
0011
0000
,
1100
0000
0100
1000
,
0010
0000
0110
0000
,
0010
0001
0100
0010
,
0110
0000
1001
0000
,
0110
0000
0100
1000
,
0010
1000
0001
1000
,
0100
0000
0100
0000
,
0100
0000
0010
0000
,
0100
0010
0100
0000
,
0100
0000
0010
0000
,
0100
1000
0001
0000
,
0001
0000
0010
0000
,
0100
0010
0001
0000
,
0001
0000
0010
0000
,
0002
0000
0000
0000
,
0013
1000
0010
0100
,
0001
0100
0001
1000
,
0100
0010
0001
0100
,
0001
1000
0001
1000
,
0100
0010
0100
1000
,
0100
1000
0001
1000
,
0010
0000
0010
0000
,
0100
0000
0100
0000
,
0001
0100
0001
0000
,
0010
1000
0010
0000
,
0010
0100
0001
0000
,
0010
1000
0001
0000
,
0010
0100
0001
0000
,
0010
1000
0010
0000
,
0001
0010
0001
0000
,
0001
1000
0100
0000
,
0101
0000
0101
0000
,
0110
0000
1010
0000
,
0110
0000
1001
0000
,
0101
0000
0110
0000
,
0011
0000
1100
0000
,
1001
0000
1100
0000
,
0022
0000
0000
0000
,
0000
0000
0000
0033
,
0001
0100
0010
0100
,
0010
1000
0010
1000
,
0100
0010
0001
0010
,
0001
0010
0100
0000
,
0100
0010
0001
0100
,
0001
0010
0100
1000
,
0010
0000
0001
0000
,
0100
0000
0010
0000
,
0100
0010
0100
1000
,
0100
1000
0001
1000
,
0110
0000
1100
0000
,
1100
0000
0011
0000
,
0100
1000
0100
1000
,
0100
0010
0001
0100
,
0010
0000
0010
0000
,
0100
0000
0100
0000
,
0001
1000
0100
0000
,
0010
0100
0001
0000
,
0020
0000
0000
0000
,
0000
0000
0000
0000
0000
0000
0000
0000
0000
0000
0000
0030
0000
0000
0000
0000
0000
0000
0000
0000
0000
0000
0000
0000
0000
0000
0000
0000
0000
0000
0000
0000
0000
0000
0000
0000
0000
0000
0000
0000
0000
0000
0000
0000
0000
0000
0000
0000
;

//--------------- dance-single - B. M'Rey ----------------
#NOTEDATA:;
#STEPSTYPE:dance-single;
#DESCRIPTION:B. M'Rey;
#CREDIT:B. M'Rey;
#DIFFICULTY:Easy;
#METER:11;
#RADARVALUES:0,0,0,0,0;
#NOTES:
0000
0000
0000
0000
,
0000
0000
0000
0000
,
0000
0000
0000
0000
,
0000
0000
0000
0000
,
0100
0000
0010
0000
0100
0001
1000
0000
,
0010
0000
0100
0000
0010
0001
0100
0000
,
1010
0110
0101
0110
,
1100
0011
1001
0000
,
0001
0000
1000
0000
0010
0001
0100
0000
,
0010
0000
1000
0000
0010
1000
0100
0000
,
0001
0010
0100
0000
0001
1000
0100
0000
,
0010
0001
1000
0000
0001
1000
0100
0000
,
0010
0000
0100
0000
0001
0000
1000
0100
,
0001
0000
0010
0000
0100
0000
1000
0010
,
0001
0000
1000
0001
0100
0000
1000
0001
,
0110
0011
1001
0000
,
0100
0010
1000
0000
0001
0000
0100
0000
,
0010
0001
0100
0000
0001
0000
0100
0000
,
0010
0100
1000
0000
0010
0000
1000
0000
,
0110
0011
1100
0010
,
0001
0010
1000
0000
0100
0000
0010
0000
,
0100
0001
0010
0000
0100
0000
1000
0000
,
0001
1000
0100
0000
0001
0000
0010
0000
,
0101
0000
1010
0000
0000
0000
0100
0001
,
0010
1000
0100
0000
0001
0000
0010
0000
,
0100
1000
0010
0000
0001
0000
0100
0000
,
0001
0010
1000
0000
0010
0000
0100
0000
,
0010
0001
0100
0000
0010
0100
1000
0000
,
0011
0000
1100
0000
0010
0000
1000
0001
,
0010
0000
1000
0000
0100
0000
1000
0010
,
0001
0000
0100
0000
0001
1000
0010
0000
,
0002
0010
0100
1000
,
1003
0100
0010
1000
,
0100
0010
0001
0010
,
0001
0100
0001
1000
,
0100
1000
0001
1000
,
0001
0010
0100
1000
,
0100
0010
0001
1000
,
0001
1000
0100
0000
0010
0001
0100
0000
,
0001
0000
1000
0000
0010
0100
1000
0000
,
0010
0100
0001
0010
,
0100
1000
0010
0000
0001
0000
1000
0000
,
0101
0110
1100
1010
,
0220
0000
0000
0330
2002
0000
0000
3003
,
0010
0100
0010
1000
,
0010
0100
0001
0100
,
0002
0010
0010
0010
,
0013
0000
0000
0000
,
0010
0001
1000
0000
0001
0010
1000
0000
,
0100
0001
0010
0000
0110
0000
0011
0000
,
0001
1000
0010
0000
0001
0010
1000
0000
,
1001
1010
0011
1100
,
0010
0001
0100
0000
0001
1000
0010
0000
,
0100
0010
1000
0000
0011
0000
0110
0000
,
0001
0010
1000
0000
0001
1000
0010
0000
,
0100
0000
1000
0000
0001
1000
0010
0000
,
0100
0001
0010
0000
0100
1000
0010
0000
,
0001
0010
0100
0000
0101
0000
0110
0000
,
0010
1000
0100
0000
0001
0100
0010
0000
,
1001
1100
0101
1100
,
0100
0001
0010
0000
0100
0010
1000
0000
,
0010
0001
1000
0000
0110
0000
1010
0000
,
0010
1000
0100
0000
0001
0010
0100
0000
,
0010
0000
1000
0000
0010
0100
1000
0000
,
0010
0000
0001
0000
,
0100
0000
1000
0000
,
0010
0000
0001
0000
,
0010
0000
1000
0000
,
0001
0010
0001
0100
,
0010
0100
0001
1000
,
0200
0000
0310
0000
,
0002
0000
0013
0000
,
0100
0000
0010
0000
0100
0001
0010
0000
,
0001
0000
0100
0000
0010
0100
1000
0000
,
0001
0000
0100
0000
0001
0010
1000
0000
,
0001
0000
0010
0000
0100
0001
1000
0000
,
0010
0000
0100
0000
0010
0001
0100
0000
,
0010
0000
1000
0000
0001
0010
0100
0000
,
0001
0000
0010
0000
,
0100
0000
0010
0000
,
0001
0100
0001
1000
,
0001
1000
0010
1000
,
0001
0100
0001
0100
,
0001
0010
0100
0000
,
0001
0000
0010
1000
,
0010
0100
0001
0100
,
0010
0000
0001
0000
,
0010
0000
0001
0000
,
0010
0100
0010
0100
,
0001
0010
0100
0010
,
0001
1000
0001
0010
,
0001
0100
0010
1000
,
0100
0000
0001
0000
,
0100
0000
0010
0000
,
0020
0000
0000
0000
,
0000
0000
0000
0000
,
0031
0000
1000
0000
0010
0001
0100
0000
,
0010
0000
0100
0000
0001
1000
0100
0000
,
0001
1000
0010
0000
0001
1000
0010
0000
,
0100
1000
0010
0000
0001
1000
0100
0000
,
0001
0000
1000
0000
0100
0001
0010
0000
,
0001
0000
0100
0000
0001
0010
1000
0000
,
0100
1000
0010
0000
0001
1000
0010
0000
,
0100
1000
0010
0000
0001
0010
1000
0000
,
0010
0000
1000
0000
0001
0100
0010
0000
,
0100
0000
1000
0000
0010
0001
1000
0000
,
0101
0000
1001
0000
,
0110
0000
0101
0000
,
0001
0100
0001
0010
,
0100
1000
0010
0100
,
0010
0100
0010
1000
,
0002
0103
0002
0013
,
1100
0000
0110
0000
,
1010
0000
0011
0000
,
2002
0000
0000
0000
,
0000
3003
0000
0000
;

//--------------- dance-single - B. M'Rey ----------------
#NOTEDATA:;
#STEPSTYPE:dance-single;
#DESCRIPTION:B. M'Rey;
#CREDIT:B. M'Rey;
#DIFFICULTY:Medium;
#METER:13;
#RADARVALUES:0,0,0,0,0;
#NOTES:
0000
0000
0000
0000
,
0000
0000
0000
0000
,
0000
0000
0000
0000
,
0000
0000
0000
0000
,
0001
0000
0100
1000
0000
0010
1000
0000
,
0001
0010
0100
1000
0001
0000
0010
0000
,
0100
0010
0100
0000
0001
0100
0001
0000
,
1001
1010
0110
0000
,
0001
0010
0001
0000
0001
0010
0001
0000
,
0100
1000
0100
0000
0001
0100
0001
0000
,
0100
1000
0001
0000
0100
0010
0100
0000
,
0001
0010
0100
0000
0001
0010
0001
0000
,
0010
0100
0010
0000
0001
0100
0010
0000
,
0010
0100
0001
0000
0001
1000
0100
0000
,
0101
0000
0101
0000
0110
0000
0010
1000
,
0100
0101
0110
0011
,
0001
1000
0100
0000
0100
1000
0001
0000
,
0001
0010
0001
0000
0010
1000
0100
0000
,
0010
0100
0001
0000
0010
1000
0010
0000
,
0001
1000
0100
0010
0100
0000
0101
0000
,
0001
1000
0001
0000
0010
1000
0001
0000
,
0100
1000
0010
0000
0001
0010
0001
0000
,
0001
0100
0010
0000
0001
0010
0100
0000
,
1100
0000
1001
0000
0000
0020
0000
0000
,
0031
0010
0100
0000
0001
1000
0100
0000
,
0010
0100
0001
0000
0100
1000
0100
0000
,
0001
0010
0100
0000
0100
1000
0001
0000
,
1010
0011
0110
1100
,
0001
0010
0100
0000
0001
0100
0001
0000
,
0100
1000
0100
0000
0001
1000
0010
0000
,
0010
0100
0010
0000
0001
0000
0010
1000
,
0010
0100
1000
0100
,
0001
1000
0001
0010
0001
0100
0010
0100
,
0010
1000
0001
0100
,
0100
1000
0001
0000
0010
0100
0001
0000
,
0001
0010
0100
1000
0100
0000
0001
0000
,
0001
0100
0001
0000
0010
0100
0010
0000
,
0001
0100
0010
0000
0001
0100
0010
0000
,
0001
0100
0001
0010
0001
1000
0010
1000
,
0010
0000
1010
0000
0100
1000
0001
1000
,
0100
0000
0001
1000
0100
0000
0001
0010
,
0100
0000
0001
0010
0100
0000
0001
0100
,
0001
0110
0110
0101
,
0202
0000
0303
1000
0220
0000
0000
0330
,
0001
0000
0010
1000
0100
0000
0010
0100
,
0010
0000
0010
0100
0001
0000
0001
0100
,
0020
0100
0100
0100
,
0130
0000
0000
0000
,
0010
1000
0010
1000
0001
0010
0001
0010
,
0100
0010
0100
0000
1100
0000
0011
0000
,
0001
0100
0001
0100
0010
0100
0010
1000
,
0200
0320
0032
2003
,
3010
0100
0010
0100
0001
0100
0010
1000
,
0010
1000
0010
0000
0101
0000
0110
0000
,
0001
1000
0010
0100
0010
0100
0010
1000
,
0100
1000
0020
0000
,
0031
0100
0010
0100
0001
1000
0001
0010
,
0100
1000
0010
0000
0110
0000
1010
0000
,
0001
0010
0100
1000
0100
0010
0001
0010
,
0001
0010
0100
1000
,
0100
1000
0010
1000
0001
0010
0100
1000
,
0010
0100
0010
0100
0001
0000
0100
0000
,
0001
0100
0001
0010
0001
0010
0100
1000
,
0100
0000
0010
0000
0001
1000
0001
0010
,
0100
1000
0100
1000
,
0001
1000
0001
0100
,
0010
0100
0010
0100
,
0001
0010
0001
0010
,
0100
0011
0001
0110
,
0010
1100
0010
1001
,
0001
0000
0010
0000
0100
0001
0010
0000
,
0100
0010
1001
0100
,
0001
0010
0100
0010
0000
1000
0010
0000
,
0010
0100
0001
0010
0000
0001
0100
0000
,
0010
0100
0010
1000
0000
1000
0100
0000
,
0100
0010
0100
1000
0001
1000
0100
1000
,
0001
0010
0100
0010
0000
0010
0001
0000
,
0010
1000
0010
1000
0000
0010
0100
0000
,
0101
0000
1010
0000
0110
0000
0100
0010
,
0001
0000
0001
0100
0001
0000
0200
0000
,
0301
0010
0100
0000
0100
0010
0001
0000
,
0001
0010
0001
0000
0010
1000
0100
0000
,
0001
0100
0001
0000
0010
1000
0100
0000
,
0001
1000
0100
0000
0001
1000
0010
0000
,
0010
0000
0001
1000
0100
0000
0001
0100
,
0001
1000
0100
0001
,
0010
0100
0001
0000
0100
0010
0200
0000
,
0001
0001
1000
1300
,
0001
0100
0001
0000
0001
1000
0010
0000
,
0010
0100
0001
0000
0100
1000
0001
0000
,
0001
1000
0010
0000
0010
0100
0001
0000
,
0100
0010
0001
0000
0010
0100
0010
0000
,
0001
0010
1000
0100
,
0010
0001
0010
1000
,
0200
0000
0000
0000
,
0000
0000
0000
0000
,
0301
1000
0100
0010
0100
1000
0100
0010
,
0001
0010
0100
0010
0001
1000
0100
0010
,
0001
0010
0100
1000
0001
1000
0010
0100
,
0001
1000
0001
1000
0010
0100
0001
1000
,
0100
1000
0100
0010
0110
0000
0101
0000
,
0001
0010
0100
1000
0001
0100
0001
0100
,
0001
0010
0100
1000
0001
0010
0100
0010
,
0100
1000
0010
1000
0100
1000
0010
0100
,
0001
1000
0001
0010
0001
0100
0010
0100
,
0001
0010
0100
0010
0100
1000
0010
1000
,
0011
0000
0100
0010
1001
0000
0001
0010
,
1001
0000
0100
0010
0110
0000
0001
0010
,
0100
1000
0010
0100
0001
0010
0001
1000
,
0010
1000
0100
1000
0001
0100
0010
0100
,
0020
1000
0100
1000
,
1130
1000
0101
0001
,
0100
1000
0001
0000
0010
1000
0001
0000
,
0001
0100
0001
0000
0010
0100
0001
0000
,
0200
0000
0000
0000
,
0000
0300
0000
0000
;

//--------------- dance-single - B. M'Rey ----------------
#NOTEDATA:;
#STEPSTYPE:dance-single;
#DESCRIPTION:B. M'Rey;
#CREDIT:B. M'Rey;
#DIFFICULTY:Hard;
#METER:15;
#RADARVALUES:0,0,0,0,0;
#NOTES:
0000
0000
0000
0000
,
0000
0000
0000
0000
,
0000
0000
0000
0000
,
0000
0000
0000
0000
,
1000
0001
1000
0001
0010
0100
1000
0100
,
0010
0001
0010
0001
0100
0010
1000
0010
,
0100
0001
1000
0001
1000
0100
0010
0100
,
1000
0001
1000
0100
0010
0000
0110
0000
,
1000
0001
0100
0010
0100
0010
1000
0001
,
0100
0001
0100
0010
1000
0010
1000
0001
,
0010
0001
0010
0100
1000
0100
1000
0010
,
0100
0010
0100
0001
1000
0001
1000
0100
,
0010
0100
0010
0001
1000
0001
1000
0100
,
0010
0100
0010
0001
1000
0001
1000
0100
,
0010
0100
0010
0001
0100
0001
0100
0010
,
1000
0010
1000
0001
0100
0000
1001
0000
,
0010
0001
1000
0100
1000
0010
0100
0001
,
0100
0001
0010
0100
0010
0100
1000
0001
,
1000
0010
0100
0010
0100
0001
0010
0001
,
1000
0000
0100
0000
1000
0000
0100
0000
0001
0010
0001
0010
0001
0010
0001
0010
,
1000
0001
1000
0100
0010
0001
0100
0001
,
0100
0010
1000
0010
1000
0001
0100
0001
,
0100
0010
1000
0010
1000
0001
0100
0001
,
0100
0000
0010
0000
1000
0000
0010
0000
0000
0100
0010
0100
1000
0000
0010
0000
,
1000
0100
1000
0010
0100
0010
0100
0001
,
1000
0001
1000
0010
0100
0010
1000
0100
,
1000
0100
0010
0001
0100
0001
0100
0010
,
1000
0010
1000
0001
0010
0001
0010
0100
,
1000
0010
1000
0100
0010
0100
0010
0001
,
1000
0001
1000
0010
0100
0010
0100
0001
,
0010
0001
1000
0100
1000
0100
0010
0001
,
0010
1100
0011
0110
,
1000
0001
0010
0001
0010
0100
1000
0100
,
1000
0001
0010
0001
0100
0010
0100
0010
,
1000
0100
1000
0100
0010
0001
0010
0001
,
1000
0010
1000
0010
0100
0001
0100
0001
,
1000
0100
1000
0100
0010
0001
0010
0001
,
1000
0010
0100
0010
0100
0001
1000
0001
,
1000
0000
0100
0000
0010
0000
1001
0000
0001
1000
0001
1000
0001
1000
0001
1000
,
0001
0000
0000
0000
0110
0000
0000
0000
0100
0010
0100
0010
0100
0010
0100
0010
,
0100
0001
0100
0001
1000
0100
1000
0100
,
0010
0001
0010
0001
1000
0010
1000
0010
,
0001
0000
0000
0010
0000
0000
0100
0000
0010
0000
0000
1000
0000
0000
0001
0000
,
0100
0010
0100
0010
0100
0000
0010
0000
0010
0100
0010
0100
0001
0000
1000
0000
,
1000
0001
1000
0001
0100
0010
0100
0010
,
1000
0001
0010
0001
0010
0100
1000
0100
,
1000
0001
1000
0010
1000
0001
1000
0100
1000
0001
0010
0001
1000
0010
1000
0100
,
1000
0000
1001
0110
,
1000
0100
0010
0001
0100
0010
1000
0010
,
1000
0100
1000
0010
1010
0000
0110
0000
,
0010
0100
1000
0001
0100
0001
1000
0010
,
0001
0000
0010
0000
0100
0010
0100
0010
,
1000
0100
1000
0100
0010
0001
0100
0010
,
1000
0001
1000
0001
1000
0000
0110
0000
,
0010
0001
0100
0010
1000
0001
0100
0010
,
1000
0000
0010
0000
0100
0010
1000
0100
,
0010
0100
1000
0001
0100
0010
1000
0100
,
1000
0001
1000
0010
1000
0000
0110
0000
,
0010
0001
1000
0001
0100
0001
1000
0001
,
0010
0100
0010
0001
1000
0001
1000
0100
,
0010
0001
0100
0010
1000
0010
1000
0100
,
0010
0100
1000
0001
0100
0000
0110
0000
,
0010
0100
0010
0001
0010
0001
1000
0100
,
0010
0000
0110
0000
0100
0001
1000
0100
,
0010
0000
0100
0000
0100
0010
1000
0000
,
1001
0000
0010
0100
0010
0000
0100
0000
,
0001
0000
0100
0010
1000
0100
1000
0010
,
0100
0001
0010
0100
0010
0000
0110
0000
,
1010
0000
0101
0000
0100
0010
1000
0100
,
0010
0001
0100
0010
1000
0000
0011
0000
,
0110
0000
1001
0000
0100
1000
0010
0100
,
0001
1000
0001
1000
0001
1000
0001
1000
0001
0000
0000
0000
0110
0000
0000
0000
,
0010
0100
0010
0001
0100
0001
0010
0100
,
1000
0001
0100
0001
0010
0100
1000
0010
,
0100
0001
0010
0100
1000
0010
0100
0001
,
0010
0100
0010
0100
0010
0100
0010
0100
,
1000
0010
1000
0100
1000
0001
0100
0010
,
1000
0100
0010
0001
0100
0001
0100
0010
,
1000
0000
0001
1000
0010
1000
0000
0200
,
0000
0000
0310
0001
0010
0000
0002
0000
,
0013
0000
0000
0001
0000
0000
0001
0000
1000
0000
0000
0001
0000
0000
0001
0000
,
1000
0000
0000
0100
0000
0000
0100
0000
0010
0000
0000
0001
0000
0000
0001
0000
,
0100
0000
0000
0001
0000
0000
0001
0000
1000
0000
0000
0001
0000
0000
0001
0000
,
1000
0000
0000
0100
0000
0000
0100
0000
1000
0000
0000
0000
0010
0000
0000
0000
,
1001
0000
0100
0010
0100
0000
0001
0000
,
0100
0000
0000
0010
0000
0000
0010
0000
0100
0000
0000
0001
0000
0000
0001
0000
,
0010
0001
2000
0000
,
0000
0000
0000
0000
0000
0000
0000
3000
,
0100
0000
0000
0010
0000
0000
0010
0000
1000
0000
0000
0001
0000
0000
0001
0000
,
0100
0000
0000
0010
0000
0000
0010
0000
1000
0000
0000
0100
0000
0000
0100
0000
,
0010
0000
0000
0001
0000
0000
0001
0000
1000
0000
0000
0100
0000
0000
0100
0000
,
1000
0000
0000
0010
0000
0000
0010
0000
0100
0000
0000
0010
0000
0000
0010
0000
,
0100
0000
0010
0100
0010
0000
0001
0100
,
0001
0000
0010
0100
0010
0000
0001
1000
,
2002
0000
0000
0000
,
0000
0000
0000
0000
0000
0000
0000
3003
,
1000
0001
0010
0001
0010
0001
1000
0010
,
0100
0010
0100
0010
0100
0010
0100
0010
,
1000
0001
1000
0001
1000
0010
1000
0001
,
1000
0001
0010
0001
0010
0001
0010
0001
,
0010
0100
0010
0100
1000
0100
1000
0100
,
1000
0100
1000
0010
0100
0010
1000
0010
,
1000
0000
0100
0000
1000
0000
0100
0000
1000
0001
1000
0001
1000
0001
1000
0000
,
0001
0000
0100
0000
1000
0000
0100
0000
0010
0100
0010
0100
0010
0100
0010
0000
,
1000
0010
1000
0010
1000
0010
1000
0010
,
1000
0001
0100
0001
0100
0001
0100
0001
,
1010
0000
0000
0011
0000
0000
1010
0000
1100
0000
0000
0101
0000
0000
0110
0000
,
1000
0001
1000
0001
1000
0000
0010
0000
0100
0010
0100
0010
0100
0000
1000
0000
,
1000
0001
1000
0001
1000
0001
1000
0100
,
1000
0100
0010
0100
0010
0100
0010
0100
,
1000
0010
1000
0001
,
1000
0001
1000
0000
1000
0001
1000
0000
,
0010
0100
0010
0001
,
0100
0010
1000
0001
,
2002
0000
0000
0000
,
0000
3003
0000
0000
;

//--------------- dance-single - B. M'Rey ----------------
#NOTEDATA:;
#STEPSTYPE:dance-single;
#DESCRIPTION:B. M'Rey;
#CREDIT:B. M'Rey;
#DIFFICULTY:Challenge;
#METER:18;
#RADARVALUES:0,0,0,0,0;
#NOTES:
0000
0000
0000
0000
,
0000
0000
0000
0000
,
0000
0000
0000
0000
,
0000
0000
0000
0000
,
0001
1000
0001
1000
0001
0000
0100
0000
0001
0100
0001
0100
0001
0000
1000
0000
,
0010
1000
0100
1000
0001
0010
0100
1000
,
0010
1000
0010
0000
0100
1000
0010
0000
0010
0100
0010
0000
0001
1000
0100
0000
,
0100
1000
0010
1000
0010
0100
0010
1000
0100
0000
0000
0000
0110
0000
0000
0000
,
0001
0100
0001
0000
0001
0100
0001
0000
0001
0000
1000
0000
0100
0010
0100
0000
,
0001
1000
0001
0000
0010
1000
0010
0000
0001
0000
0010
0000
0100
0000
0010
0000
,
0100
1000
0001
0010
0100
0010
0100
1000
,
0001
0000
1000
0100
1000
0000
1000
0100
1000
0000
0010
0000
0100
0000
0010
0000
,
0001
0010
0001
0000
0100
1000
0100
0000
0100
0000
1000
0000
0100
0000
0010
0000
,
0001
0100
0001
0000
0001
0100
0001
0000
0010
0000
0100
0000
0001
0000
1000
0000
,
0100
0000
1000
0010
1000
0000
1000
0010
1000
0000
0100
0001
0100
0000
0010
0000
,
1000
0001
0100
0010
0100
0000
1001
0000
,
0001
1000
0001
1000
0001
0000
0100
0000
0010
0100
0001
0010
0001
0000
1000
0000
,
0010
1000
0100
0010
0100
0000
0010
0000
0001
1000
0001
1000
0100
0000
0010
0000
,
0001
0010
0100
1000
0001
0000
0010
0000
0001
0100
0010
0100
0010
0000
0001
0000
,
0100
0000
1000
0000
0100
0000
1000
0000
0001
1000
0001
1000
0001
0100
0010
1000
,
0010
0000
0100
0000
0001
0100
0001
0100
0010
0000
1000
0000
0001
1000
0100
0010
,
0100
0000
0010
0000
0001
1000
0100
0010
0100
0000
1000
0000
0001
1000
0001
0100
,
0001
0000
0100
0000
0010
1000
0010
1000
0100
0000
0010
0000
0100
0000
0001
0000
,
0100
1000
0100
1000
0100
0010
0001
0010
0001
0000
1000
0001
1000
0000
0010
0000
,
0001
1000
0001
1000
0001
0000
0010
0000
0100
0010
0001
1000
0001
0000
0010
0000
,
0100
0010
0100
1000
0100
0000
1000
0000
0001
0100
0001
0100
0010
0000
1000
0000
,
0001
1000
0010
0100
0010
0000
1000
0000
0001
0100
0010
0100
0010
0000
0010
0000
,
1000
0010
1000
0010
0100
0001
0100
1000
,
0001
0010
0001
1000
0010
0000
0010
0000
0001
0100
0001
0100
0001
0000
0100
0000
,
0100
1000
0100
0010
0001
0000
0010
0000
0100
1000
0001
0010
0001
0000
0100
0000
,
0001
1000
0001
1000
0010
1000
0010
0100
,
0001
1100
0011
0110
,
0001
1000
0001
1000
0001
0010
0100
0010
,
0100
0010
0001
1000
0100
1000
0100
1000
,
0010
0100
0010
0100
0010
1000
0001
0100
,
0001
0100
0001
1000
0010
1000
0010
1000
,
0001
0100
0001
0010
0001
0010
0100
1000
,
0001
1000
0100
1000
0100
0010
0100
0010
,
0001
0000
1000
0000
0001
0000
1000
0000
0001
1000
0001
1000
0001
1000
0001
1000
,
0001
0000
0000
0000
0110
0000
0000
0000
0100
0001
0100
0001
0100
0001
0100
0001
,
0100
0000
1000
0000
0001
0000
1000
0000
0001
0000
0100
0000
0010
0000
0100
0010
,
0100
0100
0001
0010
0001
0010
0001
1000
,
1001
0000
0000
1001
0000
0000
0110
0000
0110
0000
0000
0011
0000
0000
1001
0000
,
0100
0010
0100
0010
0100
1000
0010
0100
0010
0000
0100
1000
0001
0000
0001
1000
,
0001
1000
0001
1000
0001
0100
0010
0100
,
0010
0100
0001
1000
0001
0100
0001
1000
,
0100
1000
0100
1000
0100
0010
0001
0010
0001
0100
0001
0010
0100
0010
0100
0010
,
0001
0000
1001
0110
,
0001
0010
0001
1000
0001
0100
0001
1000
0100
1000
0001
1000
0010
1000
0001
1000
,
0010
1000
0001
1000
0100
1000
0001
0100
0010
0000
0000
0000
0110
0000
0000
0000
,
0001
1000
0010
1000
0001
1000
0010
1000
0001
0010
0100
0010
0001
0010
0100
0010
,
0001
0000
0010
0000
0100
0010
0100
0010
,
0001
1000
0001
0010
0001
0100
0001
1000
0001
0100
0001
0010
0001
0100
0010
0100
,
0001
1000
0001
0010
0001
0100
0001
1000
0001
0000
0000
0000
0110
0000
0000
0000
,
0001
1000
0100
1000
0001
1000
0100
1000
0001
1000
0100
1000
0010
1000
0001
1000
,
0100
0000
0010
0000
0001
1000
0010
0100
,
0001
1000
0100
1000
0010
1000
0001
1000
0100
1000
0001
1000
0100
1000
0001
1000
,
0100
1000
0001
1000
0010
1000
0001
1000
0100
0000
0000
0000
0110
0000
0000
0000
,
0001
1000
0001
0100
0001
0010
0001
1000
0001
0100
0010
0100
0001
0100
0010
0100
,
0001
0010
0001
0010
1000
0010
1000
0010
,
0001
1000
0001
0100
0001
1000
0010
1000
0001
1000
0100
1000
0010
0100
0010
1000
,
0010
0100
0010
1000
0010
0100
0010
1000
0010
0000
0000
0000
0110
0000
0000
0000
,
0001
1000
0010
1000
0010
0100
0001
0100
0010
1000
0010
1000
0001
0100
0001
1000
,
0010
0000
0000
0000
0110
0000
0000
0000
0001
1000
0001
0010
0100
0010
0100
1000
,
0001
0000
0000
0000
0100
0000
0000
0000
0001
1000
0001
1000
0100
0010
0100
0010
,
0001
0000
0000
0000
1000
0000
0010
0001
0010
0000
0000
0000
0100
0000
0000
0000
,
0001
0000
0001
1000
0001
0010
0100
0010
,
0100
1000
0001
0010
0001
0000
0110
0000
,
1010
0000
0000
0000
0101
0000
0000
0000
0001
1000
0001
1000
0100
0010
0100
0010
,
0001
0000
1000
0000
0100
0000
1000
0100
1000
0000
0010
0000
0001
0000
0010
0000
,
0110
0000
1001
0000
0100
1000
0010
0100
,
0001
1000
0001
1000
0001
1000
0001
1000
0001
0000
0000
0000
0110
0000
0000
0000
,
0010
0000
1000
0000
0001
0000
0010
0000
0100
0000
1000
0010
0100
0010
0100
0000
,
0001
0100
0001
0100
0010
1000
0100
0010
,
0001
0100
0001
0010
0100
0010
0001
0100
,
0010
1000
0001
0010
0100
1000
0001
0100
,
0010
0000
0100
0000
0001
0000
0010
0000
0100
0000
0010
0001
0100
0000
0100
0000
,
0010
1000
0001
0010
0100
1000
0100
0010
,
0001
0000
0000
1000
0001
0000
0010
0100
0010
0000
1000
0001
0010
0000
0200
0000
,
0000
0000
0000
0000
0310
0000
0001
0000
0010
0000
0000
0000
0001
1000
0001
1000
,
0001
0000
0000
0011
0000
0000
0110
0000
1010
0000
0000
0110
0000
0000
1100
0000
,
1010
0000
0000
0101
0000
0000
1010
0000
0101
0000
0000
0110
0000
0000
0110
0000
,
1001
0000
0010
0100
1000
0000
1100
0000
0010
0000
1000
0010
1000
0000
0101
0000
,
0010
0000
1000
0010
0100
0000
1001
0000
0100
0000
0100
0010
1000
0000
0010
0100
,
1000
0100
0010
0001
1000
0001
0100
0010
,
1001
0000
0000
0110
0000
0000
0101
0000
1100
0000
0000
0110
0000
0000
0100
0001
,
1000
0000
0000
0000
0100
0000
1000
0010
2000
0000
0000
0000
0100
0000
0000
0000
,
0100
0000
0001
0000
0001
0000
0010
3000
,
1000
0001
1000
0001
0100
0010
0100
0010
,
1000
0001
1000
0001
0100
0010
0100
0010
,
1000
0001
1000
0001
0100
0010
0100
0010
,
1000
0001
1000
0001
0010
0100
1000
0100
,
0010
0000
0010
0000
1000
0010
0100
0000
,
0100
0000
1000
0001
1000
0000
0010
0100
,
0002
0000
0000
0000
,
0000
0000
0000
0000
,
1003
0000
1000
0001
0010
0000
0010
0100
1000
0000
1000
0001
0010
0000
0100
0000
,
1000
0000
0100
0010
0100
0000
1000
0001
1000
0000
0010
0100
0010
0000
0001
0000
,
0100
0010
1000
0001
0100
0000
0010
0000
1000
0010
1000
0100
0010
0000
0001
0000
,
1000
0100
1000
0100
0010
0000
0001
0000
0100
0010
0100
0010
1000
0000
0001
0000
,
1000
0001
0010
0001
0100
0010
1000
0010
,
0100
0001
1000
0001
1000
0100
0010
0001
,
0010
0000
0100
0000
1000
0000
0100
0000
1000
0010
1000
0010
1000
0010
1000
0000
,
0001
0000
0100
0000
1000
0000
0100
0001
0010
0001
0010
0001
0010
0001
0010
0000
,
1000
0000
1000
0010
0100
0000
0010
0001
0010
0000
1000
0100
0010
0000
0001
0000
,
1000
0000
1000
0001
0100
0000
0100
0010
1000
0000
1000
0100
0010
0000
0001
0000
,
0101
0000
0000
1100
0000
0000
0101
0000
0011
0000
0000
1010
0000
0000
0110
0000
,
0001
1000
0001
1000
0001
0000
0100
0000
0010
0100
0010
0100
0010
0000
0001
0000
,
0100
0001
0100
0001
1000
0010
1000
0010
,
0100
0001
0100
0010
1000
0010
1000
0001
,
1000
0010
1000
0001
,
0010
0100
0010
0100
0010
0000
0000
0000
0001
1000
0001
1000
0001
0000
0100
0000
,
0010
0000
0001
0000
0010
0000
0001
1000
,
0100
0010
0100
0010
,
2002
0000
0000
0000
,
0000
3003
0000
0000
;
