#TITLE:JULIAN;
#ARTIST:Queen P.A.L.;
#GENRE:EURODANCE;
#CREDIT:B. M'Rey;
#MUSIC:JULIAN.ogg;
#BANNER:JULIAN-bn.png;
#BACKGROUND:JULIAN-bg.png;
#CDTITLE:./CDTITLES/SOUND VOLTEX IV HEAVENLY HAVEN.PNG;
#SAMPLESTART:84.8;
#SAMPLELENGTH:15;
#OFFSET:0.160;
#BPMS:0=153;
#BGCHANGES:2.250=JULIAN.AVI=1.000=1=0=0=StretchNoLoop==CrossFade==,
290.375=JULIAN-bg.png=1.000=1=0=1===CrossFade==,;

//--------------- dance-single - B. M'Rey ----------------
#NOTES:
     dance-single:
     B. M'Rey:
     Beginner:
     4:
     0.153107,0.183231,0.042195,0,0,122,5,0,0,0,0,0,0,0.153107,0.183231,0.042195,0,0,122,5,0,0,0,0,0,0:
0000
0000
0000
0000
,
0000
0000
0000
0000
,
0000
0000
0000
0000
,
0000
0000
0000
0000
,
0000
0000
0000
0000
,
0001
0000
0000
0000
,
1000
0000
0000
0000
,
0001
0000
0000
0000
,
0010
0000
0000
0010
,
0100
0000
0100
0000
,
0001
0000
1000
0000
,
0010
0000
0000
0000
,
0100
0000
0000
0000
,
0001
0000
0001
0000
,
1000
0000
1000
0000
,
0100
0000
0000
0000
,
0100
0000
0000
0000
,
1000
0000
1000
0000
,
0001
0000
0001
0000
,
0010
0000
0000
0000
,
0100
0000
0100
0100
,
0000
0001
0000
0001
,
0000
1000
0000
1000
,
0000
0001
0000
0001
,
0000
1000
0000
1000
,
0000
0001
0000
0001
,
0000
0010
0000
0010
,
0000
0001
0000
0001
,
0000
0100
0000
1000
,
0001
0000
0000
0000
,
0100
0000
0000
0000
,
0010
0000
0000
0000
,
0110
0000
0000
1000
,
0000
0001
0000
0010
,
0000
0000
0000
0010
,
0000
0000
0000
0000
,
0000
0100
0000
0000
,
0000
0100
0000
0100
,
0100
0000
1000
0000
,
1000
0000
1000
0000
,
1000
0001
0000
0001
,
0000
0001
0000
0001
,
0000
0000
0010
0000
,
0010
0000
0010
0000
,
0010
0100
0000
0100
,
0000
0100
0000
0000
,
0110
0000
0000
0000
,
0000
1000
1000
1000
,
0000
0000
0000
0000
,
0000
0001
0001
0001
,
0000
0000
0110
0000
,
0000
0100
0100
0100
,
0000
0010
0000
0010
,
0000
0010
0010
0010
,
0000
0000
1000
0000
,
1000
0000
0001
0000
,
0001
0000
1000
0000
,
0001
0000
1000
0000
,
1000
0000
0110
0000
,
0000
0001
0000
0001
,
0000
0010
0000
0010
,
0000
0100
0000
0100
,
0100
0000
1000
0000
,
1000
0000
0001
0000
,
0001
0000
0010
0000
,
0010
0000
0000
0100
,
0100
0000
1000
0000
,
0001
0000
1000
1000
,
1000
0000
0001
0000
,
0001
1000
1000
0001
,
0000
0010
0000
0100
,
0000
1000
0000
0000
,
0000
0000
0000
0110
0000
0000
0000
0000
;

//--------------- dance-single - B. M'Rey ----------------
#NOTES:
     dance-single:
     B. M'Rey:
     Easy:
     6:
     0.307419,0.398372,0.278486,0.135023,0.008439,206,33,16,0,0,0,0,0,0.307419,0.398372,0.278486,0.135023,0.008439,206,33,16,0,0,0,0,0:
0000
0000
0000
0000
,
0000
0000
0000
0000
,
0000
0000
0000
0000
,
0000
0000
0000
0000
,
0000
0000
0000
0000
,
1001
0000
0001
0010
,
1000
0000
1000
0010
,
0001
0000
0001
0010
,
1000
0000
1001
0000
,
1000
0000
0100
0000
,
0010
0000
0001
0000
,
1000
0000
0010
0000
,
0001
0000
0100
0100
,
1000
0000
0000
0000
,
0001
0000
0010
0000
,
1000
0010
0001
0000
,
1000
0100
0001
0000
,
1000
0000
0010
0000
,
0001
0000
1000
0000
,
0010
0000
0000
0000
,
0100
0000
0110
0000
,
0001
0000
0000
0000
,
1000
0000
0010
0000
,
0001
0010
1000
0000
,
0001
0100
1000
0000
,
0001
0000
0000
0000
,
1000
0000
0001
0000
,
0010
0000
0000
0000
,
0100
0100
0100
0100
,
0110
0000
1001
1000
,
0100
0100
0000
0000
,
0010
0001
1000
0000
,
1000
0000
0100
0010
,
0010
0110
0000
0001
,
0100
1000
0100
0001
,
0001
0000
0100
0100
,
1000
0001
0100
1000
,
0100
0001
1000
1001
,
0000
0001
0000
0001
,
0000
0001
0001
0001
,
0001
0010
0010
0000
,
0010
0100
0100
0000
,
0101
1000
0000
1000
,
0000
1000
1000
1000
,
1000
0010
0010
0000
,
0010
0100
0100
0000
,
1100
0001
0000
0001
,
0000
0001
0010
0010
,
0010
0100
0000
0100
,
0000
0100
0001
0001
,
0001
1000
0010
0001
,
0100
1000
1000
1000
,
1000
0100
0100
1000
,
1000
0001
1000
1001
,
0000
0001
0010
1000
,
1000
0100
0001
0100
,
0100
1000
1000
0100
,
0100
1000
0100
1000
,
0100
0001
0100
1000
,
1000
0100
0001
0100
,
0100
0001
1000
0001
,
0100
0001
1000
0100
,
0100
1000
0010
0001
,
0001
0100
1000
0100
,
0100
0001
0001
0100
,
0100
0001
0100
0001
,
0100
1000
0100
0001
,
0001
0100
1000
0100
,
0100
1000
0001
1000
,
0100
1000
0001
0010
,
0010
0100
0000
0100
,
0001
2002
0000
0000
,
0000
0000
0000
0000
0000
0100
0000
0010
0000
0000
0000
0000
0000
0000
0000
0000
0000
0000
3003
0000
0000
0000
0000
0000
;

//--------------- dance-single - B. M'Rey ----------------
#NOTES:
     dance-single:
     B. M'Rey:
     Medium:
     10:
     0.458115,0.45966,0.303803,0.109706,0.042195,331,36,13,0,0,0,0,0,0.458115,0.45966,0.303803,0.109706,0.042195,331,36,13,0,0,0,0,0:
0000
0000
0000
0000
,
0000
0000
0000
0000
,
0000
0000
0000
0000
,
0000
0000
0000
0000
,
0000
0000
0000
0000
,
1001
0000
0001
0010
0000
0000
0000
0000
,
1001
0000
1000
0001
0000
0000
0000
0000
,
1001
0000
1000
0100
0000
0000
0000
0000
,
1001
0000
0001
1000
0001
0000
1001
1001
,
0001
0000
0010
0000
0100
1000
0100
0000
,
0010
0000
0001
0000
1000
0001
1000
0000
,
0100
0000
0001
0000
0100
0010
0100
0000
,
0002
0000
1000
1000
,
1003
0000
0010
0000
1000
0001
1000
0000
,
0001
0000
0010
0000
0001
1000
0001
0000
,
1000
0000
0010
0000
0001
0100
1000
0100
,
0001
0000
0100
0000
1000
0100
0010
1000
,
0002
0000
2003
0000
,
3002
0000
0203
0000
,
1300
1000
0100
0000
0001
0001
0100
0000
,
0010
0010
1000
0000
0100
1000
0100
0000
,
0001
0000
0010
0000
0001
1000
0001
0000
,
1000
0000
0010
0000
1000
0001
1000
0000
,
0001
0000
0010
0000
1000
0100
0001
0100
,
1000
0000
0100
0000
0001
0100
0010
0001
,
2000
0000
0000
0000
,
3002
0000
0203
0000
,
0301
0001
0100
0000
1000
1000
0100
0000
,
0010
0010
0001
0000
0100
0100
0001
0000
,
1001
0000
0000
0110
0000
0100
0000
0001
,
0000
1001
0000
0000
0000
0001
0000
1000
,
0000
0001
0000
1000
0000
1001
0000
0000
,
0100
0000
0000
0010
0000
0000
0000
0000
0000
0100
0000
0100
,
0000
0010
0000
0110
0000
0000
0000
0000
0000
1001
0000
0000
,
0000
0110
0000
0100
0000
1000
0000
1001
,
0000
0000
0000
1000
0001
0000
0001
0000
,
1000
0001
0100
0000
0000
0010
0000
0010
,
0000
0000
0000
0100
0000
0000
0001
0000
0000
0000
0001
0000
0000
0000
1000
0000
0000
0000
1001
0000
0000
0000
0000
0000
,
0000
0000
0110
0000
1000
0100
0010
0000
,
0100
0000
1000
0000
1000
0000
1000
0100
,
0010
0000
0001
0000
0001
0000
0001
0010
,
0001
0000
1000
0000
1000
0000
1000
0001
,
1000
0000
0110
0000
0001
0100
0010
0000
,
0100
0000
0001
0000
0001
0000
0001
0100
,
0010
0000
1000
0000
1000
0000
1000
0001
,
1000
0001
0010
0000
0010
0000
0010
0100
,
0010
0100
2000
0000
0100
0000
0100
0000
,
3100
0010
0000
0010
0000
0010
0000
0010
,
0001
0002
1000
1000
,
1003
0100
0000
0100
0000
0100
0000
0100
,
0001
0002
0010
0010
,
0013
0100
0000
0100
0000
0100
0000
0100
,
1000
0000
1000
0001
0010
0001
1000
0100
,
1000
0001
1000
0000
1000
0000
1001
0000
,
0000
0000
1001
0000
0001
0000
0010
1000
,
0100
0000
0010
0000
0110
0000
1000
0100
,
0001
0000
1000
1000
1000
0000
0100
0100
,
0100
0000
0010
0010
0010
0000
0001
0000
,
1001
0000
0110
0000
1001
0000
0001
0100
,
1000
0000
0100
0001
0100
0000
0010
1000
,
0100
0000
0001
0001
0001
0000
0010
0010
,
0010
0000
0100
0100
0100
0000
1000
0000
,
1001
0000
1001
0000
1000
0000
0010
0001
,
0100
0000
0010
0000
0110
0000
0001
0100
,
1000
0000
0001
0001
0001
0000
0100
0100
,
0100
0000
0010
0010
0010
0000
1000
0000
,
1001
0000
0110
0000
1001
0000
1000
0100
,
0001
0000
0100
1000
0100
0000
0010
0001
,
0100
0000
1000
1000
1000
0000
0010
0010
,
0010
0000
0100
0100
0100
0000
0001
0000
,
1001
0000
0010
0100
0000
1000
0001
0000
,
1000
0000
0000
0001
0000
0000
1000
0000
0000
0000
0000
0000
0000
0000
0000
0000
0000
0000
0000
0000
0001
0000
0000
0000
,
0000
0000
0000
0000
2002
0000
0000
0000
0000
3003
0000
0000
;

//--------------- dance-single - B. M'Rey ----------------
#NOTES:
     dance-single:
     B. M'Rey:
     Hard:
     13:
     0.597961,0.582236,0.345997,0.135023,0.274266,439,41,16,0,0,0,0,0,0.597961,0.582236,0.345997,0.135023,0.274266,439,41,16,0,0,0,0,0:
0000
0000
0000
0000
,
0000
0000
0000
0000
,
0000
0000
0000
0000
,
0000
0000
0000
0000
,
0000
0000
0000
0000
,
1001
0000
0000
1001
0000
0000
0010
0000
0000
0000
0000
0000
0100
0000
0000
0000
,
0110
0000
0000
0100
0000
0000
0001
0000
0000
0000
0000
0000
1000
0000
0000
0000
,
1001
0000
0000
1000
0000
0000
0010
0000
0000
0000
0000
0000
0100
0000
0000
0000
,
0110
0000
0000
0100
0000
0000
1000
0000
0001
0000
0000
0000
1001
0000
1001
0000
,
0010
0000
0000
0100
0000
0000
1000
0000
0000
0100
0000
0000
0010
0000
0001
0000
,
1000
0000
0000
0010
0000
0000
0100
0000
0000
0001
0000
0000
0100
0000
0010
0000
,
1000
0000
0000
0001
0000
0000
0010
0000
0000
0001
0000
0000
1000
0000
0200
0000
,
0010
0000
0010
0000
0010
0010
0010
0010
,
0320
0000
0000
0100
,
0032
0000
0203
0320
,
1030
0001
1000
0100
0001
1000
0010
0100
,
0000
0100
0010
1000
0001
0010
0001
1000
,
0020
0000
0230
0000
,
2300
0000
0000
0000
0000
0000
3200
0000
0320
0000
0032
0000
,
1003
0001
0010
0001
1000
0100
0001
0100
,
0000
0100
0001
1000
0100
0010
0100
0001
,
0020
0000
0000
0000
,
0230
0000
2300
3200
,
0310
0001
1000
0001
0010
0100
0010
0110
,
0000
0010
0001
1000
0100
0010
0100
0110
,
0002
0000
0000
0000
0000
0103
0010
1000
,
0100
0020
0000
0000
0230
0000
0000
0000
,
2300
0000
0000
0000
,
0002
0000
0000
3003
,
1001
0000
0000
0101
0000
1000
0000
0100
,
0000
0010
0100
0000
0000
0100
0000
1000
,
0000
0001
0000
1000
0000
0001
0000
0000
,
1001
0000
0000
0010
0000
0100
0000
0010
0000
0100
0000
0100
,
0000
0010
0000
0002
0000
0000
0003
0000
0000
1001
0000
0000
,
0100
0010
0000
0010
0000
0100
0000
0100
,
0001
0000
0001
1000
1000
0100
0100
0001
,
0001
0001
0100
0000
1000
0001
0000
0010
,
0000
0000
0000
0001
0000
0000
0010
0000
0000
0000
0010
0000
0000
0000
0000
0010
0000
0000
0200
0000
0000
0000
0000
0000
,
0300
0000
0110
0000
1000
0100
1000
0100
,
0010
0001
1000
0001
0010
0001
0100
1000
,
0100
0000
0000
0001
0000
0000
1000
0000
0000
0000
1000
0000
0000
0000
1000
0000
0000
0000
0100
0000
0000
0010
0000
0000
,
0100
0000
0000
1000
0000
0000
0100
0000
0000
0000
0100
0000
0000
0000
0100
0000
0000
0000
0010
0000
0000
0100
0000
0000
,
0110
0000
1001
0000
0001
0010
0001
0010
,
0100
1000
0001
1000
0100
1000
0010
0001
,
0010
0000
0000
1000
0000
0000
0001
0000
0000
0000
0001
0000
0000
0000
0001
0000
0000
0000
0010
0000
0000
0100
0000
0000
,
0010
0000
0000
0001
0000
0000
0010
0000
0000
0000
0010
0000
0000
0000
0010
0000
0000
0000
0100
0000
0000
0010
0000
0000
,
0110
0000
1000
0100
0001
0000
1000
0100
,
0001
0010
0000
0010
0000
0010
0000
0010
,
0100
0010
0001
0100
1000
0000
1000
0100
,
0001
0000
0010
0100
1000
0100
0010
0100
,
0110
0000
0001
0100
1000
0100
0001
0100
,
1000
0100
1000
0100
0010
0100
0001
1000
,
1001
0000
0100
0100
0010
0010
0001
0001
,
1000
0000
1000
0000
1001
0000
0000
0101
0000
0000
1001
0000
1100
0000
0000
0000
,
0000
0000
0000
0000
1001
0000
0000
0000
0110
0000
0000
0000
1000
0100
0000
0010
,
0000
0001
0100
1000
0100
0001
0010
0100
,
0100
0000
0100
1000
0100
0010
0001
1000
,
1100
0010
0100
1000
0001
0010
0001
1000
,
0001
0000
0000
0000
1001
0000
0000
0000
0110
0000
0000
0000
0001
0100
0000
0010
,
0000
1000
0100
0001
0100
1000
0010
0100
,
0100
0000
0100
0001
0100
0010
1000
0001
,
0100
0010
0100
0001
1000
0010
1000
0001
,
1001
0000
0000
0000
1001
0000
0000
0000
0110
0000
0000
0000
0001
0010
0000
0100
,
0000
1000
0100
0010
0001
1000
0001
0010
,
0110
0000
1000
0100
0010
0100
1000
0100
,
0010
0001
1000
0100
0010
0100
1000
0001
,
1001
0000
0000
0000
1001
0000
0000
0000
0110
0000
0000
0000
1000
0010
0000
0100
,
0000
0001
0100
0010
1000
0001
1000
0010
,
0110
0000
0001
0100
0010
0100
0001
0100
,
0010
1000
0001
0100
0010
0100
0001
1000
,
1001
0000
1001
0001
0000
1000
0001
0000
,
1000
0000
0000
0001
0000
0000
0100
0000
0000
0100
0000
0000
0100
0000
0000
0000
1000
0000
0001
0000
0010
0000
0000
0000
,
0010
0000
0000
0000
0001
0000
0000
0000
0200
0020
0000
0000
0000
0000
0000
0030
0000
0000
0300
0000
0000
0000
0000
0000
;

//--------------- dance-single - B. M'Rey ----------------
#NOTES:
     dance-single:
     B. M'Rey:
     Challenge:
     17:
     0,0,0,0,0:
0000
0000
0000
0000
,
0000
0000
0000
0000
,
0000
0000
0000
0000
,
0000
0000
0000
0000
,
0000
0000
0000
0000
,
1000
0000
0000
0001
0000
0000
0100
0000
0010
0000
0000
0000
1000
0000
0001
0000
,
1000
0000
0000
0001
0000
0000
0100
0000
0000
0010
0000
0000
0001
0000
0010
0000
,
0001
0000
0000
1000
0000
0000
0010
0000
0100
0000
0000
0001
0000
0000
1000
0000
,
0001
0000
0000
0100
0000
0000
0001
0000
0010
0000
0000
0000
1001
0000
1001
0000
,
0001
0100
0001
0010
0100
1000
0100
0010
,
0001
1000
0010
1000
0001
0010
0100
1000
,
0010
1000
0100
0010
0100
1000
0010
0100
,
0001
1000
0001
1000
0001
0010
0100
0010
0100
0010
0001
1000
0001
1000
0010
0000
,
0001
0100
0001
0010
0100
0000
0001
0010
0001
0000
0001
1000
0100
0000
0010
0100
,
0000
1000
0000
1000
0100
0000
0001
0010
0100
0000
0100
1000
0010
0100
0010
0100
,
0010
0000
1000
0000
0010
0000
0010
1000
0001
0000
0100
0000
0001
0000
0001
0010
,
0000
1000
0000
1000
0100
0000
0001
0000
0100
0000
0100
0000
0010
0000
0001
1000
,
0000
0100
0000
0001
0010
0000
0010
0000
0001
0000
0100
0000
0001
0000
0100
1000
,
0000
0100
0000
0010
0001
0000
0010
0000
0001
0000
0010
0000
0100
0000
0001
1000
,
0000
0100
0000
0100
0001
0000
0100
1000
0010
0000
0001
0000
0001
0000
0100
0010
,
0000
0100
0000
1000
0100
0000
0001
0000
0100
0000
0001
1000
0100
0000
0010
1000
,
0100
0000
0100
1000
0001
0000
0100
0010
0100
0000
0001
0000
0100
0000
0001
0010
,
0000
1000
0000
0100
0010
0000
0100
1000
0100
0000
0010
0100
0010
1000
0100
0010
,
0000
0010
0000
0010
0100
0000
0010
0100
0010
0000
0010
0000
0001
0000
1000
0010
,
0000
0001
0000
1000
0001
0000
0010
1000
0001
0000
0100
0010
0001
0000
0010
0100
,
0001
0000
0010
0100
0010
0000
0001
0010
1000
0000
0010
0000
0001
0000
0001
0100
,
0000
0100
0000
1000
0010
0000
0010
0000
0001
0000
0100
1000
0010
0000
0100
0010
,
0000
0100
0000
0100
0001
0000
0100
0000
0010
0000
0001
0000
1000
0000
1000
0010
,
0000
0010
0000
1000
0001
0000
0010
0000
0100
0000
0010
0000
0001
0000
0100
0000
,
1001
0000
0001
0100
0001
0100
0010
0000
0000
0000
1100
0000
0000
0000
0110
0000
,
0000
0000
1100
0000
0101
0000
0001
1000
0100
1000
0001
0000
0000
0000
0011
0000
,
0000
0000
0101
0000
0000
0000
1010
0000
0000
0000
1010
0000
0000
0100
0001
0100
,
0001
0000
0000
1100
0000
0101
0000
0001
1000
0001
0000
1100
,
0000
0000
0000
0000
0010
0000
0000
0000
1000
0000
0000
0000
0020
0000
0000
0000
0000
0000
0000
0000
0000
0000
0000
0000
0000
0000
0000
0000
0000
0000
1030
0000
0001
0000
1000
0000
0010
0000
0000
0000
0000
0000
0100
0000
0000
1000
0000
0000
,
0001
0010
0100
0000
0000
0000
0110
0000
0000
0000
0011
0000
0000
0000
1000
0010
,
0100
0000
0000
0000
0000
0000
0001
0000
0000
0010
0000
0000
0100
0000
0000
0000
0000
0000
0010
0000
0100
0000
0010
0000
0100
0000
0000
0000
0000
0000
0100
0000
0000
0010
0000
0000
0001
0000
0000
0000
0000
0000
0010
0000
0000
0100
0000
0000
,
0010
0100
0001
1000
0002
0000
0000
0000
0103
0000
1010
0000
0000
0000
0011
0000
,
1000
0000
0000
0000
0000
0000
0100
0000
0000
0010
0000
0000
0001
0000
0000
0000
0000
0000
0001
0000
0000
1000
0000
0000
0100
0000
0000
0000
0000
0000
0100
0000
0000
1000
0000
0000
0001
0000
0000
0000
0000
0000
0010
0000
0001
0000
0010
0000
,
0001
0100
0110
0100
1000
1000
0010
0100
,
0010
0000
1000
0000
0001
0000
1000
0010
0100
0000
0010
0000
0001
0010
0000
1000
,
0100
0000
0010
0001
0010
0000
0010
1000
0000
0100
0001
0000
0001
0010
0100
1000
,
0100
0000
0100
0010
0100
0000
0001
1000
0000
1000
0010
0000
0100
0010
0100
1000
,
0100
0000
1001
0000
0001
0000
1000
0000
0110
0000
0110
0000
0110
0000
0100
0001
,
0010
0000
0000
1000
0000
0000
0100
0000
0000
0000
0000
0000
0001
0000
0000
0000
0000
0000
0010
0000
0000
0000
0000
0000
0100
0000
1000
0000
0100
0000
1000
0000
0000
0000
0000
0000
0010
0000
0000
0000
0000
0000
0100
0000
0000
0001
0000
0000
,
0000
1000
0100
0000
0001
0000
1000
0000
0100
0000
1000
0000
0001
0000
0010
0000
,
0001
0100
0001
0010
0100
0010
0001
1001
,
0110
0000
0100
0010
0001
0100
0010
0100
0001
0000
0100
0000
0100
1000
0000
1000
,
0001
0010
0001
0100
0001
0100
0010
1000
,
1001
0000
0000
0000
0001
0100
0010
0000
1010
0000
0000
0000
0001
0100
0000
1000
,
0010
0000
0010
0000
0001
1000
0000
1000
0100
0000
1000
0100
0010
0000
0010
1000
,
1001
0000
1000
0000
0100
0010
0100
1000
0001
0000
0001
0010
0001
1000
0100
1000
,
0001
0100
0001
1000
0001
0100
0010
0100
0010
0000
0001
0000
1100
0000
0001
1000
,
0020
0030
1000
0000
0100
1000
0001
1000
0001
0100
0010
1000
0001
1000
0010
0100
,
0010
1000
0010
0100
2002
3003
0000
2200
3300
0000
0220
0330
0220
0330
0000
0001
,
0000
0000
0000
0000
1010
0000
0000
0000
1100
0000
0000
1000
0001
0100
0010
0000
,
0001
0000
0100
0000
0010
0000
0100
0000
0001
0000
0010
0000
0001
0100
0000
1000
,
0010
0000
0100
0000
0001
1000
0001
1000
0100
0000
0010
0000
0100
0001
0010
0000
,
0100
0000
1000
0000
0010
0000
0100
0010
0100
0000
1000
0000
0001
0010
0000
1000
,
0100
0000
0010
0000
0101
0000
0000
0000
0110
0000
0000
1000
0001
1000
0010
0000
,
0100
0000
1000
0000
0010
0000
0100
0000
0001
0000
0010
0001
1000
0000
1000
0010
,
0000
0000
1000
0000
0010
1000
0010
1000
0100
0001
0010
0000
0100
0001
1000
0100
,
0010
1000
0011
0010
1001
1000
1010
1000
,
1010
0000
1000
0000
0011
0000
0000
0000
1100
0000
0000
1000
0100
0001
1000
0000
,
0100
0000
0010
0000
0001
0000
0010
0000
0100
0000
0001
0000
0010
1000
0000
1000
,
0100
0000
0000
0000
0000
0000
0010
0000
0000
0000
0000
0000
0001
0000
0000
0100
0000
0000
0001
0000
0100
0000
0001
0000
0100
0000
0000
0000
0000
0000
0100
0000
0000
0010
0000
0000
0001
0000
0000
0000
0000
0000
1000
0000
0000
0100
0000
0000
,
0010
0000
0100
0000
0001
0000
0100
1000
0010
0001
0100
0000
0001
0000
0010
0000
,
0110
0000
0010
0000
1100
0000
0000
0000
0110
0000
0000
0010
0001
1000
0010
0000
,
0100
0000
0010
0000
0001
0000
1000
0000
0100
0000
0010
0100
0010
0100
0000
1001
,
0000
0000
0100
0000
0011
0000
0010
0000
1001
0000
1000
0000
0110
0000
0100
0010
,
0100
0010
0100
0000
1001
0000
1000
0000
1100
0000
1000
0000
1100
0000
0010
0000
,
1001
0000
0000
0000
0001
1000
0001
0000
1000
0000
0010
0100
0010
0000
1000
0000
,
0001
0000
0000
0010
0000
0000
0001
0000
0000
0000
0000
0000
0010
0000
0000
1000
0000
0000
0010
0000
0000
0000
0000
0000
0000
0000
1000
0000
0000
0000
0000
0000
0000
0000
0001
0000
0000
0000
0010
0000
0000
0000
0100
0000
0000
0000
0000
0000
,
0000
1000
0000
0000
0000
0100
0000
0010
0000
2002
0000
0000
0000
0000
0000
0000
0000
0000
3003
0000
0000
0000
0000
0000
;
