#VERSION:0.83;
#TITLE:Inverted Illusion (Reducted mix);
#ARTIST:fmy.;
#GENRE:TRANCE;
#CREDIT:B. M'Rey;
#MUSIC:Inverted Illusion (Reducted mix).ogg;
#BANNER:Inverted Illusion (Reducted mix).png;
#BACKGROUND:Inverted Illusion (Reducted mix)-bg.png;
#CDTITLE:./CDTITLES/Dance Dance Revolution SPACE.PNG;
#SAMPLESTART:95.1;
#SAMPLELENGTH:15;
#OFFSET:-0.113;
#BPMS:0=144;

//--------------- dance-single - B. M'Rey ----------------
#NOTEDATA:;
#STEPSTYPE:dance-single;
#DESCRIPTION:B. M'Rey;
#DIFFICULTY:Beginner;
#METER:6;
#RADARVALUES:0.232849,0.304461,0.030754,0.14608,0,189,4,19,0,0,0,0,0,0.232849,0.304461,0.030754,0.14608,0,189,4,19,0,0,0,0,0;
#CREDIT:B. M'Rey;
#NOTES:
0000
0000
0000
0000
,
0000
0000
0000
0000
,
0000
0000
0000
0000
,
0000
0000
0000
0000
,
0000
0000
0000
0000
0000
0000
0000
1000
,
1000
0000
0000
0000
,
1000
0000
0000
0000
,
1000
0000
1000
0000
,
2002
0000
0000
3003
,
0100
0000
0100
0000
,
0001
0001
0001
0000
,
1000
0000
1000
0000
,
0010
0010
0010
0000
,
0100
0000
0100
0000
,
0001
0001
0001
0000
,
0010
0000
1000
0000
,
0001
0000
0100
0000
,
0010
0001
0010
0000
,
0001
0100
0001
0000
,
1000
0010
0100
1000
,
0001
0010
1000
0000
,
1000
0100
0001
0000
,
1000
0100
0001
0000
,
0001
1000
0100
0010
,
0001
0100
1000
1001
,
2000
0000
0000
0000
,
0000
0000
0000
0000
,
3200
0000
0000
0000
,
0000
0000
0000
0000
,
0320
0000
0000
0000
,
0000
0000
0000
0000
,
2030
0000
0000
0000
,
0000
0000
0000
0000
,
3200
0000
0000
0000
,
0000
0001
0001
0001
,
0302
0000
0000
0000
,
0000
0000
0000
0010
,
0023
0000
0000
0001
,
0032
0000
0000
1000
,
2000
0000
0000
3003
,
2002
0000
0000
3003
,
2000
0001
0000
0001
,
3002
1000
0000
1000
,
2003
0100
0000
0100
,
3002
0100
0000
0100
,
1003
0100
0010
0100
,
1000
0100
0001
1000
,
0100
0001
0100
0001
,
1000
0001
1000
0001
,
1000
0100
1000
0100
,
0001
1000
0001
0000
,
0010
0100
0010
0001
,
1000
0100
1000
0000
,
0001
0010
0100
1000
,
0001
0010
0100
1000
,
0001
0100
1000
0001
,
0200
0000
0000
0300
,
0001
0100
1000
0100
,
0001
1000
0001
1000
,
0001
0010
1000
0010
,
0001
1000
0001
0000
,
1000
0100
0001
0010
,
1000
0001
1000
0001
,
1000
0010
0001
0010
,
1000
0001
1000
0000
,
0001
1000
0100
0000
,
0010
0010
0010
0000
,
1000
0100
0001
1000
,
0100
0100
0100
0000
,
0010
1000
0100
0001
,
0100
1000
0010
0100
,
1000
0001
0100
1000
,
0001
0000
0100
0000
1000
0001
1000
0001
,
1001
0000
0000
0000
;

//--------------- dance-single - B. M'Rey ----------------
#NOTEDATA:;
#STEPSTYPE:dance-single;
#DESCRIPTION:B. M'Rey;
#DIFFICULTY:Easy;
#METER:8;
#RADARVALUES:0.352568,0.387496,0.115326,0.207587,0.026909,279,15,27,0,0,0,0,0,0.352568,0.387496,0.115326,0.207587,0.026909,279,15,27,0,0,0,0,0;
#CREDIT:B. M'Rey;
#NOTES:
0000
0000
0000
0000
,
0000
0000
0000
0000
,
0000
0000
0000
0000
,
0000
0000
0000
0000
,
0000
0000
0000
0000
0000
0000
0000
0010
,
0100
0100
0010
0010
,
1000
1000
0100
0100
,
0001
0001
1000
1000
,
2002
0000
0000
3003
,
1001
0100
0010
0100
,
0100
0010
0001
0200
,
0310
0000
0010
0000
0100
0100
0100
0000
,
1000
0000
1000
0000
0001
0001
0001
0000
,
0010
1000
0100
0100
,
1000
0001
0010
0010
,
0100
0000
0001
0000
1000
1000
1000
0000
,
0010
0000
0000
0000
0001
0000
0000
0000
1000
0000
0000
1000
0000
0000
1000
0000
,
0100
0010
0001
0000
0100
0000
0010
0000
,
1000
0001
0010
0000
0001
0000
2000
0000
,
3100
0000
0100
0000
0010
0010
0010
0000
,
0001
0000
1000
0000
0100
0100
0100
0000
,
0001
0000
1000
0000
0001
0000
1000
0100
,
0010
0000
1000
0000
0100
0000
0010
0001
,
0010
0001
1000
0100
,
0010
0100
1000
1000
1000
0000
1001
0000
,
0002
0000
0000
0000
0010
0000
0000
1000
,
0000
0000
0100
0000
,
0103
0000
0000
0000
0010
0200
0000
0000
,
2300
0000
0000
3002
,
0103
0000
0000
0110
,
1001
0000
0000
0000
0000
0100
0000
0100
,
0001
0000
0000
0010
0000
0000
1000
0000
,
0200
0000
0000
0000
,
0320
0000
0000
0000
,
0000
1000
1000
0100
,
0230
0000
0000
0000
0000
0310
0000
0010
,
2000
0000
0000
0010
,
3010
0000
0000
1001
,
0110
0000
0000
0000
0000
0010
0000
0010
,
0200
0000
0000
0000
0300
0000
0000
1010
,
2002
0000
0000
3003
,
2000
0001
0001
0001
,
3002
1000
1000
1000
,
2003
0100
0100
0100
,
3002
0100
0100
0100
,
1003
0001
1000
0001
,
1000
0100
1000
0100
,
0010
1000
0010
1000
,
0100
0010
0001
1001
,
0110
0001
0100
0010
,
0100
0000
0001
0000
1000
0000
0001
0010
,
0100
0100
1000
0100
,
0001
0000
1000
0000
0100
0000
0001
0010
,
0100
0010
0001
0100
,
1000
0001
0010
1000
,
1000
0000
0010
0000
0100
0000
0001
0010
,
0200
0000
0020
0330
,
0100
1001
0001
0010
,
0100
0000
0010
0000
0001
0100
0001
0000
,
1000
0100
0001
1000
,
0010
0000
0001
0000
0100
0000
0010
1000
,
0010
0100
0001
0010
,
0001
0000
0100
0000
1000
0000
0001
0100
,
1000
1000
0010
0001
,
2000
3002
0203
0310
,
0001
0000
0100
0000
0001
0000
0000
0010
0000
0000
0001
0000
0100
0000
0000
0000
,
0010
0000
0100
0000
0010
0000
0000
1000
0000
0000
0100
0000
0001
0000
0000
0000
,
1000
0000
0100
0000
0001
0000
0000
0010
0000
0000
0001
0000
0001
0000
0000
0000
,
1000
0000
0010
0000
0100
0000
0000
1000
0000
0000
0001
0000
0100
0000
0000
0000
,
0010
0000
0001
0000
0010
0000
0000
0010
0000
0000
0001
0000
1000
0000
0100
0000
,
0001
0000
1000
0000
0010
0000
0000
0001
0000
0000
0010
0000
0100
0000
0000
0000
,
0010
0000
0100
0000
1000
0001
0010
0000
,
0200
0000
0320
0000
0031
1000
0010
0000
,
1100
0000
0000
0000
;

//--------------- dance-single - B. M'Rey ----------------
#NOTEDATA:;
#STEPSTYPE:dance-single;
#DESCRIPTION:B. M'Rey;
#DIFFICULTY:Medium;
#METER:11;
#RADARVALUES:0.439337,0.525887,0.069196,0.284471,0.130703,354,9,37,0,0,0,0,0,0.439337,0.525887,0.069196,0.284471,0.130703,354,9,37,0,0,0,0,0;
#CREDIT:B. M'Rey;
#NOTES:
0000
0000
0000
0000
,
0000
0000
0000
0000
,
0000
0000
0000
0000
,
0000
0000
0000
0000
,
0000
0000
0000
0000
0000
0000
0000
0010
,
0100
0001
0010
0100
,
0010
0001
1000
0100
,
0001
1000
0100
0010
1000
0100
0010
0001
,
0200
0000
0020
0330
,
1001
0001
0010
0000
0200
0000
1300
0000
,
0100
0010
0001
0000
0100
0000
2000
0000
,
3001
0010
1000
0100
0010
0001
0100
0000
,
0010
1000
0100
0001
1000
0000
0101
0000
,
0011
0001
0100
0000
0020
0000
0130
0000
,
1000
0001
0010
0000
0100
0000
0002
0000
,
0013
0100
0010
0100
0001
1000
0100
0000
,
0001
0000
0010
0000
0100
0000
0001
0000
1000
0000
0000
0100
0000
0000
0010
0000
,
1000
0001
0010
0100
0010
0000
0001
0000
,
0100
1000
0001
0100
1000
0000
0020
0000
,
0130
0001
0010
0100
0001
0000
1000
0000
,
0100
0010
0100
1000
0100
0000
0020
0000
,
1030
0000
0100
0000
0010
0100
0001
1000
,
1001
0000
0001
0000
0100
0010
0002
0100
,
0103
0010
1001
0100
,
0010
1000
0001
0001
0200
0000
1300
1000
,
0002
0000
0000
0000
0200
0003
0000
0020
,
0000
0300
0002
0030
,
2000
0000
0003
3000
0020
0200
0030
0000
,
2000
0000
0300
3002
,
0103
0000
0000
0000
0000
0000
0000
0000
0000
0000
0000
0001
0100
0000
0000
1000
,
0002
0000
0000
0000
0000
0103
0000
0100
,
0010
0000
0100
1000
0000
0001
0010
0000
,
0200
0000
0000
0000
,
0020
0000
0000
0000
,
0300
1000
0100
0001
,
2030
0000
0000
0000
0000
3001
0000
0001
,
0200
0000
0000
0010
,
0310
0000
0000
0000
0000
0000
0000
0000
0000
0000
0000
0000
0001
0000
0000
1000
,
0200
0000
0000
0000
0000
0310
0000
0010
,
0002
0000
0000
0000
0003
0000
0000
0011
,
1000
0000
0100
0010
0001
0000
0100
0000
0010
0000
1000
0000
0101
0000
0000
0000
,
2000
0100
0100
0100
,
3200
0010
0010
0010
,
0320
1000
1000
1000
,
2030
0100
0100
0100
,
3100
0001
1000
0001
,
1000
0001
1000
0001
,
1000
0001
1000
0001
,
1000
0001
1000
0110
,
0110
0000
1000
0000
0100
0010
0001
0100
,
0001
0000
1000
0000
0010
0100
0001
0010
,
0100
0000
1000
0000
0100
0001
1000
0001
,
0100
0000
0010
0000
0001
0100
1000
0100
,
0001
0000
1000
0000
0010
0100
1000
0010
,
0100
0000
0100
0000
0010
0100
1000
0010
,
0100
0001
0010
1000
0001
0100
1000
0010
,
0200
0000
0020
0330
,
1000
0100
0000
0000
0001
0000
0000
0000
1000
0000
0100
0000
0001
0000
0010
0000
,
0001
0100
0000
0000
0010
0000
0000
0000
1000
0000
0100
0000
0010
0000
0001
0000
,
0100
0010
0000
0000
0100
0000
0000
0000
1000
0000
0001
0000
0010
0000
1000
0000
,
0001
0010
0000
0000
0100
0000
0000
0000
0001
0000
1000
0000
0001
0000
0100
0000
,
0001
0100
0000
0000
0010
0000
0000
0000
0001
0000
0100
0000
0010
0000
1000
0000
,
0100
0001
0000
0000
0100
0000
0000
0000
0010
0000
0001
0000
0100
0000
1000
0000
,
0001
0010
0000
0000
1000
0000
0000
0000
0100
0000
1000
0000
0010
0000
0001
0000
,
2000
0000
3002
0000
0203
0000
0310
0010
,
0001
0100
0000
0001
0100
0000
0000
0010
0000
0000
1000
0000
0100
0000
0000
0000
,
0010
0001
0000
0010
0001
0000
0000
1000
0000
0000
0100
0000
0001
0000
0000
0000
,
1000
0100
0000
1000
0100
0000
0000
0010
0000
0000
1000
0000
1000
0000
0000
0000
,
0010
0100
0000
0010
0100
0000
0000
1000
0000
0000
0001
0000
0100
0000
0010
0000
,
0001
1000
0000
0001
1000
0000
0000
0010
0000
0000
1000
0000
0100
0000
0001
0000
,
0100
0010
0000
0010
0001
0000
0000
0100
0000
0000
0010
0000
1000
0100
1000
0000
,
0001
0100
0000
0100
1000
0000
0001
0000
0010
0100
0000
0100
0001
0000
0010
0000
,
0200
0000
0320
0000
0031
0100
1000
1001
,
0110
0000
0000
0000
;

//--------------- dance-single - B. M'Rey ----------------
#NOTEDATA:;
#STEPSTYPE:dance-single;
#DESCRIPTION:B. M'Rey;
#DIFFICULTY:Hard;
#METER:15;
#RADARVALUES:0,0,0,0,0;
#CREDIT:B. M'Rey;
#NOTES:
0000
0000
0000
0000
,
0000
0000
0000
0000
,
0000
0000
0000
0000
,
0000
0000
0000
0000
,
0000
0000
0000
0000
0000
0000
0000
1000
,
0010
0100
0001
0010
0100
0010
0100
0010
,
0101
0100
0001
0010
0100
1000
0001
0100
,
0110
0100
0001
1000
0101
0100
0010
1000
,
1001
0000
0000
0000
0010
0000
0000
0000
1000
0001
1000
0100
0010
0000
1001
0000
,
0100
0000
0010
1000
0100
0000
0010
0000
0001
0100
0010
0000
0001
0000
0100
0000
,
0001
0010
1000
0000
0010
0000
0100
1000
0001
0000
0010
0000
0001
0010
0000
0010
,
0001
0000
0100
1000
0010
0000
1000
0000
0010
0001
0100
0000
0010
0000
0100
0000
,
0001
0010
1000
0000
0010
0000
0100
0000
0010
0001
0100
0000
0001
0100
0000
0100
,
0010
0000
1000
0100
0001
0000
0010
0000
0100
1000
0010
0000
0100
0000
0010
0000
,
0001
0010
1000
0000
0100
0000
1000
0000
0100
0010
1000
0000
0001
1000
0000
0010
,
0100
0000
0010
1000
0100
0000
1000
0000
0100
0001
0010
0000
0001
0000
1000
0000
,
0100
0001
0010
0000
0100
0000
1000
0010
0100
0000
0000
0110
0000
0000
1010
0000
,
0001
1000
0001
0000
0001
0100
0010
0000
0001
0100
0010
0000
0001
1000
0001
0000
,
0001
0100
0010
0000
0010
1000
0010
0000
0001
1000
0010
0000
0001
0100
0000
0010
,
0001
0000
0100
0000
0001
1000
0100
0000
0100
1000
0010
0000
0010
0100
0010
0000
,
0100
0010
0001
0000
0001
0100
0001
0000
0010
0100
0010
0000
0001
1000
0000
1000
,
0100
0000
0100
0000
0001
0100
0001
0000
0001
1000
0100
0000
0100
0010
0001
0000
,
0100
1000
0100
0000
0001
1000
0100
0000
0100
0010
0100
0000
0010
1000
0100
0000
,
0001
1000
0100
1000
0010
0000
0010
0000
0001
1000
0010
1000
0010
0000
0100
0000
,
1000
0000
0100
0010
0001
1000
0010
0000
0100
0000
0001
1000
0100
0000
0010
0000
,
0002
0000
0000
0000
0023
0000
0000
0000
0230
0000
0000
0301
0010
0100
1000
0000
,
0002
0000
0000
0000
2003
0000
0000
3000
0220
0000
0000
0330
2000
0000
0000
3000
,
0202
0000
0000
0303
2000
0000
0000
0000
3100
0000
0010
0000
0000
0000
0001
0000
,
0200
0000
0000
0000
2300
0000
0000
0000
3020
0000
0000
1030
0100
0000
0000
0001
,
0200
0000
0000
0000
0320
0000
0000
0000
2030
0000
0000
3001
0010
0000
0000
1000
,
0200
0000
0000
0000
0320
0000
0000
0000
0000
0000
1030
0000
0000
0000
0010
1000
,
0002
0000
0013
0001
0000
0010
2000
0000
,
3020
0000
0000
0130
1000
0000
0000
0100
0010
0000
0000
0001
0100
0000
0000
1000
,
0002
0023
0032
0203
,
0302
0000
0000
1003
0010
0000
0000
0001
0100
0000
0000
1000
0010
0000
0000
0001
,
0200
0000
0000
0300
0220
0000
0000
0330
0001
0000
1000
0000
0000
0000
0010
0000
,
0200
0000
0000
0000
0320
0000
0000
0000
0032
0000
0000
1003
0010
0000
0000
0001
,
0200
0000
0000
0000
2300
0000
0000
0000
3002
0000
0000
0013
1000
0000
0000
0100
,
0020
0000
0230
0000
0301
0010
0000
1000
,
0200
0000
1300
0001
0000
0100
0001
1001
,
1001
0000
0010
0000
0001
1000
0001
0000
1000
0010
1000
0010
1000
0000
0100
0000
,
1000
0100
0000
0000
0001
0000
0000
0000
1000
0000
0100
0000
0001
0000
0010
0000
,
0001
0100
0000
0000
0010
0000
0000
0000
1000
0000
0100
0000
0010
0000
0001
0000
,
0100
0010
0000
0000
0100
0000
0000
0000
1000
0000
0001
0000
0010
0000
1000
0000
,
0001
0010
0000
0000
0100
0000
0000
0000
0001
0000
1000
0000
0001
0000
0100
0000
,
0001
0100
0000
0000
0010
0000
0000
0000
0001
0000
0100
0000
0010
0000
1000
0000
,
0100
0001
0000
0000
0100
0000
0000
0000
0010
0000
0001
0000
0100
0000
1000
0000
,
0001
0010
0000
0000
1000
0000
0000
0000
0100
0000
1000
0000
0010
0000
0001
0000
,
2000
0000
3002
0000
0203
0000
0310
0010
,
0001
0100
0000
0000
1000
0000
0000
0000
0001
0000
0100
0000
1000
0000
0010
0000
,
1000
0100
0000
0000
0010
0000
0000
0000
0001
0000
0100
0000
0010
0000
1000
0000
,
0100
0010
0000
0000
0100
0000
0000
0000
0001
0000
1000
0000
0010
0000
0001
0000
,
1000
0010
0000
0000
0100
0000
0000
0000
1000
0000
0001
0000
1000
0000
0100
0000
,
1000
0100
0000
0000
0010
0000
0000
0000
1000
0000
0100
0000
0010
0000
0001
0000
,
0100
1000
0000
0000
0100
0000
0000
0000
0010
0000
1000
0000
0100
0000
0001
0000
,
1000
0010
0000
0000
0001
0000
1000
0000
0100
0001
0000
0000
0010
0000
1000
0000
,
0001
0000
1000
0001
1000
0001
1000
0000
0010
0100
1000
0001
0010
0000
1000
0000
,
0010
1000
0001
1000
0001
0000
0001
0010
0000
0010
0001
0000
0001
0100
0000
0010
,
0100
1000
0010
1000
0001
0000
0001
0010
0000
0010
0100
0000
0100
1000
0000
1000
,
0001
0010
0100
1000
0010
0000
0001
0010
0000
1000
0001
0000
0010
0100
0000
0100
,
0001
0010
0001
0100
0001
0000
0010
0100
0000
1000
0001
0000
0100
1000
0000
0100
,
0001
0010
0001
0100
0001
0000
0010
1000
0000
0010
0100
0000
0100
1000
0000
0100
,
0010
0100
0001
1000
0010
0000
0010
1000
0000
0010
0001
0000
0100
1000
0000
0010
,
0100
1000
0010
0100
0010
0000
0001
0100
0000
1000
0100
0000
0100
0010
0000
0100
,
0010
0100
0001
0010
0001
0000
0001
1000
0000
1000
0100
0000
0001
0100
0000
1000
,
0010
1000
0100
0010
0100
0000
0001
1000
0000
0010
0100
0000
0100
0010
0000
1000
,
0001
0010
0100
0010
0100
0000
0100
1000
0000
0010
0001
0000
0010
0100
0000
0100
,
0001
0100
0010
1000
0010
0000
0010
0100
0000
0010
0001
0000
0001
1000
0000
1000
,
0001
0010
0100
0010
0001
0000
0001
1000
0000
0010
0100
0000
0010
1000
0000
0010
,
0001
1000
0001
0100
0010
0000
0010
1000
0001
0010
0100
1000
0001
0000
0001
0100
,
0010
0100
0001
0010
0001
0000
0100
0010
0001
1000
0001
0100
0001
0000
0100
1000
,
0001
1000
0000
0100
0010
0000
0001
0100
0001
0000
0001
0100
0010
0000
0010
0100
,
0001
0000
0100
0010
0100
0000
0001
0010
0001
1000
0010
1000
0100
0000
0010
0000
,
1001
0000
0000
0000
;
