#TITLE:一激必翔;
#ARTIST:Des-ROW・組スペシアルr;
#TITLETRANSLIT:Ichigeki Hisshou;
#ARTISTTRANSLIT:Des-ROW Gumi Special+r;
#GENRE:HIP ROCK;
#CREDIT:B. M'Rey;
#MUSIC:Ichigeki Hisshou.ogg;
#BANNER:Ichigeki Hisshou-bn.png;
#BACKGROUND:Ichigeki Hisshou-bg.png;
#CDTITLE:./CDTITLES/Pop'n music 18 Sengoku Retsuden.PNG;
#SAMPLESTART:68.589;
#SAMPLELENGTH:15;
#OFFSET:-0.437;
#BPMS:0=213.001,208=106.5,241=213;

//--------------- dance-single - B. M'Rey ----------------
#NOTES:
     dance-single:
     B. M'Rey:
     Beginner:
     6:
     0,0,0,0,0:
0000
0000
0000
0000
,
0000
0000
0000
0000
,
1000
0000
0001
0000
,
0010
0000
1001
0000
,
0010
0000
0100
0000
,
0010
0000
0101
0000
,
0010
0000
0000
0000
,
1000
0000
0010
0000
,
0100
0000
0001
0000
,
0010
0000
1010
0000
,
0100
0000
0000
0000
,
0001
0000
0100
0000
,
0010
0000
1000
0000
,
0100
0000
1001
0000
,
0010
0000
0000
0000
,
0100
0000
0010
0000
,
0001
0000
1000
0000
,
0010
0000
0100
0000
,
0001
0000
0000
0000
,
2000
0000
0000
0000
,
3020
0000
0000
0000
,
0230
0000
0000
0000
,
0000
0000
0302
0000
,
2003
0000
3020
0000
,
0230
0000
0000
0000
,
0000
0000
0000
0000
,
0320
0000
0000
0000
,
0000
0000
0000
0000
,
0031
0000
1000
0000
,
0001
1000
0001
0000
,
1000
0000
0001
0000
,
1000
0001
1000
0000
,
0001
0000
1000
0000
,
0010
0000
0100
0000
,
0001
0000
1000
0000
,
0020
0000
0000
0000
,
0031
0000
1000
0000
,
0010
0000
0100
0000
,
1000
0000
0100
0000
,
1000
0000
0001
0000
,
0010
0000
0000
0000
,
0100
0000
0010
0000
,
1000
0000
0100
0000
,
1000
0000
0010
0000
,
0001
0000
1000
0000
,
0100
0000
0001
0000
,
0010
0000
0001
0000
,
0100
0000
0010
0000
,
1001
1001
0010
0000
,
0100
0000
0010
0000
,
1000
0000
0010
0000
,
0100
0000
0001
0000
,
0020
0000
2030
0000
,
0000
3200
0000
0000
,
0320
0000
2030
0000
,
0000
3020
0000
0130
,
0001
2000
0000
3020
,
0000
0230
0000
0302
,
0000
0003
2002
0000
0000
0000
0000
3003
,
0010
0200
0000
0000
,
0000
0300
0001
0000
0000
0000
1000
0000
,
0000
0010
0000
0100
,
0000
0001
0000
1000
,
0000
0010
0000
0100
,
0000
0001
0000
0010
,
0000
0001
0000
1000
,
0000
0100
0000
1000
,
0000
0010
0000
0100
,
0000
0001
0000
0010
,
0000
1000
0000
0001
,
0000
0100
0000
0010
,
0000
1000
0000
0010
,
0000
0100
0000
0010
,
0000
1000
0000
0100
,
0000
1000
0000
0010
,
0000
0001
0000
0100
,
0000
1001
0000
0000
,
0000
0110
0000
0000
,
0000
0001
0000
0000
,
0000
1000
0000
0000
,
0000
0000
0000
0010
,
0000
0100
0000
0010
,
0000
1001
0000
0000
,
0000
0000
0000
0000
,
0000
0010
0000
0000
,
0000
0000
0000
0000
,
0000
0001
1000
0001
,
1000
0001
1000
0001
,
0000
0010
0100
0010
,
0100
0010
0100
0010
,
0000
0001
0010
0001
,
0010
0001
0010
0001
,
0000
1000
0100
1000
,
0100
1000
0100
1000
,
0000
0010
0000
0000
,
0000
0100
0000
0010
,
0000
0001
0000
1000
,
0000
0100
0000
0010
,
0000
0001
0000
1000
,
0000
1001
0000
0000
;

//--------------- dance-single - B. M'Rey ----------------
#NOTES:
     dance-single:
     B. M'Rey:
     Easy:
     9:
     0,0,0,0,0:
0000
0000
0000
0000
,
0000
0000
0000
0000
,
1000
0000
0010
0000
,
0100
0000
1001
1001
,
0010
0000
0100
0000
,
0001
0000
0101
0101
,
0010
0000
1000
0000
,
0010
1000
1010
1010
,
0001
0000
0100
0000
,
0010
0000
0110
0110
,
0010
0000
1000
0000
,
0001
0100
0010
0000
,
0001
1000
0010
0000
,
0100
0010
1001
1001
,
0010
0000
0100
0000
,
0001
1000
0010
0000
,
0100
1000
0100
0000
,
0001
0010
0100
0000
,
1001
0000
0000
0000
,
0020
0000
0000
0000
,
0230
0000
0000
0000
,
0320
0000
0000
0000
,
0032
0000
0000
0000
2003
0000
0000
3000
,
1001
0000
0110
0000
,
0202
0000
0000
0000
,
0320
0000
2030
0000
,
3020
0000
0000
0000
,
0233
0000
0000
0000
,
0301
0000
1000
0000
,
0110
0101
1010
0000
,
0010
0000
0100
0000
,
0101
1010
0110
0000
,
0001
1000
0100
1000
,
0100
0010
0001
0100
,
0010
1000
0100
0010
,
0001
0100
0010
1000
,
0001
1000
0010
0000
,
0100
1000
0001
1000
,
0010
0100
0001
0000
,
0010
0000
0000
0000
1000
0000
0000
0000
0100
0000
0000
0001
0000
0000
0000
0000
,
0010
0000
0100
0000
,
0100
0010
0100
0010
,
0100
1000
0001
0100
,
0010
1000
0010
1000
,
0010
0000
0001
1000
,
0100
0010
0001
0100
,
0001
1000
0010
0100
,
0010
1000
0100
0010
,
0001
0100
0001
1000
,
0010
0100
0001
1000
,
0100
0010
0100
0010
,
0001
0100
0010
0100
,
0002
0000
0023
0000
,
0030
2000
0000
0000
,
3002
0000
0023
0000
,
0032
0000
0023
0000
,
0030
0002
0000
0203
,
0000
0320
0000
0230
,
0000
0300
2002
0000
0000
0000
0000
3003
,
0020
0230
0000
0000
,
0000
0300
0100
0000
0010
0000
0001
0000
,
0100
0001
0010
0100
,
1000
0001
1000
0100
,
0010
0100
1000
0010
,
0100
0010
0100
0001
,
0010
0001
0100
0010
,
0000
0100
0010
0001
,
1000
0001
0010
0100
,
0000
0100
0010
0001
,
1000
0010
0100
0001
,
0010
0100
1000
0001
,
0010
0100
1000
0100
,
0000
0001
1000
0001
,
0100
0001
1000
0100
,
1000
0010
1000
0100
,
0010
0001
1000
0100
,
0010
1000
0000
0000
,
0000
0001
0000
0010
,
0000
0020
0000
0000
,
0000
0230
0000
0000
,
0000
0302
0000
2003
,
0000
3000
1001
0000
0000
0000
0110
0000
,
0000
0022
0000
0000
,
0000
0230
0000
2300
,
0000
3200
0000
0000
,
0000
0323
0000
0000
,
0000
0130
0010
0001
,
1000
0010
1000
0100
,
0010
0001
0100
0001
,
1000
0010
0100
0001
,
0010
0100
1000
0010
,
0100
0010
1000
0100
,
1000
0010
1000
0001
,
0100
0010
0100
0001
,
0100
1000
0000
0000
,
0000
0001
0000
0010
,
0000
0100
0000
1000
,
0000
0100
0000
0010
,
0000
0001
0000
0010
,
0000
1001
0000
0000
;

//--------------- dance-single - B. M'Rey ----------------
#NOTES:
     dance-single:
     B. M'Rey:
     Medium:
     12:
     0,0,0,0,0:
0000
0000
0000
0000
,
0000
0000
0000
0000
,
0001
1000
0010
0100
,
1000
0010
0101
1010
,
0010
0100
1000
0010
,
0100
0001
0101
1010
,
0010
0100
0010
1000
,
0001
0010
1010
0101
,
0010
0100
0010
1000
,
0001
0100
0110
1001
,
0010
0100
0001
1000
,
0010
0100
1001
0110
,
0001
0100
0010
1000
,
0010
0100
0101
1010
,
0010
0100
0001
1000
,
0010
0100
1000
0001
,
0010
0100
0010
1000
,
0001
0100
0010
1000
,
1001
0000
0011
0000
,
0110
0000
1001
0000
,
0220
0000
0000
0000
0000
0000
0000
0330
,
0022
0000
0000
0000
,
0000
0000
0000
0033
2200
0000
0000
3300
,
0220
0000
0000
0330
0202
0000
0000
0303
,
2020
0000
0000
3030
0202
0000
0000
0303
,
0220
0000
0000
0330
2002
0000
0000
3003
,
0220
0000
0000
0330
0202
0000
0000
0303
,
2020
0000
0000
3030
0202
0000
0000
0303
,
0001
1000
0010
0100
,
0010
1001
0110
0101
,
0010
1000
0010
0100
,
1001
0110
0101
1010
,
0110
1001
0101
0110
,
1001
0110
1010
0101
,
0110
1001
0110
1001
,
0110
0000
1001
0000
,
0010
0100
0001
1000
,
0010
0100
0001
0010
,
1000
0100
0010
1000
,
0001
0010
0001
0100
,
1001
0010
0100
0001
,
1000
0100
0001
1000
,
0100
0001
1000
0010
,
0100
0001
1000
0010
,
0101
0010
1000
0100
,
0010
1000
0001
0010
,
0101
0011
1000
0010
,
0100
0001
0010
0100
,
1010
0101
0010
0100
,
0010
1000
0010
0100
,
0010
0001
1000
0010
,
0100
0001
1000
0010
,
2002
3000
0023
0000
,
0000
0230
0320
2030
,
3002
0000
0023
0032
,
0203
0320
2030
3200
,
0301
0000
0220
0000
0000
0330
0202
0000
,
0000
0303
0220
0000
0000
0330
2020
0000
,
0000
3030
2002
0000
0000
0000
0000
3003
,
0220
0330
0001
0010
1000
0100
0010
1000
,
0001
0100
0100
0001
0100
0001
0100
0000
,
0010
0000
1000
0010
1000
0010
1000
0000
,
0100
0010
1000
0001
,
0100
0010
0100
0001
,
0100
0001
0100
0000
0010
0000
1000
0000
,
0010
1000
0010
0000
0100
0000
0010
0000
,
1000
0001
0100
0010
,
0001
0100
0010
1000
,
0010
1000
0001
0100
,
0010
0001
1000
1010
,
0101
0010
0100
0010
,
1000
0010
0100
0101
,
1010
0110
0001
1000
,
0010
0100
0010
1000
,
0001
0010
0001
0100
,
0010
1000
0100
1000
,
0010
0101
0000
0110
,
0000
1001
0000
0110
,
0000
0101
0000
0000
,
0000
0110
0000
0000
,
0000
1000
0000
1010
,
0000
0101
0000
0110
,
0000
0101
0000
0000
,
0000
1010
0000
0000
,
0000
0110
0000
0000
,
0000
1001
0000
0110
,
0000
0000
0001
1000
0001
0010
0001
0010
,
0100
1000
0100
1000
0100
0010
0001
0010
,
0001
0010
0100
1000
0100
1000
0100
0010
,
0001
0100
0001
0100
0001
1000
0010
0100
,
0010
1000
0010
1000
0001
0010
0001
0010
,
0001
0100
0010
1000
0010
1000
0010
0100
,
0001
0100
0001
0100
0010
1000
0010
1000
,
0010
0100
0001
0100
0001
0100
0010
1000
,
0010
1000
0010
0000
0000
0000
0100
0000
,
0000
0100
0010
0100
,
0010
0001
0100
0010
,
0100
0001
0010
0100
,
1000
0010
0100
0010
,
0100
0001
0000
0000
;

//--------------- dance-single - B. M'Rey ----------------
#NOTES:
     dance-single:
     B. M'Rey:
     Hard:
     15:
     0,0,0,0,0:
0000
0000
0000
0000
,
0000
0000
0000
0000
,
0001
0100
0010
0100
0010
0100
0001
1000
,
0100
0010
0001
1000
1010
0000
0101
0000
,
0010
0100
0010
0100
0001
0010
0100
1000
,
0100
1000
0010
1000
0110
0000
1001
0000
,
0100
1000
0100
1000
0100
0000
0000
0000
0010
0000
0100
0000
0001
0000
0100
0000
,
0010
1000
0100
0010
0001
0010
0100
0000
,
0100
1000
0010
0100
0010
1000
0010
0100
,
0001
0010
0100
0010
0100
0000
0001
0000
,
0001
0100
0001
0100
0010
0100
0010
1000
,
0100
0010
0100
1000
0100
1000
0001
0000
,
0001
0010
0100
1000
0100
1000
0100
0010
,
0001
1000
0010
0100
0101
0000
1010
0000
,
0100
1000
0100
0000
0010
0000
1000
0000
0010
0000
0100
0000
0010
0000
0100
0000
,
0001
0100
0010
1000
0100
0010
0100
1000
,
0010
0000
0010
1000
0001
0000
0100
1000
,
0010
0000
0010
1000
0001
0010
0001
1000
,
0010
0100
0010
0100
,
0001
1000
0001
1000
,
0020
0000
0000
0000
,
0032
0000
0000
0000
,
0013
1000
0002
1000
,
0023
0000
0032
0000
,
0023
1000
0130
0001
,
0010
1000
0100
0010
,
0100
0010
0001
0010
,
0001
0100
0010
0100
,
0100
1000
0001
0010
0100
0010
0100
0010
,
0001
1000
0100
1000
0100
0010
0001
0100
,
0001
0100
0010
1000
0010
0100
0001
0010
,
0001
0010
0001
0100
0010
1000
0100
1000
,
1010
0000
0110
0000
0001
0100
0001
0000
,
0110
0000
0101
0000
0001
0100
0001
0000
,
0110
0110
1010
0110
,
0110
0000
1001
0000
1100
0000
0010
0100
,
0010
1000
0001
1000
0001
0010
0100
1000
,
0001
0100
0010
0100
0001
0000
0001
1000
,
0001
1000
0100
0010
0001
0010
0100
1000
,
0010
1000
0010
1000
0100
0010
0100
0000
,
0001
0100
0010
0000
0001
0010
0100
1000
,
0001
0100
0001
1000
0001
1000
0100
1000
,
0100
0010
0100
1000
0001
1000
0010
1000
,
0010
0100
0010
0100
0001
1000
0100
0000
,
0001
1000
0100
1000
0100
0010
0100
0010
,
0001
1000
0010
0100
0001
0010
0001
0010
,
1100
0000
0110
0000
0010
0100
0010
1000
,
0100
0010
0001
0100
0001
0010
0001
1000
,
0110
0000
0110
0000
0100
1000
0001
0100
,
0010
1000
0100
1000
0100
0010
0001
0010
,
0001
1000
0100
1000
0001
0100
0001
0100
,
0010
1000
0010
0100
0010
0100
0001
0100
,
0010
1000
0100
1000
,
0001
0100
0010
0100
,
0001
0000
0000
0000
0010
0000
0000
0100
0010
0000
0100
0000
1000
0000
0000
0100
,
0010
0000
0001
0000
0100
0000
0000
0010
0100
0000
0010
0000
0100
0000
0001
0000
,
1001
0000
0000
0000
0100
0000
0000
0000
0010
0000
0000
0001
0100
0000
0000
0000
,
0010
0000
0000
0001
0100
0000
0000
0000
1000
0000
0000
0100
0010
0000
0000
0000
,
1000
0110
0000
1001
,
0100
0000
0000
0000
0000
0000
0000
0000
0010
0100
0000
0000
0001
0010
0000
0000
1000
0100
0000
0000
0010
1000
0000
0000
0010
0001
0000
0000
0100
0010
0000
0000
,
1000
0001
0000
0000
0010
0000
0000
0000
0010
0000
0000
0000
1000
0000
0000
0000
0100
0000
0000
0000
0010
0000
0000
0000
0100
0000
0000
0000
1000
0000
0000
0000
,
0010
0100
0010
0100
0001
0010
0100
1000
,
0100
1000
0010
0100
0010
1000
0100
0010
,
0001
0010
0001
0010
0100
1000
0001
0100
,
0010
0100
0010
0000
0100
0010
0001
1000
,
0010
1000
0001
0010
0001
0100
0001
0000
,
0010
0000
0100
1000
0100
1000
0010
1000
,
0010
0100
0001
1000
0010
1000
0100
0000
,
0100
0000
0100
1000
0010
1000
0010
0100
,
0001
0010
0100
1000
0100
1000
0100
0010
,
0001
0100
0010
0100
0001
0010
0001
0100
,
0001
0010
0100
0010
0001
0010
0001
0000
,
0010
0000
0010
0100
0001
0100
0010
0100
,
0001
0010
0100
0010
0001
0100
0001
1000
,
0010
0100
0001
0100
0010
1000
0001
0010
,
0100
1000
0100
1000
0100
0010
0001
0100
,
0001
0010
0001
1000
0001
1000
0001
0100
,
0010
0100
0010
0100
0001
1000
0001
1000
,
0001
0100
0220
0000
0000
0000
0000
0000
,
0000
0330
0202
0000
0000
0000
0000
0000
,
0000
0000
0303
0000
0001
0010
2200
0000
,
0000
3300
2002
0000
0000
3003
0202
0000
,
0000
0303
0001
0000
1000
0000
0001
0000
,
1000
0001
0010
0100
,
0010
0100
0010
0001
,
1000
0001
0010
0001
,
0010
0000
0000
0000
0100
0010
0100
0010
0001
0000
0001
0000
0010
1000
0010
1000
,
0001
0000
0001
0000
0010
1000
0010
1000
0010
0000
0100
0010
0100
0000
1000
0000
,
0001
0000
0010
0000
0001
1000
0100
1000
0100
0000
0001
0000
0001
0100
0001
1000
,
0100
0000
0100
0000
0001
0010
0001
0010
0100
0000
0010
0000
0100
0000
0001
0000
,
0010
0000
0100
0000
1000
0100
1000
0010
0001
0000
0001
0000
0100
1000
0001
0100
,
0001
0000
0100
0000
0100
1000
0001
0010
0001
0000
1000
0000
0001
0000
1000
0000
,
0010
0000
1000
0000
0001
0100
0010
0100
0010
0000
0001
0000
0010
1000
0010
1000
,
0100
0000
0010
0000
0100
1000
0010
1000
0010
0000
0100
0000
0001
1000
0001
1000
,
0100
0010
0001
0000
1000
0000
0010
0000
,
0100
0110
1010
0110
,
1001
1100
0110
0011
,
0110
1001
0110
1100
,
1010
0110
0101
1010
,
1100
1010
0000
0000
;
