#TITLE:Hot In It;
#ARTIST:Tiƫsto & Charli XCX;
#GENRE:POP;
#CREDIT:B. M'Rey;
#MUSIC:Hot In It.ogg;
#BANNER:Hot In It-bn.png;
#BACKGROUND:Hot In It-bg.png;
#CDTITLE:./CDTITLES/Dance Dance Revolution SPACE.PNG;
#SAMPLESTART:46.963;
#SAMPLELENGTH:15.122;
#OFFSET:-0.083;
#BPMS:0=123;

//--------------- dance-single - B. M'Rey ----------------
#NOTES:
     dance-single:
     B. M'Rey:
     Beginner:
     4:
     0,0,0,0,0:
0000
0000
0000
0000
,
0000
0000
0000
0000
,
0000
0000
0000
0000
,
0000
0000
0001
0000
,
1000
1000
0000
0010
,
0000
0100
0100
0000
,
0001
0000
1000
0001
,
0010
0000
0100
0000
,
0001
0001
0000
0100
,
1000
0000
1000
0010
,
0001
0000
0100
0010
,
0100
0000
1000
0000
,
0010
0000
0010
0000
,
0100
0000
0000
0000
,
0001
0000
0001
0000
,
1001
0000
0000
0000
,
1000
0000
0010
0000
,
0100
0000
0001
0000
,
0010
0000
0001
0000
,
0100
0000
0000
0000
,
0010
0000
1000
0000
,
0100
0000
0001
0000
,
0010
0000
0001
0000
,
0100
0000
0000
0000
,
1000
0000
0001
0000
,
0100
0100
0100
0000
,
0010
0000
0100
0000
,
0010
0000
0001
0001
,
0001
0000
1000
0000
,
0010
0010
0010
0000
,
1000
0000
0001
0000
,
0110
0000
0000
0000
,
1000
0010
0100
0000
,
0001
0010
0100
0000
,
1000
0000
0001
0000
,
0010
0000
0100
0000
,
1000
0100
0010
0000
,
0001
0010
0100
0000
,
0010
0000
1000
0000
,
0100
0000
0001
0010
,
1000
0000
0010
0000
,
0100
0000
0000
0000
,
0001
0000
1000
0000
,
0001
0000
0000
0000
,
0100
0000
0000
0000
,
0010
0000
0000
0000
,
1000
0000
0000
0000
,
1001
0000
0000
0000
,
0010
0000
0001
0000
,
0100
0000
0010
0000
,
1000
0000
0100
0000
,
1000
0000
0010
0000
,
0100
0000
0001
0000
,
0010
0000
0001
0000
,
0100
0000
0010
0000
,
1000
0000
0010
0000
,
0100
0000
0001
0000
,
1000
1000
1000
0000
,
0010
0000
0100
0000
,
0010
0000
0001
0001
,
0001
0000
0100
0000
,
0010
0010
0010
0000
,
1000
0000
0010
0000
,
1000
0000
0000
1001
;

//--------------- dance-single - B. M'Rey ----------------
#NOTES:
     dance-single:
     B. M'Rey:
     Easy:
     5:
     0,0,0,0,0:
0000
0000
0000
0000
,
0000
0000
0000
0000
,
0000
0000
0000
0000
,
0000
0000
1000
0001
,
0100
0010
0011
0010
,
0001
0100
0011
0010
,
0100
0010
0001
1000
,
0010
0000
0010
0100
,
0001
1000
1100
1000
,
0001
0010
1001
1000
,
0100
0010
0011
0010
,
0001
0000
0001
0010
,
0100
0000
0001
0000
,
0001
0100
0010
0000
,
0001
0000
0100
0000
,
0110
0000
0000
0000
,
1001
0000
1010
0000
,
0001
0010
0001
1000
,
0011
0000
0101
0000
,
0110
0000
0100
0000
,
0110
0000
1001
0000
,
0100
1000
0100
0010
,
0011
0000
0101
0000
,
0110
0000
0001
0100
,
0001
0010
0100
0010
,
0100
0010
0001
0100
,
0101
0000
1001
0000
,
1010
0000
0010
1000
,
0001
0010
0001
0010
,
0001
0100
0010
1000
,
1010
0000
0110
0000
,
0011
0000
0000
0000
,
0001
0100
0001
1000
,
0010
0100
0010
0100
,
0010
1000
0100
0010
,
0101
0000
0001
0010
,
0100
1000
0010
1000
,
0010
1000
0100
0010
,
0100
0000
0010
1000
,
0001
0000
0010
0100
,
0001
0000
0100
0000
,
0010
0100
0001
0000
,
1000
0000
0010
0000
,
0001
0000
0000
0000
,
0100
0000
0001
0000
,
0100
0000
0001
0000
,
0100
0010
0001
0010
,
0011
0000
0000
0000
,
0110
0000
0011
0000
,
0100
1000
0001
0000
,
0101
0000
1001
0000
,
1100
0000
0010
0100
,
1001
0000
1001
0000
,
0001
0100
0010
0000
,
0110
0000
0011
0000
,
0110
0000
0001
0100
,
0001
0010
0100
1000
,
0010
0100
0001
1000
,
0110
0000
0011
0000
,
0110
0000
1000
0001
,
0100
0010
0001
0100
,
0010
1000
0001
1000
,
0101
0000
1010
0000
,
1010
0000
0001
1000
;

//--------------- dance-single - B. M'Rey ----------------
#NOTES:
     dance-single:
     B. M'Rey:
     Medium:
     9:
     0,0,0,0,0:
0000
0000
0000
0000
,
0000
0000
0000
0000
,
0000
0000
0000
0000
,
0000
0000
0100
0100
,
0001
1000
0100
0000
0110
0000
0001
0000
,
0001
0010
0100
0000
1100
0000
0100
0000
,
0010
1000
0010
0000
0010
1000
1000
0001
,
0001
0010
0110
0110
,
0001
0100
0010
0000
0101
0000
0001
0000
,
0001
0010
0100
0000
1100
0000
0010
0000
,
0001
0100
0010
0000
0010
0100
0100
1000
,
1000
0000
0001
0100
,
0011
0000
0110
0000
,
0001
0010
0001
0010
,
0101
0000
0110
0000
,
0110
0110
1001
1001
,
0010
1000
0100
0000
0001
1000
0001
0000
,
0001
0000
0100
0000
0100
1000
0001
0000
,
0010
0100
0010
0000
0010
1000
0100
0000
,
0100
0010
0100
0000
1000
0000
0100
0000
,
0001
1000
0100
0000
0100
0010
0100
0000
,
0010
0000
0100
0000
0010
1000
0100
0000
,
0100
0010
0100
0000
0010
0100
0010
0000
,
0010
1000
0001
0000
0100
0000
0001
0000
,
0001
1000
0001
0010
0100
0010
0100
0010
,
0001
1000
0001
1000
0010
1000
0100
0010
,
0001
1000
0001
1000
0001
0100
0010
0100
,
0010
0100
0001
1000
0001
0000
0010
0000
,
0100
0010
0100
1000
0100
1000
0001
1000
,
0001
0100
0001
0100
0010
0100
0010
1000
,
0001
0010
0001
0100
0001
0100
0010
0100
,
0010
0000
0000
1100
,
0100
1000
0010
0000
0110
0000
0010
0000
,
0001
0100
0001
0000
1001
0000
0100
1000
,
0100
0001
0100
0000
0100
0001
0001
0100
,
0100
0100
0001
0100
,
0100
1000
0001
0000
0011
0000
0100
0000
,
0001
0010
0001
0000
0101
0000
0010
0000
,
0001
0100
0001
0000
0001
0010
0010
1000
,
1000
0000
0001
0010
,
1100
0000
0011
0000
,
0001
0100
0010
0000
,
0011
0000
1001
0000
,
1001
0000
0000
0010
,
0001
1000
0001
1000
,
0100
1000
0001
0010
,
0001
1000
0001
1000
0001
0010
0100
0010
,
0110
1001
1100
1001
,
0001
0100
0010
0000
0001
1000
0001
0000
,
0010
0000
0001
0000
0001
0100
0010
0000
,
0010
1000
0100
0000
0001
1000
0001
0000
,
0100
0010
0100
0000
0001
0000
0100
0000
,
0001
1000
0100
0000
0100
0010
0100
0000
,
0010
0000
0001
0000
0010
1000
0100
0000
,
0100
0010
0100
0000
0001
0010
0001
0000
,
0001
0010
0100
0000
1100
0000
1001
0000
,
0001
1000
0001
1000
0001
0100
0010
0100
,
0010
0100
0001
1000
0001
1000
0001
0010
,
0100
0010
0100
0010
0001
0100
0001
0100
,
0001
1000
0100
1000
0100
1000
0001
0100
,
0001
0100
0010
0100
0010
1000
0001
1000
,
0100
1000
0100
0010
0100
0010
0001
0010
,
0001
0100
0001
0010
0100
0010
0100
0010
,
0001
1000
0010
1000
0010
1000
0001
0000
;

//--------------- dance-single - B. M'Rey ----------------
#NOTES:
     dance-single:
     B. M'Rey:
     Hard:
     12:
     0,0,0,0,0:
0000
0000
0000
0000
,
0000
0000
0000
0000
,
0000
0000
0000
0000
,
0000
0000
1100
0101
,
0010
1000
0010
1000
0100
0000
0011
0000
,
0001
0100
0001
0100
0010
0000
1010
0000
,
0100
0010
0001
1000
0100
0110
0110
1010
,
1010
0010
0011
0011
,
0100
1000
0001
0010
0001
0000
0101
0000
,
0010
0100
0001
1000
0001
0000
0100
0000
,
0010
0100
0010
1000
0001
1000
0010
0100
,
0001
0010
1000
0100
,
0010
0000
1000
0001
0000
0000
0000
0000
0001
0000
0010
0001
0000
0000
0000
0000
,
0010
0000
0100
0000
0010
0000
0100
0000
0001
0000
0100
0001
0000
0001
0010
0000
,
0100
0000
0010
0100
0000
0000
0000
0000
0010
0000
1000
0001
0000
0001
0010
0000
,
0011
0101
0110
1001
,
0001
0000
0100
0010
0100
0000
0100
0000
0001
0000
0100
0001
0100
0000
0010
0000
,
0100
0000
0010
0000
0001
0000
0010
0000
0001
0000
1000
0100
0000
0100
1000
0000
,
0100
0000
1000
0001
1000
0000
0100
0000
0001
0000
1000
0001
1000
0000
1000
0000
,
0010
0000
0100
0001
0100
0000
0100
0000
0001
0000
0100
0010
0100
0000
1000
0000
,
0010
0000
0100
0010
0100
0000
0100
0000
0001
0000
0010
0100
0010
0000
1000
0000
,
0001
0000
0010
0000
0100
0000
1000
0000
0100
0000
0010
0100
0000
0100
1000
0000
,
0001
0000
0100
0001
0100
0000
1000
0000
0100
0000
0010
0100
0010
0000
0010
0000
,
0100
0000
1000
0001
1000
0000
1000
0000
0110
0000
0000
0000
0101
0000
0000
0000
,
0001
0000
0010
0100
0010
0000
0010
0000
0001
0000
0010
0001
0010
0000
1000
0000
,
0001
0000
0100
0010
0100
0000
0100
0010
0100
0000
1000
0010
1000
0000
1000
0000
,
0100
0000
1000
0010
0000
0010
0100
0000
0001
0000
0010
0001
0000
0001
0010
0000
,
0001
0000
0100
0010
0000
0010
0100
0000
1010
0000
0000
0000
0110
0000
0000
0000
,
0001
0000
0010
0100
0010
0000
1000
0000
0100
0000
0010
0001
0010
0000
1000
0000
,
0100
0000
0010
0100
0010
0000
0010
0001
0010
0000
1000
0001
1000
0000
0100
0000
,
0010
0000
0100
0001
0000
0001
0100
0000
0001
0000
0010
0100
0000
0100
1000
0000
,
1010
0000
0000
0110
,
0001
0010
0100
0010
0100
0000
0001
0100
,
0001
1000
0001
0010
0100
0000
0010
1000
,
0001
0100
0010
1000
0100
0011
0011
0110
,
0220
0330
0100
0000
0010
0100
0010
0100
,
0001
0010
0001
0010
0001
0000
0010
0100
,
0001
1000
0010
0100
0010
0000
1001
0000
,
0001
0100
0010
1000
0001
0110
0110
0011
,
0022
0000
0033
1000
0010
1000
0001
0010
,
1100
0100
0000
0000
0011
0001
0000
0000
,
0001
0100
0010
0100
,
0101
0100
0000
0000
0101
0001
0000
0000
,
0011
0001
0000
0000
0000
0000
0110
0000
,
0001
0010
0100
1000
0001
1000
0100
0010
,
0001
0100
0010
1000
0100
1000
0100
0010
,
0001
1000
0001
1000
0001
0010
0100
0010
0100
0010
0001
0100
0001
0010
0001
0000
,
1100
0011
1001
1100
,
0001
0000
1000
0010
1000
0000
0100
0000
0001
0000
0100
0001
0100
0000
0100
0000
,
0010
0000
1000
0000
0001
0000
0100
0000
0010
0000
1000
0001
0000
0001
0100
0000
,
0010
0000
0100
0001
0000
0001
0100
0000
0001
0000
0010
0100
0000
0100
1000
0000
,
0001
0000
0010
0100
0000
0100
1000
0000
0100
0000
0000
0000
0010
0000
0000
0000
,
0010
0000
0100
0001
0100
0000
0010
0000
0100
0000
0010
0100
0010
0000
1000
0000
,
0010
0000
0100
0000
0010
0000
1000
0000
0100
0000
0010
0001
0000
0001
0100
0000
,
0001
0000
0100
0001
0000
0001
1000
0000
0100
0000
1000
0010
0000
0010
1000
0000
,
0100
0000
0010
0001
0000
0001
0100
0000
1010
0000
0000
0000
0110
0000
0000
0000
,
0010
0000
1000
0100
1000
0000
1000
0000
0001
0000
1000
0001
1000
0000
0010
0000
,
0001
0000
0100
0010
0100
0000
1000
0010
1000
0000
1000
0001
1000
0000
1000
0000
,
0001
0000
0100
0010
0000
0010
0100
0000
0001
0000
1000
0001
0000
0001
0010
0000
,
0001
0000
0010
0100
0000
0100
1000
0000
1010
0000
0000
0000
0110
0000
0000
0000
,
0001
0000
0100
0010
0100
0000
1000
0000
0001
0000
1000
0010
1000
0000
1000
0000
,
0001
0000
0100
0001
0100
0000
1000
0010
1000
0000
0100
0001
0100
0000
1000
0000
,
0010
0000
0100
0010
0000
0010
1000
0000
0100
0000
0010
0001
0000
0001
0100
0000
,
0010
0000
0100
0001
0000
0001
0010
0000
0100
0000
1000
0000
0110
0000
0000
0000
;
