#VERSION:0.83;
#TITLE:Hoohah;
#ARTIST:Fox Stevenson & Curbi;
#GENRE:EDM;
#CREDIT:B. M'Rey;
#MUSIC:Hoohah.ogg;
#BANNER:Hoohah-bn.png;
#BACKGROUND:Hoohah-bg.png;
#CDTITLE:./CDTITLES/DANCERUSH STARDOM.PNG;
#SAMPLESTART:32.539;
#SAMPLELENGTH:15;
#OFFSET:-0.162;
#BPMS:0=126;

//--------------- dance-single - B. M'Rey ----------------
#NOTEDATA:;
#STEPSTYPE:dance-single;
#DESCRIPTION:B. M'Rey;
#DIFFICULTY:Beginner;
#METER:4;
#RADARVALUES:0.122989,0.191751,0.039133,0.078266,0,88,84,4,8,0,0,0.122989,0.191751,0.039133,0.078266,0,88,84,4,8,0,0;
#CREDIT:B. M'Rey;
#NOTES:
0000
0000
0000
0000
,
0000
0000
0000
0000
,
0000
0000
0000
0000
,
0000
0000
0000
0000
,
0000
0000
0000
0000
,
1000
0000
0000
0000
,
0010
0000
0000
0000
,
0100
0000
0000
0000
,
0001
0000
0000
0000
,
1000
0000
0000
0001
,
0010
0000
0000
1000
,
0100
0000
0000
0001
,
0010
0000
0000
0100
,
0010
0000
0010
0000
,
0001
0000
0001
0000
,
1000
0000
1000
0000
,
0100
0000
0100
0000
,
1000
0000
0001
0000
,
0100
0000
0001
0000
,
1000
0000
0010
0000
,
0100
0010
0001
1000
,
0010
0001
1000
0000
,
0010
0100
1000
0000
,
0001
0010
0001
0000
,
0100
0010
1000
0000
,
0200
0000
0000
0000
,
0302
0000
0000
0000
,
0023
0000
0000
0000
,
2030
0000
0000
0000
,
3001
0000
0001
0000
,
0010
0000
0010
0000
,
0100
0000
0100
0000
,
1000
0000
1000
0000
,
1001
0000
0000
0000
,
0011
0000
0000
0000
,
1010
0000
0000
0000
,
0101
0000
0000
0000
,
0001
0000
1000
0000
,
0010
0000
1000
0000
,
0001
0000
0100
0000
,
0010
0100
1000
0001
,
0100
1000
0001
0000
,
0100
0010
0001
0000
,
1000
0100
1000
0000
,
0010
0100
0001
0000
,
0020
0000
0000
0000
,
2030
0000
0000
0000
,
3200
0000
0000
0000
,
0302
0000
0000
0000
,
0003
0000
0000
0000
;

//--------------- dance-single - B. M'Rey ----------------
#NOTEDATA:;
#STEPSTYPE:dance-single;
#DESCRIPTION:B. M'Rey;
#DIFFICULTY:Easy;
#METER:6;
#RADARVALUES:0,0,0,0,0,0,0,0,0,0,0,0,0,0,0,0,0,0,0,0,0,0;
#CREDIT:B. M'Rey;
#NOTES:
0000
0000
0000
0000
,
0000
0000
0000
0000
,
0000
0000
0000
0000
,
0000
0000
0000
0000
,
0000
0000
0000
0000
,
1000
0001
0010
0000
,
0001
1000
0010
0000
,
0001
0010
1000
0000
,
0100
0001
0010
0000
,
0010
0001
0001
0001
,
0001
0001
0001
0001
,
0001
0010
0010
0010
,
0010
0020
0000
0000
,
0031
1000
1001
0010
,
0110
0100
0101
1000
,
1010
0100
0001
1000
,
0010
1000
0010
0000
,
1000
0001
0100
0100
,
0001
0100
0100
0001
,
0100
0001
0010
0001
,
0010
0010
0001
0010
,
0001
1000
0010
0100
,
0010
0100
0001
1000
,
0100
0001
0010
1000
,
0010
1000
0001
0000
,
2000
0000
3020
0000
,
0032
0000
0203
0000
,
0320
0000
2030
0000
,
3002
0000
0023
0000
,
0031
0001
1001
0010
,
0110
0001
0101
1000
,
1010
0100
0001
1000
,
0010
1000
0010
1000
,
0100
0000
0001
0000
,
1000
0000
0001
0000
,
1000
0000
0100
0000
,
0010
0000
0001
0000
,
0001
1000
0010
0010
,
1000
0010
0010
1000
,
0010
1000
0100
1000
,
0100
0100
1000
0100
,
1000
0001
0100
0010
,
0100
0010
1000
0001
,
0010
1000
0100
0001
,
0100
0001
1000
0000
,
0002
0000
0000
0000
,
2003
0000
0000
0000
,
3200
0000
0000
0000
,
2300
0000
0000
0000
,
3000
0000
0000
0000
;

//--------------- dance-single - B. M'Rey ----------------
#NOTEDATA:;
#STEPSTYPE:dance-single;
#DESCRIPTION:B. M'Rey;
#DIFFICULTY:Medium;
#METER:9;
#RADARVALUES:0,0,0,0,0,0,0,0,0,0,0,0,0,0,0,0,0,0,0,0,0,0;
#CREDIT:B. M'Rey;
#NOTES:
0000
0000
0000
0000
,
0000
0000
0000
0000
,
0000
0000
0000
0000
,
0000
0000
0000
0000
,
0000
0000
0000
0000
,
1000
0001
0010
0100
,
0001
1000
0010
0100
,
0001
0010
1000
0010
,
0100
0001
0010
1000
,
0010
0000
0001
1000
0001
1000
0001
1000
,
0001
1000
0001
1000
0001
1000
0001
1000
,
0001
0000
0010
0100
0010
0100
0010
0100
,
0010
0100
0020
0000
0000
0000
0000
0000
,
0031
1001
1001
0110
,
0110
0101
0101
1010
,
1010
0100
0001
1000
,
0010
0100
1000
0001
0010
0000
0000
0000
,
1000
0000
0001
0010
0100
1000
0100
0010
,
0001
0010
0100
1000
0100
0010
0001
0000
,
0100
0000
0001
1000
0010
0100
0001
1000
,
0010
0100
0010
0000
0001
1000
0010
0100
,
0001
0000
1000
0000
0010
0000
0100
0001
,
0010
1000
0100
0000
0001
0000
1000
0000
,
0100
0000
0001
0000
0010
0000
1000
0001
,
0010
0100
1000
0000
0001
0000
0000
0000
,
2000
0000
3020
0000
,
0032
0000
0203
0000
,
0320
0000
2030
0000
,
3002
0000
0023
0000
,
0031
1001
1001
0110
,
0110
0101
0101
1010
,
1010
0100
0001
1000
,
0010
0100
1000
0001
0010
0000
1000
0000
,
0100
0000
0001
0010
,
1000
0000
0001
0010
,
1000
0000
0100
0001
,
0010
0000
0001
0010
,
1000
0000
0001
0010
0100
1000
0100
0010
,
0001
0010
0100
1000
0100
0010
0001
0000
,
0100
0000
0001
1000
0010
0100
0001
1000
,
0010
0100
0010
1000
0001
1000
0010
0000
,
0001
0000
1000
0000
0010
0000
0100
0001
,
0010
1000
0100
0000
0001
0000
1000
0000
,
0100
0000
0001
0000
0010
0000
1000
0001
,
0010
0100
1000
0000
0001
0000
0000
0000
,
2000
0000
3020
0000
,
0032
0000
0203
0000
,
0320
0000
2030
0000
,
3002
0000
0023
0000
,
1030
0000
0000
0000
,
0000
1001
0000
0000
;

//--------------- dance-single - B. M'Rey ----------------
#NOTEDATA:;
#STEPSTYPE:dance-single;
#DESCRIPTION:B. M'Rey;
#DIFFICULTY:Hard;
#METER:12;
#RADARVALUES:0,0,0,0,0,0,0,0,0,0,0,0,0,0,0,0,0,0,0,0,0,0;
#CREDIT:B. M'Rey;
#NOTES:
0000
0000
0000
0000
,
0000
0000
0000
0000
,
0000
0000
0000
0000
,
0000
0000
0000
0000
,
0000
0000
0000
0000
,
0010
0001
0100
0010
1000
0010
0100
0001
,
1000
0010
0100
0001
0010
1000
0010
0100
,
0001
0010
1000
0100
0010
1000
0001
0100
,
0010
1000
0010
0100
0010
0001
0100
0001
,
1000
0000
0000
0000
0001
1000
0010
0000
0100
0000
1000
0000
0100
0000
0001
0000
,
0010
0000
0100
0000
1000
0000
0001
1000
0000
0010
0100
0000
1000
0000
0010
0000
,
0001
0000
0000
0000
0010
0100
0010
0000
1000
0000
0001
0000
0010
0000
1000
0000
,
0100
0001
1000
0000
0000
0000
0000
0000
,
1010
0110
0101
1001
,
0011
1001
1010
0101
,
0010
1000
0100
0001
0010
1000
0100
0001
,
0010
1000
0100
0001
0010
1000
0100
0001
0010
0000
0000
0000
1001
0000
0000
0000
,
1000
0000
0000
0000
0001
0010
0001
0000
0100
0000
0010
0000
1000
0000
0100
0000
,
0010
0000
0001
0000
0010
0000
1000
0100
0000
0001
0010
0000
0100
0000
1000
0000
,
0001
0000
0000
0000
0010
0100
0010
0000
1000
0000
0001
0000
0100
0000
0010
0000
,
0011
0001
0011
0000
0100
1100
0100
1100
,
0100
0000
0010
0001
0010
0000
0100
0000
1000
0000
0010
0100
0010
0000
0001
0000
,
1000
0000
0010
0100
0010
0000
1000
0000
0010
0000
0100
0010
0200
0000
0000
0000
,
0301
0000
0000
0000
0010
0000
1000
0100
1000
0000
0010
0000
0100
0000
0001
0000
,
0010
0100
0010
0000
1000
0000
0001
0000
0020
0000
0000
0000
0000
0000
0000
0000
,
0130
0000
0000
0000
1000
0001
1000
0000
0010
0000
0100
0000
0001
0000
0010
0000
,
1000
0000
0010
0000
0100
0000
0001
0010
0000
0100
1000
0000
0010
0000
0100
0000
,
0001
0000
0000
0000
0010
0100
0010
0000
1000
0000
0001
0000
0010
0000
0100
0000
,
1000
0000
0010
0000
0100
0000
0001
0010
0000
0100
1000
0000
0010
0000
0100
0000
,
1001
1010
0101
1010
,
0101
1001
0110
0101
,
1000
0001
0010
0100
1000
0001
0010
0100
,
1000
0001
0010
0100
1000
0001
0010
0100
1000
0000
0000
0000
1001
0000
0000
0000
,
0002
0000
1000
0100
,
0023
0000
0001
1000
,
0230
0000
0001
1000
,
0302
0000
0010
1000
,
0103
0000
0000
0000
0010
0100
0010
0000
1000
0000
0010
0000
0100
0000
0001
0000
,
1000
0000
0010
0000
0100
0000
0001
1000
0000
1000
0001
0000
0020
0000
0000
0000
,
0031
0000
0000
0000
1000
0001
1000
0000
0010
0000
0100
0000
0001
0000
1000
0000
,
0010
0000
0100
0000
0001
0000
1000
0001
0000
0010
0100
0000
1001
0000
0000
0000
,
0010
0000
1000
0000
0001
0000
0010
1000
,
0010
0100
0001
0000
0100
0000
0010
0000
,
0001
0000
1000
0000
0010
0000
1000
0001
,
0010
0100
0010
0000
1000
0000
0000
0000
,
0002
0000
0000
1000
,
2003
0000
0000
0010
,
3020
0000
0000
0100
,
0230
0000
0000
0001
,
2300
0000
0000
0000
,
3000
1001
1001
0000
0000
0000
0000
0000
;
