#TITLE:Hardcore Cleaning Sensation;
#ARTIST:JAKAZiD;
#GENRE:HARDCORE;
#CREDIT:B. M'Rey;
#MUSIC:Hardcore Cleaning Sensation.ogg;
#BANNER:Hardcore Cleaning Sensation.png;
#BACKGROUND:Hardcore Cleaning Sensation-bg.png;
#CDTITLE:./CDTITLES/Dance Dance Revolution SPACE.PNG;
#SAMPLESTART:11.298;
#SAMPLELENGTH:15;
#OFFSET:-0.035;
#BPMS:0=190;

//--------------- dance-single - B. M'Rey ----------------
#NOTES:
     dance-single:
     B. M'Rey:
     Beginner:
     5:
     0,0,0,0,0:
0000
0000
0000
0000
,
0000
0000
0000
0000
,
0000
0000
0000
0000
,
0000
0000
0000
0000
,
0000
0000
0000
0000
,
0000
0000
0000
0000
,
0000
0000
0000
0000
,
0000
0000
0000
0000
,
0000
0000
0000
0000
,
0001
0000
1000
0000
,
0001
0000
0100
0000
,
0010
0000
1000
0000
,
0001
0000
1001
0000
,
0010
0000
0100
0000
,
0001
0000
1000
0000
,
0010
0000
0100
0000
,
0001
0000
0000
0000
,
0001
0000
0010
0000
,
0100
0000
1001
0000
,
0010
0000
0010
0000
,
0100
0000
0000
0000
,
0001
0000
1000
0000
,
0010
0000
0110
0000
,
0001
0000
0000
0000
,
1000
0000
0000
0000
,
0010
0000
0100
0000
,
0010
0010
0010
0000
,
0001
0000
1000
0000
,
0001
0001
0001
0000
,
0100
0000
0010
0000
,
0100
0100
0100
0000
,
1000
0000
0000
0000
,
0001
0000
0000
0000
,
0100
0000
0000
0000
,
0001
0000
1000
0000
,
0010
0000
0000
0000
,
0100
0000
1001
0000
,
0010
0000
0000
0000
,
0100
0000
1001
0000
,
0010
0000
0000
0000
,
0001
0000
0100
0000
,
0001
0000
0000
0000
,
1000
0000
0000
0000
,
0010
0000
0100
0000
,
0001
0000
1000
0000
,
0010
0000
0000
0000
,
0100
0000
0000
0000
,
0001
0000
1000
0000
,
0010
0000
0000
0000
,
0001
0000
1000
0000
,
0010
0000
0100
0000
,
0010
0000
1000
0000
,
0001
0000
1001
0000
,
0010
0000
0100
0000
,
0010
0000
1000
0000
,
0001
0000
0010
0000
,
0001
0000
1000
0000
,
1001
0000
1001
0000
,
0010
0010
0010
0000
,
1001
0000
1001
0000
,
0100
0100
0100
0000
,
0110
0000
0110
0000
,
0011
0000
0011
0000
,
1010
0000
1010
0000
,
0200
0000
0020
0300
,
0002
0000
0000
0000
,
0000
0000
0000
0000
,
0033
0000
0000
0000
;

//--------------- dance-single - B. M'Rey ----------------
#NOTES:
     dance-single:
     B. M'Rey:
     Easy:
     9:
     0,0,0,0,0:
0000
0000
0000
0000
,
0000
0000
0000
0000
,
0000
0000
0000
0000
,
0000
0000
0000
0000
,
0000
0000
0000
0000
,
1000
0000
0100
0000
,
0010
0000
0001
0000
,
1000
0000
0010
0000
,
0100
0000
0000
0000
,
0001
1000
0001
1000
,
1001
1001
1001
1001
,
0010
0100
0010
0100
,
0010
0100
0110
0110
,
0001
1000
0001
1000
,
1001
0101
0110
1001
,
0010
0100
0010
0100
,
0001
1000
0001
1001
,
0001
1000
0010
0100
,
1001
1001
1001
0000
,
0010
0100
0010
0100
,
0110
0101
1010
0110
,
0101
0010
1000
0010
,
0101
1010
0101
0000
,
0010
0100
0001
1000
,
1010
0000
0101
0000
,
0101
0000
0110
0000
,
1000
0001
1000
0000
,
1010
0000
0110
0000
,
0001
0100
0001
0000
,
0110
0000
1010
0000
,
0001
0100
0010
0000
,
0101
0000
0110
0000
,
1001
0000
0000
0000
,
0001
0000
1000
0000
,
0010
0100
0001
0000
,
1010
0000
0101
0000
,
0010
0100
1001
0000
,
0010
0000
0100
0000
,
0001
1000
0010
0000
,
1010
0000
0101
0000
,
0010
0100
0001
0000
,
0101
0000
0010
0000
,
1010
0000
0100
0000
,
0010
0100
0010
0100
,
0001
0101
0101
0101
,
0010
1000
0100
0000
,
0001
0010
0100
0000
,
1001
0000
1001
0000
,
1001
0000
0110
0000
,
0001
1000
0001
1000
,
0010
0100
0001
1000
,
0010
0100
0001
1000
,
0010
0100
1001
1001
,
0010
0100
0001
1000
,
0101
0101
0101
0010
,
1000
0100
1000
0010
,
0001
1000
0100
0010
,
1001
0000
0101
0000
,
0110
1001
0110
0000
,
0101
0000
0110
0000
,
1010
0110
0101
0000
,
0110
0000
1010
0000
,
1001
0000
0101
0000
,
1010
0101
0110
1010
,
0101
1010
0101
1010
,
0202
0000
0000
0000
,
0000
0000
0000
0000
,
0303
0000
0000
0000
;

//--------------- dance-single - B. M'Rey ----------------
#NOTES:
     dance-single:
     B. M'Rey:
     Medium:
     11:
     0,0,0,0,0:
0000
0000
0000
0000
,
0000
0000
0000
0000
,
0000
0000
0000
0000
,
0000
0000
0000
0000
,
0000
0000
0000
0000
,
0001
1000
0010
0100
,
0001
0010
1000
0100
,
0010
1000
0100
0010
,
0101
0000
1010
0000
,
0001
0100
0001
0000
0010
1000
0010
0000
,
1010
1010
1010
1010
,
0001
0100
0001
0000
0010
0100
0010
0000
,
0110
1001
0110
0101
,
0100
0001
0100
0000
0010
1000
0010
0000
,
0101
0110
1001
0110
,
0010
0100
0010
0000
0001
0010
0001
0000
,
1001
0110
0101
1010
,
0001
1000
0001
0000
0010
0000
0100
0000
,
0001
0010
0100
0000
1000
0100
0010
0000
,
1001
0110
0101
1010
,
0001
0000
1000
0001
1000
0000
0010
0000
,
0110
0101
1010
0000
,
0110
0101
1010
0000
,
0010
0100
0010
0000
0001
0000
1000
0000
,
0001
0010
0101
0000
,
0101
0000
1010
0000
,
0010
1000
0010
1000
0010
0000
0000
0000
,
0101
0000
0110
0000
,
0010
0100
0010
0100
0010
0000
0000
0000
,
0101
0000
0110
0000
,
0010
0100
0010
0100
0010
0000
0000
0000
,
1010
0000
0101
0000
,
0020
0000
0230
0000
,
0301
0000
0000
1000
0001
1000
0000
0010
,
0100
0010
0000
0000
0101
0000
0000
0000
,
2020
0000
0000
3030
0220
0000
0000
0330
,
0001
0000
1000
0000
0100
0010
0000
0000
,
0101
0000
1010
0000
,
0010
0100
0000
0000
0101
0000
0000
0000
,
0010
0100
1000
0010
,
0001
0100
0010
0000
,
0001
0010
0001
0010
0001
0010
0000
0000
,
1000
0100
1000
0100
1000
0000
0000
0000
,
0010
0100
0010
0001
,
0001
0000
0000
0100
0000
0000
0001
0000
0100
0000
0000
0000
0010
0000
0000
0000
,
1001
0000
0010
0100
1000
0100
0000
0000
,
0010
0000
0001
0010
0100
0010
0000
0000
,
0011
0000
1100
0000
,
0011
0100
1001
0000
,
0001
0010
0001
0000
1000
0100
1000
0000
,
0110
0101
0110
1010
,
0010
0100
0010
0000
0001
0010
0001
0000
,
1001
0110
0101
1010
,
0010
1000
0010
0000
0100
0001
0100
0000
,
0110
0101
1010
0110
,
0010
0100
0010
0000
0001
0010
0001
0000
,
1001
0110
1010
0110
,
0001
0100
0001
0000
1000
0010
1000
0000
,
1001
0000
0110
0000
0101
0000
0010
0100
,
0010
0000
0001
0010
0001
0000
0010
1000
,
0010
0101
0110
0001
,
0001
1000
0001
0000
1000
0010
1000
0000
,
0010
0100
0010
0000
0001
0010
0001
0000
,
1001
0110
0101
1010
,
0001
1000
0001
1000
0001
1000
0001
1000
,
0002
0000
0000
0000
,
0020
0000
0000
0000
,
0033
0000
0000
0000
;

//--------------- dance-single - B. M'Rey ----------------
#NOTES:
     dance-single:
     B. M'Rey:
     Hard:
     15:
     0,0,0,0,0:
0000
0000
0000
0000
,
0000
0000
0000
0000
,
0000
0000
0000
0000
,
0000
0000
0000
0000
,
0000
0000
0000
0000
,
0100
0010
0001
0010
,
0001
0100
0010
1000
,
0010
1000
0010
1000
0001
0100
0001
0100
,
0010
0000
0000
0110
0000
0101
0000
0000
,
0010
1000
0000
0000
0100
0010
0000
0000
0100
1000
0000
0000
0010
0100
0000
0000
,
0010
0100
0000
0000
0010
1000
0000
0000
0001
1000
0000
0000
0001
0010
0000
0000
,
0100
1000
0000
0000
0010
1000
0000
0000
0001
0010
0000
0000
0100
1000
0000
0000
,
0100
1000
0100
0000
0011
0000
1100
0000
,
0001
0100
0000
0000
0010
1000
0000
0000
0001
1000
0000
0000
0100
0010
0000
0000
,
0001
1000
0000
0000
0100
0010
0000
0000
0100
0010
0000
0000
0001
0010
0000
0000
,
0001
1000
0000
0000
0100
1000
0000
0000
0100
1000
0000
0000
0010
0100
0000
0000
,
0100
1000
0010
1000
0110
0000
0011
0000
,
0001
0100
0010
1000
0001
1000
0010
0100
,
0010
0100
0010
1000
0110
0000
0001
0000
,
0001
0010
0100
0000
0100
1000
0001
0000
,
0010
0000
0000
0010
0001
0000
0010
0000
0100
0000
1000
0000
0010
0000
0000
0000
,
0100
1000
0100
0010
0100
1000
0001
1000
,
0100
1000
0100
0010
0101
0000
0001
0000
,
0001
0010
0100
0000
0010
0000
0100
0010
,
0001
1000
0100
0000
0010
1000
0001
0000
,
0001
0010
0001
0000
0100
0010
0100
0000
,
0100
1000
0000
0000
0010
1000
0000
0000
0010
0100
0000
0000
0001
0000
0100
0000
,
0001
0000
0100
0010
0100
0000
0010
0100
,
0010
0100
0000
0000
0001
0100
0000
0000
0001
0010
0000
0000
0100
0000
0010
0000
,
0001
0000
0001
1000
0010
0000
0100
0010
,
0001
0100
0000
0000
0001
0010
0000
0000
0001
1000
0000
0000
0100
0000
1000
0000
,
0100
0000
0010
0000
0100
0000
1000
0000
0010
0100
0000
0010
0000
0010
0100
0000
,
0110
0000
0001
0010
,
0001
0010
0100
0000
0001
0100
0000
1000
,
0010
1000
0000
0100
0001
0000
0010
0000
,
0001
1000
0000
0100
0220
0000
0330
0000
,
0100
0000
0010
0000
0100
1000
0000
0100
,
0010
0000
0001
0100
0010
1000
0000
1000
,
0001
0100
0000
0100
0010
0000
0100
0000
,
0100
0010
0001
0000
0100
0000
0001
0010
,
0100
0000
0001
1000
0000
1000
0100
0010
,
0100
1000
0001
0010
0100
0010
0000
0010
,
0001
0100
0010
0100
0010
1000
0000
1000
,
1100
1000
0001
0010
0110
0010
0001
0010
,
1001
0000
0000
0010
0100
0000
0010
0001
0100
0000
1000
0000
0100
0000
0000
0000
,
0001
0100
0010
0100
0001
0100
0000
1000
,
0010
1000
0100
1000
0100
0010
0000
1000
,
0011
0010
0100
0010
1100
1000
0001
0010
,
0110
0010
0100
1000
0011
0010
0001
1000
,
0010
1000
0000
0000
0001
0100
0000
0000
0001
1000
0000
0000
0100
1000
0000
0000
,
0100
1000
0000
0000
0010
0100
0000
0000
0001
0010
0000
0000
0100
0010
0000
0000
,
0100
0010
0000
0000
0001
1000
0000
0000
0001
0100
0000
0000
0001
1000
0000
0000
,
0010
0100
0001
0010
0011
0000
1100
0000
,
0001
1000
0000
0000
0010
0100
0000
0000
0001
0100
0000
0000
0001
0100
0000
0000
,
0010
1000
0000
0000
0001
0100
0000
0000
0001
1000
0000
0000
0100
0010
0000
0000
,
0100
0010
0000
0000
0001
1000
0000
0000
0010
1000
0000
0000
0100
0010
0000
0000
,
0100
0010
0001
0100
1001
0000
0110
0000
,
0001
0000
0001
0100
0000
0100
0010
0000
0010
1000
0000
1000
0100
0000
0010
0001
,
1000
0000
1000
0100
0000
0100
0010
0000
0010
0001
0000
0001
1000
0000
0010
0100
,
0001
0000
0001
0100
0000
0100
0010
0000
0010
1000
0000
1000
0100
0000
0010
0001
,
0100
0000
0100
0010
0000
0010
1000
0000
1000
0100
0000
0100
0010
0000
0001
0100
,
0010
0000
0010
1000
0000
1000
0100
0000
0100
0010
0000
0010
0001
0000
1000
0100
,
0010
0000
0010
0100
0000
0100
1000
0000
1000
0010
0000
0010
0100
0000
0001
0100
,
0010
0000
0010
1000
0000
1000
0100
0000
0100
0010
0000
0010
0001
0000
0100
0010
,
0100
0000
0100
0010
0000
0010
1000
0000
1000
0100
0000
0100
1000
0000
0000
0000
,
0220
0000
0000
0000
,
0000
0000
0000
0000
,
0330
0000
0000
0000
;
