#VERSION:0.83;
#TITLE:Godzilla;
#ARTIST:Eminem feat Juice WRLD;
#GENRE:HIP HOP;
#CREDIT:B. M'Rey;
#MUSIC:Godzilla.ogg;
#BANNER:Godzilla.png;
#BACKGROUND:Godzilla-bg.png;
#CDTITLE:./CDTITLES/Dance Dance Revolution SPACE.PNG;
#SAMPLESTART:37.608;
#SAMPLELENGTH:15;
#OFFSET:-1.450;
#BPMS:0.000=165.940;

//--------------- dance-single - B. M'Rey ----------------
#NOTEDATA:;
#STEPSTYPE:dance-single;
#DESCRIPTION:B. M'Rey;
#DIFFICULTY:Beginner;
#METER:5;
#RADARVALUES:0,0,0,0,0,0,0,0,0,0,0,0,0,0,0,0,0,0,0,0,0,0;
#CREDIT:B. M'Rey;
#NOTES:
0000
0000
0000
0000
,
1000
0000
0000
0000
,
0000
0000
0000
0000
,
0010
0000
0000
0000
,
0000
0000
0000
0000
,
0100
0000
0000
0000
,
0000
0000
0000
0000
,
0001
0000
0000
0000
,
0000
0000
0000
0000
,
1000
0000
0010
0000
,
0100
0000
0001
0000
,
0010
0000
0001
0000
,
1000
0000
0010
0000
,
0110
0000
0001
0000
,
0010
0000
1000
0000
,
0010
0000
0100
0000
,
0001
0000
1000
0000
,
0010
0000
0000
0000
,
0100
0000
0001
0000
,
0010
0000
1000
0000
,
0100
0000
1000
0000
,
1001
0000
0100
0000
,
0010
0000
0001
0000
,
0100
0000
0010
0000
,
1000
0000
0001
0000
,
0100
0000
0000
0000
,
1000
0000
0001
0000
,
0100
0000
0000
0000
,
0010
0000
0100
0000
,
0001
0000
0000
0000
,
1000
0000
0010
0000
,
0100
0000
0000
0000
,
0010
0000
0100
0000
,
0001
0000
1000
0000
,
0010
0000
0100
0000
,
0001
0000
0010
0000
,
0001
0000
1000
0000
,
0110
0000
0100
0000
,
0002
0000
0000
0000
,
1003
0000
0010
0000
,
0100
0000
0001
0000
,
0010
0000
0000
0000
,
1000
0000
0001
0000
,
0010
0000
0000
0000
,
0100
0000
0010
0000
,
1000
0000
0001
0000
,
0100
0000
0010
0000
,
1000
0000
0000
0000
,
0001
0000
0000
0000
,
0200
0000
0000
0000
,
0320
0000
0000
0000
,
0032
0000
0000
0000
,
2003
0000
0000
0000
,
3200
0000
0000
0000
,
0302
0000
0000
0000
,
0023
0000
0000
0000
,
0230
0000
0000
0000
,
1300
0000
0001
0000
,
0010
0000
0001
0000
,
0100
0000
0010
0000
,
1000
0000
0001
0000
,
0010
0000
0001
0000
,
0100
0000
0010
0000
,
1000
0000
0010
0000
,
0001
0000
1000
0000
,
1001
0000
0000
0000
,
1000
1000
0100
0100
,
0001
0001
0010
0010
,
0100
0100
1000
1000
,
0001
0001
0100
0100
,
0010
0010
1000
1000
,
0001
0001
0010
0010
,
0100
0100
0010
0010
,
1001
0100
0100
0010
,
0010
0001
0001
1000
,
1000
0010
0010
0100
,
0100
0010
0010
1000
,
1000
0001
0001
0100
,
0100
0010
0010
1000
,
1000
0001
0001
0100
,
0100
0010
0010
1000
,
1001
0001
0001
0100
,
0100
0010
0010
1000
,
1000
0001
0001
0010
,
0010
0000
1000
0000
,
0001
0000
0100
0100
,
0010
0010
0001
0000
;

//--------------- dance-single - B. M'Rey ----------------
#NOTEDATA:;
#STEPSTYPE:dance-single;
#DESCRIPTION:B. M'Rey;
#DIFFICULTY:Easy;
#METER:8;
#RADARVALUES:0,0,0,0,0,0,0,0,0,0,0,0,0,0,0,0,0,0,0,0,0,0;
#CREDIT:B. M'Rey;
#NOTES:
0000
0000
0000
0000
,
1000
0000
0000
0001
,
0000
1000
0000
0000
,
0010
0000
0000
0100
,
0000
0000
0001
0000
,
0000
1000
0000
0000
,
0010
0000
0100
0000
,
0001
0000
0000
0000
,
0010
0000
1000
0000
,
1000
0001
0010
0001
,
0100
0010
1000
0100
,
0010
1000
0001
0010
,
0100
1000
0001
0100
,
0010
0001
1000
0010
,
0100
1000
0010
0100
,
0001
0010
1000
0010
,
1000
0010
0001
1000
,
0110
0000
0000
0000
,
1000
0100
0001
0010
,
0100
0010
1000
0010
,
0100
0001
0010
0100
,
0110
0000
0001
1000
,
0010
0010
0010
0010
,
0000
0100
0001
0010
,
1000
0100
1000
0010
,
0100
0000
0001
0010
,
0100
1000
0001
0010
,
0100
0000
1000
0100
,
0010
0001
1000
0100
,
0010
0000
0001
1000
,
0010
0100
0010
1000
,
0100
0001
0100
0010
,
1000
0100
0001
0010
,
0100
0000
0001
0000
,
1000
0000
0001
1000
,
0010
0100
0001
1000
,
0010
0100
0001
0010
,
1000
0000
0100
1000
,
0001
0010
0000
0000
,
0100
1000
0001
0010
,
0000
0001
0100
1000
,
0010
0000
0000
0100
,
0001
0000
0100
0001
,
1000
0010
0000
0100
,
0001
0000
0010
1000
,
0100
0001
0010
0100
,
1000
0001
0100
0010
,
1000
0010
0000
0100
,
0001
0010
1000
0100
,
0002
0000
0103
0100
,
2000
0000
3001
0001
,
0002
0000
0103
0100
,
0020
0000
0031
0001
,
0100
0010
1000
0100
,
0002
0000
1003
0010
,
0100
0001
1000
0010
,
0200
0000
0310
0000
,
0011
0000
1001
0000
,
0100
0010
1000
0001
,
0010
0100
0010
1000
,
0001
0100
0000
0010
,
1000
0001
0100
0010
,
0001
1000
0010
0100
,
0010
1000
0001
0010
,
0100
0001
1000
0010
,
1000
0000
0000
0000
,
1000
0010
0100
1000
,
0001
0000
0100
0000
0010
0000
1000
0001
,
0100
0010
1000
0100
,
0001
0000
0010
0000
0100
0000
0010
1000
,
0001
0010
1000
0010
,
0001
0000
0100
0000
0010
0000
1000
0001
,
0100
0001
0010
0100
,
1001
0000
0100
0000
0010
0000
0001
1000
,
0010
0001
1000
0100
,
1000
0000
0100
0000
0010
0000
0001
0010
,
0100
0001
0010
0100
,
1000
0000
0100
0000
0001
0000
0100
1000
,
0010
0001
0010
1000
,
0100
0000
0001
0000
1000
0000
0100
0001
,
0010
1000
0010
1000
,
1001
0000
0100
0000
0001
0000
0010
1000
,
0100
0001
0010
0100
,
1000
0000
0001
0000
1000
0000
0010
0001
,
0100
0000
1000
0000
,
0001
0000
0000
0000
1000
0000
0100
0001
,
0010
0100
0001
0000
;

//--------------- dance-single - B. M'Rey ----------------
#NOTEDATA:;
#STEPSTYPE:dance-single;
#DESCRIPTION:B. M'Rey;
#DIFFICULTY:Medium;
#METER:13;
#RADARVALUES:0,0,0,0,0,0,0,0,0,0,0,0,0,0,0,0,0,0,0,0,0,0;
#CREDIT:B. M'Rey;
#NOTES:
0000
0000
0000
0000
,
1000
0000
0000
0010
,
0000
0100
0001
0010
,
1000
0000
0010
0000
,
0001
1000
0010
0100
,
0000
0010
0100
0001
,
0010
1000
0100
1000
,
0001
0010
0001
0100
,
0010
1000
0001
0010
,
0100
0001
0010
0000
0100
0000
1000
0000
,
0010
0100
0001
1000
0010
0000
0100
0000
,
0001
0010
1000
0000
0100
0000
0001
0000
,
0010
0000
0100
1000
0001
0000
0100
0000
,
0010
0000
0001
0010
1000
0000
0100
0000
,
0010
0001
0010
0100
,
0001
0000
1000
0001
1000
0001
1000
0001
,
1000
0010
0000
0100
,
0001
0010
0000
0000
,
1000
0000
1000
0001
1000
0000
0010
0000
,
0100
0001
0010
0000
0100
1000
0100
0000
,
0001
0010
0100
0000
0010
1000
0100
0000
,
1001
0000
0010
0100
,
1001
1001
1001
1001
,
0010
0001
0100
0000
0010
1000
0100
0000
,
0001
0010
0100
0000
0010
0000
1000
0000
,
0011
1100
0010
0100
,
0001
0010
1000
0001
,
0011
1100
0010
0100
,
0001
0010
1000
0100
,
0011
1100
0010
0100
,
0001
0010
0010
0010
,
0010
0000
0100
0000
1000
0001
1000
0000
,
0010
0100
0001
0000
0010
0000
1000
0000
,
1010
0101
0010
1100
,
0011
0100
0011
1100
,
0010
0100
0001
1000
,
0010
0100
0001
0010
,
1001
0000
0100
0010
,
2000
0200
0000
0000
,
3300
0000
0001
0100
,
0000
0010
1000
0001
,
0010
0000
0000
0000
1000
0000
0001
0010
,
0100
0000
0010
1000
,
0001
0000
0100
0000
0010
0000
1000
0100
,
0001
0000
0010
0100
,
0001
0000
1000
0000
0010
0000
0100
0001
,
1000
0010
0100
0001
,
1000
0001
1000
0001
0000
0000
0100
0001
,
0010
0000
1000
0001
,
0200
0010
0010
0310
,
0002
0010
0010
0013
,
2000
0010
0010
3010
,
0200
0010
0010
0310
,
0001
1000
0100
0010
,
0002
0010
0010
0013
,
0100
1000
0010
0100
,
2000
0010
0010
3010
,
0001
0100
1000
0100
,
0010
0000
0100
0000
0001
1000
0010
0100
,
0001
0010
0100
1000
0001
0000
0100
0000
,
0010
0000
1000
0100
0001
0000
0010
0000
,
0100
1000
0010
0100
,
0001
0010
0100
0010
,
1000
0001
0100
0010
,
1000
0100
0001
0100
,
1001
0000
0000
0000
,
1000
0100
1000
0100
1000
0100
1000
0100
,
1000
0010
1000
0010
1000
0010
1000
0010
,
1000
0001
1000
0001
1000
0001
1000
0001
,
1000
0001
0100
0001
0100
0001
0100
0001
,
0100
0001
0010
0001
0010
0001
0010
0001
,
0010
0001
0100
0001
0100
0001
0100
0001
,
0100
0001
1000
0001
1000
0001
1000
0001
,
0010
0100
0010
0100
0010
0100
0010
0100
,
0010
1000
0010
1000
0010
1000
0010
1000
,
0010
0100
0010
0100
0010
0100
0010
0100
,
0010
0001
0010
0001
0010
0001
0010
0001
,
0010
0100
0010
0100
0010
0100
0010
0100
,
0010
1000
0010
1000
0010
1000
0010
1000
,
0010
0100
0010
0100
0010
0100
0010
0100
,
0010
0001
0010
0001
0010
0001
0010
0001
,
0100
0010
0100
0010
0100
0010
0100
0010
,
0100
1000
0100
1000
0100
1000
0100
1000
,
0100
0010
0100
0010
0100
0010
0100
0010
,
0100
0001
0100
0001
0100
0001
0100
0001
,
0100
0010
0100
0010
0100
0010
0100
0010
,
0100
1000
0100
1000
0100
1000
0000
0000
;

//--------------- dance-single - B. M'Rey ----------------
#NOTEDATA:;
#STEPSTYPE:dance-single;
#DESCRIPTION:B. M'Rey;
#DIFFICULTY:Hard;
#METER:16;
#RADARVALUES:0,0,0,0,0,0,0,0,0,0,0,0,0,0,0,0,0,0,0,0,0,0;
#CREDIT:B. M'Rey;
#NOTES:
0000
0000
0000
0000
,
1000
0000
0001
0000
0100
0000
0000
0010
0000
0000
0000
0000
0000
0100
0000
0000
,
0000
0001
1000
0100
,
0010
0001
1000
0000
0100
0000
0001
0010
,
0100
0010
1000
0100
0001
0000
0100
0000
,
0000
0000
0010
1000
0001
0000
0100
0000
,
0001
1000
0010
0100
1000
0000
0001
0000
,
0100
0000
0010
0100
0001
0000
1000
0000
,
0010
0000
0100
0001
1000
0000
0010
0000
,
1001
0100
0010
0001
1000
0010
0100
0000
,
0001
0000
0010
0100
0001
1000
0010
0100
,
1000
0010
0100
0010
0001
1000
0100
0000
,
0001
0000
0010
0100
0001
1000
0100
0001
,
0010
0000
1000
0100
0001
0010
0001
0100
,
0010
0000
1000
0000
0001
0010
0001
0100
,
0010
0000
1000
0001
0001
1000
1000
0010
,
0100
0000
0001
0000
0010
0000
1000
0001
,
0010
0100
0000
0010
,
0001
1000
0010
0100
0001
0010
1000
0100
,
1000
0010
0001
0100
0010
1000
0100
0001
,
0010
0100
0010
1000
0001
0010
0100
0010
,
1001
0000
0100
0001
0010
1000
0100
0001
,
1001
1001
1001
1001
,
0010
0100
0001
0010
1000
0100
0001
0010
,
0100
1000
0001
0010
0001
0000
1000
0000
,
0010
0000
0110
0000
0001
0010
0001
1000
,
0100
0000
0001
0010
0100
0010
1000
0001
,
0100
0000
0110
0000
0001
0010
0001
1000
,
0100
0000
0001
0010
1000
0100
1000
0001
,
0010
0000
0110
0000
0001
1000
0010
0000
,
1000
0100
0010
0001
,
0010
0000
0100
0000
0001
1000
0010
0100
,
0001
0010
0100
0010
1000
0000
0001
0000
,
1001
0000
0010
0000
0100
0000
1000
0100
,
0001
0010
0100
1001
,
0010
0000
0100
0001
1000
0000
0100
1000
,
0010
0001
0100
0010
,
1001
0000
1000
0001
,
1000
1001
0000
0000
,
0100
0010
1000
0001
,
0000
0000
1000
0001
0010
0100
0010
1000
,
0001
0000
0000
0000
0000
0000
0010
0100
,
0001
0000
0000
0010
1000
0100
0001
0010
,
0100
0000
1000
0000
0000
0100
0001
0100
,
0001
0000
0010
1000
,
0001
0000
0100
0000
0010
0001
1000
0010
,
0100
0000
0001
0000
0010
0100
0010
1000
,
1000
0001
0001
0100
0000
0010
1000
0001
,
0100
0000
0000
0001
0010
0100
0001
1000
,
0010
0000
0100
0000
1000
0100
0001
0010
,
0100
0000
0001
0000
1000
0100
0010
0001
,
0100
0000
0001
0000
0010
1000
0010
0100
,
0001
0000
0100
0000
0010
0000
1000
0001
,
0010
0100
0001
1000
0010
0100
0001
1000
,
0010
0000
1000
0000
0100
0000
0001
0010
,
0100
0001
1000
0010
0100
0001
1000
0010
,
0100
0000
0001
0000
1000
0010
0100
0001
,
1000
0001
1000
0001
,
1000
0000
0010
0100
0000
0001
0010
1000
,
0100
0010
0001
0100
0010
1000
0001
0010
,
0100
0001
1000
0010
0000
0100
0001
1000
,
0010
0100
1000
0010
0100
0001
0010
0001
,
0100
0010
1000
0100
1000
0001
0010
0001
,
0100
0010
1000
0100
1000
0001
0010
0100
,
0001
0010
1000
0100
0000
0000
0000
0000
,
1001
0000
0000
0000
,
0001
0010
0001
0000
0010
0100
0010
0000
1000
0100
1000
0000
0001
1000
0001
0000
,
0010
0100
0010
0000
0001
0010
0001
0000
1000
0010
1000
0000
0100
0010
0100
0000
,
1000
0001
1000
0000
0010
0100
0010
0000
0001
0010
0001
0000
0100
0010
0100
0000
,
1000
0100
1000
0000
0001
0010
0001
0000
0010
0100
0010
0000
1000
0100
1000
0000
,
0001
0010
0001
0000
0100
0010
0100
0000
0001
0010
0001
0000
1000
0100
1000
0000
,
0010
0100
0010
0000
0001
0010
0001
0000
0010
0100
0010
0000
1000
0100
1000
0000
,
0001
1000
0001
0000
0010
0100
0010
0000
0001
0010
0001
0000
1000
0010
1000
0000
,
0100
0010
0100
0000
1000
0001
1000
0000
0010
0100
0010
0000
0001
0010
0001
0000
,
0100
0010
0100
0000
1000
0100
1000
0000
0001
0010
0001
0000
0010
0100
0010
0000
,
1000
0100
1000
0000
0001
0010
0001
0000
0100
0010
0100
0000
0001
0010
0001
0000
,
1000
0100
1000
0000
0010
0100
0010
0000
0001
0010
0001
0000
0010
0100
0010
0000
,
1000
0100
1000
0000
0001
1000
0001
0000
0010
0100
0010
0000
0001
0010
0001
0000
,
1000
0010
1000
0000
0100
0010
0100
0000
1000
0001
1000
0000
0010
0100
0010
0000
,
0001
0010
0001
0000
0100
0010
0100
0000
1000
0100
1000
0000
0001
0010
0001
0000
,
0010
0100
0010
0000
1000
0100
1000
0000
0001
0010
0001
0000
0100
0010
0100
0000
,
0001
0010
0001
0000
1000
0100
1000
0000
0010
0100
0010
0000
0001
0010
0001
0000
,
0010
0100
0010
0000
1000
0100
1000
0000
0001
1000
0001
0000
0010
0100
0010
0000
,
0001
0010
0001
0000
1000
0010
1000
0000
0100
0010
0100
0000
1000
0001
1000
0000
,
0010
0010
0001
0001
0100
0100
1000
1000
,
0001
0000
0001
0000
0010
0100
0010
0000
1000
0100
1000
0000
0001
0010
0001
0000
,
0100
0010
0100
0000
0001
0010
0001
0000
1000
0100
1000
0000
0000
0000
0000
0000
;

//--------------- dance-single - B. M'Rey ----------------
#NOTEDATA:;
#STEPSTYPE:dance-single;
#DESCRIPTION:B. M'Rey;
#DIFFICULTY:Challenge;
#METER:19;
#RADARVALUES:0.903339,1.129833,0.20745,0.06915,0.818274,823,796,27,9,0,0,0.903339,1.129833,0.20745,0.06915,0.818274,823,796,27,9,0,0;
#CREDIT:B. M'Rey;
#NOTES:
0000
0000
0000
0000
,
1000
0000
0001
0000
0100
0000
0000
0010
0001
0000
0000
0000
0100
0000
0010
0001
,
0000
0000
0000
0000
0100
0000
0000
0000
0100
0000
0001
0010
0000
0000
0000
0000
,
0100
0000
0001
0000
1000
0000
0000
0010
0100
0000
0000
0000
0001
0010
0001
0000
,
0100
0000
1000
0000
0001
0000
0100
0000
0010
0000
0000
1000
0100
0000
0000
0000
,
0000
0000
0000
0000
0001
0000
1000
0000
0010
0000
0000
0100
0001
0000
1000
0000
,
0010
0000
0100
0000
0001
0000
0010
0000
0100
0000
0000
1000
0100
0000
0001
0000
,
0010
0000
0100
0000
1000
0000
0001
0000
1000
0000
0000
0100
0010
0000
0001
0000
,
0000
0000
1000
0001
1000
0000
0010
0000
0100
0000
0000
0010
0001
0000
0000
0000
,
1001
0000
0010
0000
0100
0000
0001
0000
1000
0000
0010
0000
0100
0000
0010
0001
,
0010
0000
1000
0000
0100
0000
1000
0000
0010
0100
0000
0001
0010
0000
1000
0100
,
0001
0000
0010
0000
0100
0000
0001
1000
0100
0000
0010
0000
0001
0000
0100
0010
,
1000
0000
0100
0000
0001
1000
0010
0000
0100
0000
0001
0000
1000
0000
0010
0000
,
0100
0000
0000
0010
0001
0000
0100
0000
0010
0000
1000
0000
0100
0000
1000
0000
,
0010
0000
0000
0001
0100
0000
0000
0000
0010
0000
1000
0100
0001
0000
0100
0000
,
0010
0000
0000
1000
0100
0000
0011
0000
0011
0000
1100
0000
1100
0000
0001
0000
,
0100
0000
0000
0010
1000
0000
0000
0000
0100
0000
0001
0000
1000
0000
0010
0000
,
0110
1001
0100
0010
,
0001
0000
1000
0000
0100
0000
0010
0100
0001
0000
1000
0000
0010
0000
0100
0000
,
0001
0010
1000
0000
0100
0000
0001
0010
0100
0000
1000
0000
0010
0100
0001
0000
,
1000
0000
0010
0000
0100
0000
0001
0010
0001
0000
1000
0000
0001
0000
0100
0000
,
0101
0000
0010
0100
0010
0100
0001
1000
,
0001
1000
0001
1000
0001
1000
0001
1000
,
0000
0000
0010
0000
0100
0000
0001
1000
0100
0000
0010
0100
0001
0000
0010
0000
,
1000
0100
0001
0000
0010
0100
1000
0000
0001
0000
0000
0010
0000
0000
0100
0000
,
1001
0000
1001
0000
0100
0010
1000
0100
,
0001
0000
0010
0100
0010
1000
0001
0100
,
1001
0000
1001
0010
0100
0010
0001
1000
,
0100
0000
0010
1000
0100
0001
0010
0100
,
1001
0000
1001
0000
0010
0100
0002
0000
,
0023
0230
2300
3020
,
0130
0000
0011
0000
1000
0001
0100
0010
,
1000
0100
1000
0001
0100
0000
0011
0000
,
1100
0000
0000
0000
0000
0000
1001
0000
0000
0000
0000
0000
0220
0000
0330
0000
0000
0000
0001
0000
0000
1000
0000
0000
,
0100
0000
0010
0100
0011
0000
1100
0000
,
0010
0000
0100
0001
1000
0100
1000
0100
,
0001
0010
0001
0100
0010
0000
1000
0000
,
4004
3003
0000
0000
0000
0000
0000
0000
0010
0000
0000
0000
0100
0000
0001
0000
,
2000
3200
0301
0010
,
0001
0000
1000
0010
0100
0000
0001
0000
,
1000
0000
0001
0100
0010
1000
0100
1000
,
1001
0000
0010
0000
0100
0000
0001
1000
,
0010
0000
0100
0001
1000
0010
0100
1000
,
0001
0000
0100
0000
0010
1000
0100
0001
,
0010
0000
0100
1000
0001
0010
0001
0100
,
0010
0000
0000
0000
1001
0000
0000
0000
0100
0000
0010
0000
0100
1000
0100
0000
,
0001
0100
1000
0000
,
0001
1000
0001
1000
0000
0010
0100
0001
,
0010
0000
0000
0000
1000
0000
0100
0010
0001
0000
0100
0000
1000
0000
0010
0000
,
0100
0000
0001
0010
0001
0000
0100
0000
0010
0000
1000
0010
0100
0000
0001
0000
,
1000
0000
0100
1000
0100
0000
0001
0000
0010
0000
0100
0001
1000
0000
0010
0000
,
0100
0000
0001
0010
0001
0000
0100
0000
0010
0000
1000
0001
0100
0000
1000
0000
,
0010
0000
0100
0010
0001
0000
1000
0000
0100
0000
1000
0000
0010
0000
0100
0000
,
0001
1000
0010
0100
0001
0010
1000
0100
,
1000
0000
0010
0001
0100
0000
1000
0000
0001
0000
0100
0000
0010
0000
1000
0000
,
0100
0000
0001
0100
1000
0000
0010
0000
0100
0000
1000
0000
0001
0000
0010
1000
,
0100
0000
0001
0000
0100
0000
0010
1000
0100
0000
0001
0000
1000
0000
0010
0000
,
1000
0100
0001
1000
0010
0100
0001
0010
,
1000
0000
0100
0000
1000
0000
0001
0000
0000
0100
0010
0000
0001
0010
0000
1000
,
0100
0000
0010
0001
0100
0000
1000
0000
0010
0000
0100
0000
0001
0000
0010
0000
,
0100
0000
1000
0001
1000
0000
0100
0000
0000
0000
0010
0000
0001
0000
0100
0000
,
0010
1000
0100
1000
0001
0010
0001
0100
,
0010
1000
0100
1000
0001
0010
0001
0100
,
0010
1000
0100
1000
0010
0100
0001
0010
,
0001
0100
0010
1000
0000
0100
0000
0000
,
1001
0000
0000
0000
,
1000
0001
0010
0100
0010
0100
1000
0001
0010
0100
1000
0001
0010
0001
0100
0010
,
1000
0100
0010
0100
0001
0100
0010
0100
0001
0010
0100
0010
1000
0001
1000
0010
,
1000
0100
0010
0001
0100
0010
1000
0100
0001
0010
1000
0100
0001
0100
0010
0100
,
1000
0001
0010
0001
0100
0010
0001
0100
0010
0001
0100
0010
1000
0001
1000
0010
,
1000
0100
0010
0100
0001
0010
1000
0010
0001
0100
1000
0010
0100
0010
0001
0010
,
1000
0100
0010
0100
0010
0001
0100
0001
0010
0100
0010
0001
1000
0100
1000
0010
,
1000
0100
0010
0001
0100
0001
1000
0010
0100
0001
1000
0010
0100
0001
0010
1000
,
0001
0010
0100
1000
0010
0100
1010
0100
0010
1000
0010
0100
0001
0010
0001
1000
,
0001
0010
0100
0010
1000
0100
0001
1000
0010
1000
0001
0100
1000
0010
1000
0100
,
0001
0010
0100
0010
1000
0010
0100
0010
1000
0100
0010
1000
0001
0100
0001
1000
,
0001
0010
0100
0010
1000
0100
0010
0100
1000
0010
0100
0010
1000
0100
0010
1000
,
0001
0010
0100
0010
1000
0100
0010
1000
0010
0100
1000
0010
0001
0100
0001
1000
,
0001
0100
0010
1000
0010
0100
0001
1000
0010
0100
0001
1000
0100
1000
0010
0100
,
0010
1000
0010
0100
0010
1000
0100
1000
0010
1000
0010
0100
0001
1000
0001
0010
,
0001
0100
0010
1000
0010
0100
1001
0010
0100
0010
0001
1000
0100
1000
0010
0100
,
0001
0010
0100
0001
1000
0010
0100
0010
1000
0010
0100
0001
0010
0001
1000
0010
,
0100
0010
1000
0100
0010
1000
0001
0010
0001
0100
0010
1000
0010
0100
0001
0100
,
0010
0100
1000
0001
0010
0100
0001
0010
1000
0010
0100
0001
0010
0100
0010
0001
,
1000
0000
0010
0100
0001
1000
0010
0000
0100
0010
1000
0001
0010
0000
0100
0010
,
1000
0001
0100
0010
0001
1000
0010
0100
0010
1000
0100
0001
0010
0100
0010
0001
,
0100
1000
0010
0100
0010
1000
0001
0100
0010
0000
0000
0000
0000
0000
0000
0000
;
