#TITLE:合体せよ!ストロングイェーガー!!;
#ARTIST:L.E.D.;
#TITLETRANSLIT:Gattai seyo! Strong Jaeger!!;
#GENRE:NU-NRG;
#CREDIT:B. M'Rey;
#MUSIC:Gattai seyo! Strong Jaeger!!.ogg;
#BANNER:Gattai seyo! Strong Jaeger!!.png;
#BACKGROUND:Gattai seyo! Strong Jaeger!!-bg.png;
#CDTITLE:./CDTITLES/beatmania IIDX 8th style.PNG;
#SAMPLESTART:63.6;
#SAMPLELENGTH:15;
#OFFSET:-0.377;
#BPMS:0=155;

//--------------- dance-single - B. M'Rey ----------------
#NOTES:
     dance-single:
     B. M'Rey:
     Beginner:
     5:
     0,0,0,0,0:
0000
0000
0000
0000
,
0000
0000
0000
0000
,
0000
0000
0000
0000
,
1001
0000
0000
0000
,
0100
0000
0000
0000
,
0011
0000
0000
0000
,
0110
0000
1000
0000
,
0001
0000
0100
0000
,
0110
0000
0000
0000
,
1000
0000
0001
0000
,
0100
0000
0010
0000
,
1000
0000
0010
0000
,
0100
0000
0001
0000
,
0110
0000
0001
0000
,
1000
0000
0010
0000
,
0100
0000
0010
0000
,
1001
0000
0000
0000
,
0100
0000
0010
0000
,
1000
0001
1000
0001
,
0100
0000
0010
0000
,
0100
0010
0100
0010
,
0001
0000
1000
0000
,
0010
1000
0010
1000
,
0100
0000
0001
0000
,
0101
0000
0000
0000
,
1000
0000
0000
0000
,
0010
0000
0000
0000
,
0100
0000
0000
0000
,
0001
0000
0000
0000
,
0001
0000
0000
0000
,
0100
0000
0000
0000
,
0110
0000
0011
0000
,
1100
0000
0101
0000
,
0010
1000
0010
0000
,
0100
0001
0100
0000
,
0010
0100
0010
0000
,
1000
0100
1000
0000
,
0001
0010
0001
0000
,
0100
0010
0100
0000
,
0001
1000
0001
0000
,
0010
0001
0010
0000
,
1001
0000
0000
0000
,
0110
0000
0000
0000
,
0101
0000
0000
0000
,
1010
0000
0000
0000
,
0110
0000
0010
0000
,
0001
0000
0001
0000
,
1000
0000
1000
0000
,
0010
0000
0001
0000
,
1001
0000
0000
0000
,
0000
0000
0000
0000
,
0110
0000
0000
0000
,
0000
0000
0000
0000
,
1001
0000
0000
0000
,
0110
0000
0000
0000
,
0011
0000
0000
0000
,
1010
0000
0000
0000
,
1000
0000
0001
0000
,
0100
0000
0010
0000
,
1000
0000
0001
0000
,
0010
0000
0001
0000
,
0100
0000
0010
0000
,
1000
0000
0010
0000
,
0100
0000
0001
0000
,
0110
0000
0000
0000
,
0001
0000
1000
0000
,
0010
0000
0100
0000
,
0010
0100
0010
0100
,
0010
0100
0010
0100
,
0010
0000
0001
0000
,
1000
0000
0010
0000
,
0100
0010
0100
0010
,
0100
0010
0100
0010
,
0110
0000
0000
0000
;

//--------------- dance-single - B. M'Rey ----------------
#NOTES:
     dance-single:
     B. M'Rey:
     Easy:
     8:
     0,0,0,0,0:
0000
0000
0000
0000
,
0000
0000
0000
0000
,
0000
0000
0000
0000
,
1001
0000
0001
0000
,
0001
0000
0100
0000
,
0101
0000
0001
0000
,
0110
0000
0001
0000
,
0011
0000
1100
0000
,
1010
0000
0000
0000
,
0010
1000
0001
0100
,
0001
0100
0001
1000
,
0010
0100
0010
0100
,
0001
0000
0010
0000
0001
0000
0100
0001
,
0010
0100
0001
0100
,
0001
0010
0100
0010
,
0001
1000
0010
1000
,
1010
0000
0101
0000
,
0001
1000
0100
1000
,
0001
0010
0100
0000
0010
1000
0100
0000
,
0001
0100
0001
1000
,
0010
1000
0100
0000
0010
0001
0100
0000
,
0010
1000
0100
1000
,
0001
0100
0010
0000
0001
1000
0100
0000
,
0001
0100
0010
0100
,
0020
0000
0002
0000
,
1033
0000
0001
0000
,
0100
0000
1000
0000
,
0101
0000
0010
0000
,
0001
0000
0100
0000
,
1100
0000
0001
0000
,
0100
0000
0001
0000
,
1010
0000
0110
0000
,
0101
0000
0110
0000
,
0010
1000
0010
0100
,
0001
1000
0010
0100
,
0010
1000
0001
0100
,
0010
1000
0001
0100
,
0010
0100
0001
1000
,
0010
1000
0001
1000
,
0100
0010
0001
1000
,
0010
0100
0001
1000
,
0100
0010
1000
0000
0010
0000
1001
0000
,
0010
0001
0100
0000
0010
0000
1100
0000
,
0001
0010
0100
0000
0001
0000
0110
0000
,
0001
1000
0100
0000
0010
0001
0100
0000
,
0001
0100
1000
0000
0001
0000
1000
0000
,
0100
0010
1000
0000
0001
0000
0010
0000
,
0100
1000
0010
0000
0001
0010
1000
0000
,
0100
0001
0010
0000
0100
1000
0010
0000
,
1100
0000
0000
0000
,
0000
0000
0000
0000
,
1001
0000
0000
0000
,
0000
0000
0000
0000
,
0011
0000
0001
0000
,
1100
0000
0001
0000
,
1001
0000
1010
0000
,
0110
0011
1010
0011
,
0001
0000
0010
0000
0100
0000
1000
0001
,
0010
0000
0100
0000
0001
0000
0010
1000
,
0100
0000
1000
0000
0100
0000
0010
0100
,
0001
0000
0010
0000
0001
0000
1000
0100
,
0001
0000
0010
0000
0100
0000
0010
1000
,
0001
0000
0010
0000
0100
0000
1000
0001
,
0010
0000
0100
0000
0001
0000
0100
1000
,
0110
0000
0000
0000
,
0100
1000
0010
0100
,
0010
0100
0010
1000
,
0001
0010
0100
0000
0010
1000
0100
0000
,
0001
0100
0010
0000
0001
0100
1000
0000
,
0010
1000
0010
0100
,
0001
1000
0001
1000
,
0010
0001
0100
0000
0010
0100
1000
0000
,
0010
0001
0100
0000
0001
0100
1000
0000
,
0110
0000
0000
0000
;

//--------------- dance-single - B. M'Rey ----------------
#NOTES:
     dance-single:
     B. M'Rey:
     Medium:
     11:
     0,0,0,0,0:
0000
0000
0000
0000
,
0000
0000
0000
0000
,
0000
0000
0000
0000
,
0110
0000
0100
0000
0001
0000
0100
1000
,
0001
0000
0010
0000
0001
0000
0010
1000
,
0100
0000
0010
0000
0001
0000
1000
0100
,
0001
0000
1000
0000
0001
0000
0010
0001
,
0100
0000
1000
0000
0001
0010
1000
0000
,
1010
0000
0000
0110
,
0001
1000
0010
0000
0100
0010
0001
0000
,
0100
1000
0001
0000
0001
0010
0100
0000
,
0100
1000
0010
0000
0010
1000
0001
0000
,
0101
0011
1100
0101
,
0001
0100
0001
0000
0100
0010
0100
0000
,
0001
0010
0100
0000
0010
0100
0010
0000
,
0001
0100
0010
0000
0010
1000
0010
0000
,
0101
0100
0010
0100
,
0001
0010
0001
1000
0100
0010
0001
0000
,
0011
1100
0110
0011
,
0100
1000
0100
0010
0100
0010
0001
0000
,
1010
0110
0011
1001
,
0001
0100
0010
0100
0001
1000
0010
0000
,
0110
0000
0010
1000
0100
0010
0100
0000
,
0110
0000
0001
1000
0010
0100
0010
0100
,
0202
0000
0000
0000
0000
0000
0000
0300
,
1003
0000
0010
0000
,
0100
0001
0100
0001
,
0100
0000
0010
0000
,
1000
0010
1000
0010
,
0100
0000
0001
0000
,
0010
0100
0010
0100
,
0001
0000
1000
0000
,
0010
0100
0001
0010
,
0001
1000
0100
0000
0001
0100
0001
0000
,
0001
1000
0100
0000
0100
1000
0001
0000
,
0001
0100
0010
0000
0010
1000
0100
0000
,
0010
0100
0010
0000
0010
1000
0001
0000
,
0010
0100
0010
0000
0001
1000
0100
0000
,
0001
0010
0100
0000
0100
1000
0010
0000
,
0010
0100
0001
0000
0001
0100
0001
0000
,
0010
0100
0001
0000
0001
1000
0010
0000
,
0110
0000
1001
0000
0110
0000
0010
0001
,
0100
0000
1010
0000
0101
0000
0100
0001
,
0010
0000
1100
0000
0011
0000
0010
1000
,
0100
0000
1000
0001
0100
0000
0010
1000
,
0110
0000
0011
0000
0101
0000
1000
0001
,
1010
0000
0110
0000
0011
0000
1000
0100
,
0011
0000
1100
0000
0011
0000
0010
0100
,
0001
0000
0100
0001
0010
0000
1000
0100
,
0010
1000
0001
0010
,
0001
0000
0000
0000
,
0010
1000
0010
1000
,
0001
0000
0000
0000
,
0001
1000
0010
1000
,
1010
0000
0001
0100
,
0101
0000
0110
0000
,
1010
0000
0101
0000
,
0001
0010
0100
0000
0001
0100
0001
0000
,
0010
0100
0001
0000
0010
1000
0100
0000
,
0100
0010
0001
0000
0100
1000
0010
0000
,
1010
0110
0101
1001
,
0001
1000
0010
0000
0010
1000
0100
0000
,
0001
1000
0001
0000
0010
0100
0010
0000
,
0100
1000
0100
0000
0001
0100
0010
0000
,
0101
0000
0000
0000
,
0100
0010
0100
0000
0100
0010
0001
0000
,
0001
0010
0001
0000
0100
1000
0001
0000
,
0100
0010
0001
0100
0001
0010
0001
1000
,
0010
1000
0100
0010
0100
1000
0001
0100
,
0001
0100
0010
0000
0001
0100
0001
0000
,
0010
0100
0001
0000
0100
1000
0100
0000
,
0001
0100
0010
0100
0001
0010
0001
1000
,
0001
0010
0100
1000
0100
0010
0100
1000
,
0010
0000
0000
0000
;

//--------------- dance-single - B. M'Rey ----------------
#NOTES:
     dance-single:
     B. M'Rey:
     Hard:
     14:
     0,0,0,0,0:
0000
0000
0000
0000
,
0000
0000
0000
0000
,
0000
0000
0000
0000
,
0100
0000
0001
0000
0100
0000
0010
1000
,
0100
0000
0001
0000
0010
0000
0001
0010
,
1000
0000
0010
0000
0100
0000
0010
0100
,
1000
0000
0001
0000
0100
0000
0010
0001
,
1000
0000
0010
0000
0100
1000
0010
0000
,
1100
0000
0000
0011
,
1000
0010
1000
0001
0010
0100
1000
0001
,
0010
0100
0010
0001
0010
0001
0100
0010
,
0100
0001
1000
0010
0100
0010
1000
0100
,
0010
1000
0100
0010
,
0100
0010
1000
0010
1000
0001
0010
0001
,
1000
0001
0100
0010
1000
0010
0100
0001
,
0010
0100
0010
0001
0010
0001
0100
0001
,
0101
0001
0010
1100
,
0100
0001
1000
0100
1000
0100
0010
0100
,
0010
0100
0010
0100
0010
0000
1000
0100
1000
0001
0010
0000
1000
0001
0010
0100
,
1000
0001
0010
0001
0010
0100
1000
0010
,
0010
0001
1000
0100
1000
0000
1000
0010
0100
0000
0100
0001
0010
0000
0100
0001
,
0010
0001
0010
0100
1000
0010
0100
0001
,
0010
0001
0100
0010
0100
0000
0100
0001
0010
0001
0100
0000
0100
0001
1000
0100
,
0010
0100
0010
0001
1000
0100
1000
0100
,
2020
0000
0000
0000
,
3130
0100
1000
0001
,
1000
0000
0100
0000
0010
0000
0001
0010
,
1000
0001
0010
0100
,
0010
0000
0001
0000
0100
0000
0010
1000
,
0100
0000
0010
0000
1000
0001
0100
0000
,
0100
0001
1000
0000
1000
0010
0100
0000
,
1000
0010
1000
0001
0100
0010
0100
0001
,
1000
0100
1000
0001
0100
0010
1000
0010
,
0010
0000
0001
1000
0000
1000
0100
0000
0010
0000
0100
0010
0000
0010
0001
0000
,
0100
0000
0001
1000
0000
1000
0100
0000
1000
0000
0100
0000
1000
0001
1000
0001
,
0100
0000
0010
1000
0000
1000
0010
0000
1000
0000
0010
0100
0000
0100
0001
0000
,
1000
0000
0100
0010
0000
0010
0001
0000
0100
0000
0010
0100
0010
0100
0010
0100
,
0010
0000
0001
0010
0000
0010
0100
0000
0010
0000
0100
1000
0000
1000
0010
0000
,
0100
0000
0010
0100
0000
0100
0010
0000
1000
0000
0100
1000
0000
1000
0010
0000
,
0100
0000
0010
1000
0000
1000
0010
0000
0100
0000
0001
0010
0000
0010
0001
0000
,
1000
0000
0100
1000
0000
1000
0001
0000
0010
0000
0001
0100
0010
0100
0010
0100
,
0010
0010
0100
0001
1000
0001
0010
0100
,
0010
0100
0010
0001
1000
0001
0010
0001
,
0010
0100
1000
0010
1000
0100
0010
0100
,
1000
0010
1000
0001
0010
0100
1000
0001
,
0110
0000
0110
0000
1001
0000
0100
0010
,
1001
0000
1001
0000
0101
0000
0010
0100
,
0011
0000
0101
0000
1010
0000
1000
0001
,
1100
0000
0011
0000
0110
0000
1000
0010
,
0100
0001
1000
0100
,
1000
0000
0000
0000
,
0100
0010
1000
0001
,
1000
0000
0000
0000
,
0100
0010
1000
0100
,
1100
0100
0010
0001
,
1001
0010
1100
0100
,
0110
0011
1010
0011
,
1000
0100
0000
0010
0001
0000
0010
1000
0000
1000
0010
0000
0100
0000
0001
0000
,
0010
1000
0000
0010
0100
0000
1000
0100
0000
0001
0010
0000
0100
0000
0001
0000
,
1000
0010
0000
0010
0100
0000
0001
0010
0000
0010
0001
0000
1000
0000
0100
0000
,
0010
0001
0000
0001
0100
0000
0010
0100
0000
0100
0001
0000
0010
0000
0001
0000
,
0100
0010
0000
0010
0100
0000
0010
0100
0000
0100
0001
0000
1000
0000
0100
0000
,
0010
0000
0001
1000
0000
1000
0010
0000
0100
0010
0000
0010
0100
0000
0010
0000
,
1000
0000
0100
0010
0000
0010
0001
0000
0010
0001
0000
0001
1000
0000
0010
0000
,
2002
0000
0000
0000
,
3103
0010
0100
0001
1000
0100
1000
0001
,
0100
0010
1000
0010
0100
0010
0100
0001
,
0100
0001
0100
0001
1000
0000
1000
0010
1000
0010
0100
0000
1000
0001
0010
0000
,
1000
0001
0100
0010
0100
0000
0100
0001
1000
0001
1000
0000
0100
0010
0100
0000
,
1000
0010
0100
0010
0100
0010
1000
0100
,
1000
0100
1000
0001
0100
0001
0010
0001
,
0100
0001
0100
0001
0100
0000
1000
0010
1000
0010
0100
0000
0100
0001
0100
0000
,
1000
0010
1000
0100
1000
0000
0100
0010
0100
0010
1000
0000
1000
0001
1000
0000
,
0110
0000
0000
0000
;
