#TITLE:Forever...;
#ARTIST:Savage Genius;
#GENRE:J-POP;
#CREDIT:B. M'Rey;
#MUSIC:Forever.ogg;
#BANNER:Forever.png;
#BACKGROUND:Forever-bg.png;
#CDTITLE:./CDTITLES/Dance Dance Revolution SPACE.PNG;
#SAMPLESTART:65.352;
#SAMPLELENGTH:15;
#OFFSET:-0.134;
#BPMS:0=149;

//--------------- dance-single - B. M'Rey ----------------
#NOTES:
     dance-single:
     B. M'Rey:
     Beginner:
     4:
     0,0,0,0,0:
0000
0000
0000
0000
,
0000
0000
0000
0000
,
0000
0000
0000
0000
,
0000
0000
0000
0000
,
0000
0000
1000
0000
,
0001
0000
1000
0000
,
0001
0000
1000
0000
,
0001
0000
1000
0000
,
0001
0000
0100
0000
,
0010
0000
0100
0000
,
0010
0000
0100
0000
,
0010
0000
0100
0000
,
0010
0000
0110
0000
,
0001
0000
0001
0000
,
1000
0000
1000
0000
,
0010
0000
0000
0000
,
0100
0000
0000
0000
,
1000
0000
1000
0000
,
0001
0000
0001
0000
,
0000
0100
0000
0000
,
0000
0000
0010
0000
,
0100
0000
0010
0000
,
0001
0000
1000
0000
,
0010
0000
0100
0000
,
0010
0000
0000
0000
,
1000
0000
0001
0000
,
0010
0000
0110
0000
,
0110
0000
0110
0000
,
0000
0000
0001
0000
,
1000
0000
0010
0000
,
0100
0000
0010
0000
,
1000
0001
1000
0000
,
0010
0000
0100
0000
,
0000
0001
0000
0000
,
1000
0000
0010
0000
,
0100
0000
0001
0000
,
0000
0000
1000
0000
,
0001
0000
0100
0010
,
0100
0000
0110
0000
,
0000
0000
1001
0000
,
0000
0000
1001
0000
,
0000
0000
0010
0000
,
0100
0000
0001
0000
,
1000
0000
0010
0000
,
0100
0000
0010
0000
,
0001
0000
1000
0000
,
0001
0000
0000
0010
,
0000
0100
0110
0000
,
0000
0110
0000
0000
,
0000
0000
0001
0000
,
1000
0000
0010
0000
,
0100
0000
0001
0000
,
1000
0000
0010
0000
,
0100
0000
0001
0000
,
1000
0000
0010
0000
,
0100
0000
1000
0000
,
0000
0000
0000
0000
,
0000
0000
1000
0000
,
0010
0000
0100
0000
,
0001
0000
0010
0000
,
0001
0000
1000
0000
,
0010
0000
0100
0000
,
0001
0000
0000
0010
,
0000
0100
0101
0000
,
0000
1010
0000
0000
,
0000
0000
0100
0000
,
0010
0000
1000
0000
,
0001
0000
0010
0000
,
0001
0000
0100
0000
,
0010
0000
1000
0000
,
0010
0000
0100
0000
,
0001
0000
0010
0000
,
0001
0000
0100
0000
,
0010
0000
1001
0000
,
0001
0000
1000
0000
,
0001
0000
1000
0000
,
0001
0000
1000
0000
,
0001
0000
0100
0000
,
0010
0000
0100
0000
,
0010
0000
0100
0000
,
0010
0000
0100
0000
,
0010
0000
0110
0000
;

//--------------- dance-single - B. M'Rey ----------------
#NOTES:
     dance-single:
     B. M'Rey:
     Easy:
     6:
     0,0,0,0,0:
0000
0000
0000
0000
,
0000
0000
0000
0000
,
0000
0000
0000
0000
,
0000
0000
0000
0000
0001
0000
0000
1000
,
0000
0000
0010
0100
,
0010
0100
0001
1000
,
0001
1000
0100
0001
,
0100
0001
1001
0000
,
1010
0000
0010
1000
,
0010
1000
0100
1000
,
0100
1000
0001
1000
,
0001
1000
1001
0000
,
0101
0000
0010
0000
,
1000
0100
0010
0000
,
1000
0000
0001
0010
,
0100
0000
0000
0001
0000
0000
0000
0000
,
0010
0000
0000
1000
0000
0000
0000
0000
,
0010
0100
0010
1000
,
0100
0001
0010
0000
,
0000
0000
1000
0001
0000
0000
0000
0000
,
0010
0000
0100
0000
,
0010
1000
0001
0000
,
0100
0000
0010
1000
,
0100
0001
0010
0000
,
1000
0001
0000
0000
0000
0000
0000
0000
,
0001
0100
0010
0000
,
1000
0010
1001
0000
,
1010
0000
0000
0000
0110
0000
0000
0110
,
0000
0000
0000
0001
,
0010
0100
1000
0100
,
0010
0001
0010
0100
,
1000
0100
0010
0000
,
0001
0010
2000
0000
,
3000
0020
0000
0030
,
0001
0010
1000
0000
,
0001
0000
0000
0000
0100
0000
0000
0010
,
0000
1000
0001
0000
,
1000
0000
0010
0100
,
0001
0000
0000
0010
2000
0000
0000
0000
,
0000
0000
3001
0200
0000
0000
0000
0000
,
0000
0000
0000
0300
1001
0000
0000
0000
,
0000
0000
0000
0000
0001
0000
0000
1000
,
0001
0000
0010
0100
,
1000
0000
0010
0000
,
0100
0000
1000
0100
,
0010
0001
0020
0000
,
0200
0000
0000
0000
0000
0330
0001
0000
,
0010
0000
0100
0000
0001
0000
0000
1000
,
0000
0000
0001
0000
0000
1000
0000
0000
,
0000
0000
0010
0000
,
0100
0000
1000
0001
,
0010
0000
0100
0000
,
0010
0000
1000
0100
,
1000
0010
0100
0000
,
0001
0000
0010
0000
,
0000
1000
0001
0000
0000
0000
1000
0001
,
0000
0000
1000
0001
0000
0000
0010
0000
,
0100
0000
0001
0000
1001
0000
0000
0010
,
0100
0000
0001
1000
,
0010
0000
0100
0010
,
1000
0100
0001
0010
,
0001
0000
0010
0000
0110
0000
0000
0001
,
2000
0000
3000
0010
,
0100
0000
0001
0000
1000
0000
0000
0001
,
0000
0000
1000
0000
0000
0001
0000
0000
,
0000
0000
0000
0000
0010
0000
0000
0100
,
0010
0000
1000
0100
,
0001
0000
0010
0100
,
0001
0010
1000
0100
,
1000
0010
0100
0000
,
0001
1000
0010
0000
,
1000
0000
1000
0001
0000
0000
0001
0100
,
0000
1000
0010
0000
1000
0000
0001
0000
,
1000
0110
0001
0010
,
0001
0010
0100
0010
,
0100
0010
1000
0100
,
1000
0100
0110
0000
,
0110
0000
1001
0010
,
0001
0010
1000
0010
,
1000
0010
1000
0100
,
1000
0100
0011
0000
,
0101
0000
2002
0000
,
0000
0000
0000
0000
,
0000
0000
0000
0000
,
0000
0000
0000
0000
,
0000
0000
0000
0000
,
3003
0000
0000
0000
;

//--------------- dance-single - B. M'Rey ----------------
#NOTES:
     dance-single:
     B. M'Rey:
     Medium:
     10:
     0,0,0,0,0:
0000
0000
0000
0000
,
0000
0000
0000
0000
,
0000
0000
0000
0000
,
0000
0000
0000
0000
0000
0000
0000
0000
1001
0000
0000
0110
0000
0000
0011
0000
,
0000
0000
1000
0000
0010
0100
0001
0000
,
0010
1000
0100
0000
0001
0010
0001
0000
,
0010
0100
0010
0000
1000
0100
0010
0000
,
0001
0010
0100
0000
0010
1000
0100
0010
,
0001
0100
0010
0000
1000
0100
1000
0000
,
0001
0100
0010
0000
0010
1000
0100
0000
,
0010
0100
0010
0000
0001
0010
0100
0000
,
0010
0100
0010
0000
1000
0100
1000
0001
,
0010
0100
1000
0000
1001
0000
0000
0001
,
1000
0000
0010
0000
0100
0000
0001
0000
0010
0000
0000
1000
0000
0000
0100
0000
,
0010
0000
0000
0001
0000
0000
0100
0000
0010
0000
1000
0000
0010
0000
0001
0000
,
0100
0000
0000
0001
0000
0000
1000
0000
0000
0000
0000
0000
0000
0000
0010
0000
,
0100
0001
0000
0000
0000
0000
0000
0010
,
1000
0000
0010
0000
0100
0000
0001
0000
0010
0000
0000
1000
0000
0000
0100
0000
,
0010
0000
0000
0001
0000
0000
0100
0000
0020
0000
0000
0000
0000
0000
0000
0000
,
0030
0000
1000
0001
0000
0000
0000
0010
,
1000
0010
1000
0010
1000
0000
0000
0001
,
0010
0000
0100
0000
0010
0000
1000
0000
0010
0000
0000
0100
0000
0000
0001
0000
,
0010
0000
0000
1000
0000
0000
0100
0000
0001
0000
0010
0000
1000
0000
0010
0000
,
0100
0000
0000
0001
0000
0000
0010
0000
0000
0000
0000
0000
0000
0000
1000
0000
,
0001
1000
0000
0000
0000
0000
0000
0001
,
0010
0000
0100
0000
1000
0000
0100
0000
0010
0000
0000
1000
0000
0000
0001
0000
,
0010
0000
0000
0100
0000
0000
0010
0000
1001
0000
0000
0000
0000
0000
0000
0000
,
0101
0000
0000
0000
0110
0000
0000
1010
,
0000
0000
1000
0002
,
0013
2000
3100
0020
,
0130
0002
0013
0200
,
0310
0000
2000
0000
3100
0000
0000
0001
,
0010
0100
0010
1000
0200
0000
0000
0000
,
0300
0000
0010
0000
0001
0000
0000
0010
,
1000
0000
0010
0100
0000
0000
0001
0000
0010
0000
0000
0000
1000
0000
0000
0000
,
0100
0000
0001
0020
0100
0000
0000
0100
,
0000
0000
0000
0000
0100
0000
1030
0000
0001
0000
0000
0010
0000
0000
0100
0000
,
1000
0000
0000
0100
0000
0000
0001
0000
0010
0000
0000
0000
0100
0000
0000
0000
,
0110
0000
0000
1000
0002
0000
1000
0000
,
1003
0000
0010
0100
0020
0000
0000
0000
,
0000
0000
0030
0000
,
0000
0000
1000
0001
0010
0000
0100
1000
,
0100
0000
0001
0010
0100
0010
1000
0100
,
0001
0000
0000
0000
0010
0000
0000
0000
1000
0000
0000
0100
0000
0000
0001
0010
,
0001
0000
0000
0100
0000
0000
1000
0000
0010
0000
0000
0000
0100
0000
0000
0000
,
0001
0000
1000
0000
0020
0000
0000
0100
,
0200
0000
0330
1000
,
0001
0000
0100
0000
0011
0000
0000
0110
,
0000
0000
1100
0000
0000
0110
0000
0000
,
0101
0000
0000
0001
1000
0000
0100
0010
,
0001
0000
0010
1000
0100
0001
0010
0100
,
0010
0000
0000
0000
1000
0000
0000
0000
0001
0000
0000
0100
0000
0000
0010
0000
,
1000
0000
0000
0100
0000
0000
0001
0000
0010
0000
0000
0000
0100
0000
0000
0000
,
1000
0000
0001
0200
0000
0300
0001
2000
,
0000
3000
0010
0200
0000
0300
0010
0002
,
0000
0103
1000
0200
0000
0300
0001
0020
,
0000
0030
1000
0200
0000
0301
0010
1000
,
0100
0010
0100
0001
2000
0000
0000
3010
,
0002
0000
0000
0000
0000
0000
0013
0000
1000
0000
0000
0100
0000
0000
0001
0000
,
0010
0000
0000
0000
1000
0000
0000
0000
0001
0000
0000
0100
0000
0000
0010
0000
,
1000
0000
0000
0100
0000
0000
0001
0000
0010
0000
0000
0000
0100
0000
0000
0000
,
1000
0000
0001
0000
0020
0000
0000
0100
,
0200
0000
0330
1000
,
0001
0000
0010
0000
1100
0000
0000
0110
,
0000
0000
0101
0000
0000
0011
0000
0000
,
1001
0000
0000
0001
2000
0000
0000
3100
,
0020
0000
0000
0000
0000
0000
0031
0000
1000
0000
0000
0010
0000
0000
0100
0000
,
0001
0000
0000
0000
1000
0000
0000
0000
0001
0000
0000
0100
0000
0000
0010
0000
,
1000
0000
0000
0100
0000
0000
0001
0000
0010
0000
0000
0000
0100
0000
0000
0000
,
0010
0000
1000
0020
0000
0000
0130
0010
,
0000
0000
0001
2000
0000
0000
3001
1000
,
0000
0100
0010
0100
0000
0000
0010
0100
,
0000
0000
0010
0100
0000
0001
0010
0100
,
0010
1000
0001
0000
0010
0100
0001
0000
,
0010
1000
0100
0000
0001
0010
0001
0000
,
0010
0100
0010
0000
1000
0100
0010
0000
,
0001
0010
0100
0000
0010
1000
0100
0010
,
0001
0100
0010
0000
1000
0100
1000
0000
,
0001
0100
0010
0000
0010
1000
0100
0000
,
0010
0100
0010
0000
0001
0010
0100
0000
,
0010
0100
0010
0000
1000
0100
1000
0001
,
0010
0100
1000
0000
2002
0000
0000
0000
,
0000
0000
0000
0000
,
0000
0000
0000
0000
,
0000
0000
0000
0000
,
0000
0000
0000
0000
,
3003
0000
0000
0000
;

//--------------- dance-single - B. M'Rey ----------------
#NOTES:
     dance-single:
     B. M'Rey:
     Hard:
     13:
     0.425,0.421,0.14,0.168,0.087:
0000
0000
0000
0000
,
0000
0000
0000
0000
,
0000
0000
0000
0000
,
0000
0000
0000
0000
0000
0000
0000
0000
1001
0000
0000
1001
0000
0000
0110
0000
,
0000
0000
0001
1000
0001
0000
0000
0000
0001
0000
0010
0001
0000
0001
0010
0000
,
0001
0000
1000
0100
0000
0100
0010
0000
0100
0000
1000
0100
0000
0100
0010
0000
,
0001
0000
1000
0001
0000
0001
0100
0000
0010
0000
0100
0010
0000
0010
0100
0000
,
0001
0000
0010
0001
0000
0001
0010
0000
0100
0000
0010
0100
0000
0100
1000
0000
,
0100
0000
1000
0010
1000
0000
0000
0000
0010
0000
0100
0010
0000
0010
0100
0000
,
0001
0000
0100
0001
0000
0001
0010
0000
0100
0000
0010
0100
0000
0100
0010
0000
,
0001
0000
0100
0001
0000
0001
0100
0000
0001
0000
0010
0100
0000
0100
1000
0000
,
0100
0000
0010
0100
0000
0100
1000
0000
0001
0000
0010
0100
0000
0100
0010
0000
,
0100
0000
1000
0100
1000
0000
1000
0000
0001
0000
0000
0000
1000
0000
0001
0000
,
1000
0000
0001
0000
1000
0000
0001
0000
0010
0000
0100
0010
0000
0000
0100
0000
,
0010
0000
0001
0100
0000
0000
0001
0000
0010
0000
0100
0000
0010
0000
0100
0000
,
0010
0000
0000
1000
0000
0000
0001
0000
0000
0000
0001
0000
0010
0000
0100
0000
,
1000
0000
0010
0000
1000
0010
1000
0010
1000
0000
0000
0000
0010
0000
0001
0000
,
0010
0000
0001
0000
1000
0000
0010
0000
1000
0000
0010
1000
0000
1000
0001
0000
,
0100
0000
0001
0100
0000
0100
0001
0000
1000
0000
0000
0000
0010
0000
0000
0000
,
0100
0000
1000
0001
0010
0000
0001
0010
,
0100
0000
0010
0100
0010
0000
0010
0000
0101
0000
0000
0000
1000
0000
0001
0000
,
1000
0000
0100
0000
1000
0000
0100
0000
0010
0000
0100
0010
0000
0010
0001
0000
,
0010
0000
0001
1000
0000
1000
0001
0000
1000
0000
0100
0000
1000
0000
0100
0000
,
0010
0000
0000
1000
0000
0000
0010
0000
0000
0000
0010
0000
1000
0000
0000
0000
,
0010
0000
0100
0000
0010
0100
0010
0100
1000
0000
0000
0000
0010
0000
0001
0000
,
1000
0000
0010
0000
1000
0000
0010
0000
1000
0000
0100
0010
0000
0010
0100
0000
,
0010
0000
0100
1000
0000
1000
0001
0000
0101
0000
0000
0000
0100
0000
0001
0000
,
1010
0000
1000
0010
1001
0000
0010
0011
,
0000
0000
0001
1000
0001
0000
0100
0000
0001
0000
0001
0000
1000
0000
1000
0000
,
0001
0001
0100
0100
0001
0001
1000
1000
,
0010
0010
0100
0100
0001
0001
0010
0010
,
0001
0001
0010
0010
0110
0000
0001
1000
,
0001
0010
0001
0010
0100
0000
1000
0000
,
0100
1000
0010
1000
0010
0000
0001
0100
,
0001
0000
0100
0001
0000
0000
0010
0000
0001
0000
0000
0000
0100
0000
0000
0000
,
1000
0000
0100
0010
0001
0000
0001
0010
,
0000
0000
1000
0000
0100
0000
0000
0000
0100
0000
0010
0001
0000
0001
1000
0000
,
0001
0000
1000
0100
0000
0100
1000
0000
0110
0000
0000
0000
0110
0000
0000
0000
,
1001
0000
0101
0000
0001
0100
0010
0100
,
0010
1000
0010
1000
0100
1000
0100
0010
,
0100
0000
0010
0000
0001
0000
0010
0001
0010
0000
0000
0100
1000
0000
0100
0010
,
0000
0001
0010
0001
0010
0000
1000
0000
0010
1000
0010
1000
0010
0000
1000
0000
,
0001
1000
0001
1000
0001
0000
0100
0000
0001
0000
0100
0010
0000
0010
0100
0000
,
1010
0000
0000
0000
0010
0000
0000
0000
0001
1000
0001
1000
0010
0000
0100
0000
,
0010
0100
0010
0100
0010
0000
1000
0000
0011
0000
0000
0000
1100
0000
0000
0000
,
0101
0000
1010
0000
0011
0000
0001
0010
,
0200
0000
1000
0000
1300
0000
0001
0010
,
0001
0000
1000
0000
0001
0000
1000
0000
0010
0100
0010
0000
0000
0000
0100
0010
,
0100
0000
0000
0000
0001
0100
0001
0000
0000
0000
0100
0010
0100
0000
0000
0000
,
0001
0000
0010
0000
0001
0010
0001
0000
0100
1000
0100
1000
0100
0000
1000
0000
,
0100
0010
0100
0010
0001
0000
1000
0000
0001
0000
1000
0001
0000
0001
0100
0000
,
0110
0000
0000
0000
0010
0000
0100
0000
0001
1000
0001
1000
0010
0000
1000
0000
,
0010
1000
0010
1000
0001
0000
0100
0000
0101
0000
0000
0000
1010
0000
0000
0000
,
0011
0000
1100
0100
0100
0010
0001
0010
,
0001
0010
0100
1000
0100
1000
0010
1000
,
0010
0100
0010
1000
0001
1000
0001
1000
,
0010
0000
0100
0000
0001
0000
0100
0000
0001
0000
0100
0010
0000
0010
1000
0000
,
0010
0000
1000
0010
1000
0000
0100
0000
0010
1000
0010
1000
0010
0000
1000
0000
,
0100
1000
0100
1000
0010
0000
0100
0000
0001
0000
0100
0001
0000
0001
0100
0000
,
1010
0000
0000
0000
0010
0000
0000
0000
0010
0100
0010
0100
0001
0000
0100
0000
,
0010
0100
0010
0100
0010
0000
1000
0000
1010
0000
0000
0000
1001
0000
0000
0000
,
0101
0000
0110
0000
0100
0010
0100
1000
,
0200
0000
0001
0000
0301
0000
0001
0010
,
0100
0000
0010
0000
0100
0000
0010
0000
0001
1000
0001
0000
0000
0000
0010
0001
,
0010
0000
0000
0000
0100
0010
0100
0000
0000
0000
1000
0001
1000
0000
0100
0000
,
0001
0000
0100
0000
0001
0010
0001
0000
0100
0010
0100
0010
0100
0000
0010
0000
,
0001
0100
0001
0100
0010
0000
1000
0000
0001
0000
1000
0100
0000
0100
1000
0000
,
0101
0000
0000
0000
0100
0000
0000
0000
0010
0100
0010
0100
0010
0000
1000
0000
,
0001
1000
0001
1000
0001
0000
0100
0000
0101
0000
0000
0000
0011
0000
0000
0000
,
1100
0000
0010
0100
0001
1000
0010
0100
,
0010
1000
0010
1000
0100
1000
0001
0010
,
0001
0010
0001
1000
0010
1000
0010
0100
,
0010
0000
0100
0000
0001
0000
0100
0000
0001
0000
1000
0001
0000
0001
1000
0000
,
0100
0000
1000
0100
1000
0000
0010
0000
0001
0000
1000
0001
0000
0001
1000
0000
,
0001
0000
0100
0010
0000
0010
1000
0000
0100
0000
0010
0001
0000
0001
0010
0000
,
0001
0000
0010
0100
0000
0100
1000
0000
0100
0000
1000
0100
0000
0100
0010
0000
,
0001
0000
0010
0001
0000
0001
0100
0000
0001
0000
0100
0010
0000
0010
0100
0000
,
0010
0000
1000
0001
1000
0000
0100
0000
0101
0000
0100
0001
0000
0001
1000
0000
,
0010
0000
1000
0010
0000
0010
1000
0000
0100
0000
0010
0100
0000
0100
0010
0000
,
0100
0000
1000
0001
0000
0001
1000
0000
0001
0000
0100
0001
0000
0001
0100
0000
,
0010
0000
0100
0010
0000
0010
1000
0000
0010
0000
0100
0001
0000
0001
0010
0000
,
0001
0000
0010
0100
0010
0000
1000
0000
0220
0000
0000
0000
0000
0000
0000
0000
,
0000
0000
0000
0000
,
0000
0000
0000
0000
,
0000
0000
0000
0000
,
0000
0000
0000
0000
,
0330
0000
0000
0000
;
