#TITLE:Forever After All;
#ARTIST:Luke Combs;
#GENRE:COUNTRY;
#CREDIT:B. M'Rey;
#MUSIC:Forever After All.ogg;
#BANNER:Forever After All.png;
#BACKGROUND:Forever After All-bg.png;
#CDTITLE:./CDTITLES/Dance Dance Revolution SPACE.PNG;
#SAMPLESTART:50.106;
#SAMPLELENGTH:15;
#OFFSET:-0.073;
#BPMS:0=152;

//--------------- dance-single - B. M'Rey ----------------
#NOTES:
     dance-single:
     B. M'Rey:
     Beginner:
     4:
     0,0,0,0,0:
0000
0000
0000
0000
,
0000
0000
0000
0000
,
0000
0000
0000
0000
,
0000
0000
0000
0000
,
0000
1000
0000
0000
,
0000
0001
0000
0000
,
0000
0100
0000
0000
,
0000
0000
0000
0000
,
0000
0001
0000
1000
,
0000
0010
0000
0000
,
0000
0100
0000
0010
,
0000
1000
0000
0001
,
0000
0010
0000
0001
,
0000
0100
0000
0010
,
0000
1000
0000
0000
,
0000
0000
0000
0000
,
0000
0001
0000
0010
,
0000
0001
0000
0000
,
0000
0100
0000
0010
,
0000
1000
0000
0000
,
0000
0001
0000
0010
,
0000
0001
0000
0100
,
0000
0010
0000
0000
,
0000
0000
0000
0000
,
0000
1000
0000
0001
,
0000
0010
0000
0100
,
0000
0010
0000
0000
,
0000
0000
0000
0000
,
0000
0001
0000
1000
,
0000
0010
0000
0100
,
0000
0001
0000
0000
,
0000
0000
0000
0000
0000
0000
0001
1000
,
0000
0010
0000
0100
,
0000
0000
1001
0000
0000
0000
0010
0100
,
0000
0001
0000
1000
,
0000
0010
0000
0100
,
0001
1000
0000
0000
0010
0000
0000
0001
,
0000
0010
0000
0000
0000
1000
0000
0010
,
0000
0200
0000
0000
0000
0000
0000
0000
,
0000
0300
0000
0000
0000
0000
0001
0000
,
0000
0010
0000
0100
,
0000
0001
0000
1000
0000
0000
0010
0000
,
0000
0100
0000
0001
,
0000
1000
0000
0010
0000
0000
0100
0000
,
0000
0010
0000
0001
,
0000
0000
0010
0000
0000
0100
0000
0010
,
0000
0002
0000
0000
0000
0000
0000
0000
,
0000
0003
0000
0000
,
0000
0001
0000
1000
,
0000
0100
0000
0001
,
0020
0000
0030
0000
,
0000
0000
0000
0001
,
0000
0010
0000
1000
,
0001
1000
0000
0001
0000
1000
0000
0000
,
0010
0200
0000
0000
,
0300
0000
0000
1000
,
0100
0000
0000
0001
,
0000
0000
0000
0100
,
0000
0002
0000
0000
,
0003
0010
0000
0100
,
0000
1001
0000
0000
;

//--------------- dance-single - B. M'Rey ----------------
#NOTES:
     dance-single:
     B. M'Rey:
     Easy:
     6:
     0,0,0,0,0:
0000
0000
0000
0000
,
0000
0000
0000
0000
,
0000
0000
0000
0000
,
0000
0000
0000
0000
,
0000
0001
0000
0000
,
0000
1000
0000
0000
,
0000
0010
0100
0001
,
0020
0000
0000
0000
,
0030
1000
0010
0100
,
0001
0010
0000
0100
,
0000
0010
1000
0100
,
1000
0100
0000
0010
,
0000
0001
0010
0100
,
0001
1000
0000
0010
,
0100
0000
0001
1000
,
0010
0000
0000
0010
,
0000
0001
1000
0100
,
1000
0010
0100
0000
,
0000
1000
0010
0100
,
1000
0001
0020
0000
,
0130
1000
0010
0100
,
0001
0010
0000
1000
,
0100
0001
0000
1000
,
0010
0000
0000
0100
,
0010
1000
0000
0001
,
0010
0100
0000
0010
,
1000
0001
0000
0100
,
0000
0010
0000
1000
,
0100
1000
0010
0100
,
0001
0010
1000
0010
,
0200
0000
0002
0000
,
0000
0303
0000
0001
,
1000
0010
0000
0100
,
0000
1001
0000
0010
,
0100
0001
0000
1000
,
0000
0010
0000
1000
,
0010
0100
0000
0001
,
0010
1000
0000
0001
,
0100
0020
0000
0000
,
0000
1030
0000
0100
,
0010
0001
0010
0001
,
1000
0100
0000
0010
,
0100
1000
0100
0010
,
0000
0001
0000
1000
,
0010
0100
0000
0010
,
0001
1000
0000
0010
,
0100
0002
0000
0000
,
0000
1003
0010
0100
,
0000
0001
0010
1000
,
0100
0010
0000
0001
,
2000
0000
0020
0000
,
3030
0100
0000
0010
,
1000
0100
0010
1000
,
0001
1001
0000
1000
,
0010
0200
0000
0010
,
0300
1000
0001
0010
,
0001
0000
0100
0010
,
0100
0000
0000
0001
,
0000
2000
0010
3010
,
0000
0010
0100
0010
,
0000
2002
0000
0000
,
0000
0000
0000
0000
,
3003
0000
0000
0000
;

//--------------- dance-single - B. M'Rey ----------------
#NOTES:
     dance-single:
     B. M'Rey:
     Medium:
     7:
     0,0,0,0,0:
0000
0000
0000
0000
,
0000
0000
0000
0000
,
0000
0000
0000
0000
,
0000
0000
0000
0000
,
0000
0100
1000
0010
,
0100
0010
1000
0100
,
0010
0001
1000
0010
,
0100
0000
0010
0000
,
0010
0001
0100
0010
,
0100
0001
0100
0000
,
1000
0010
1000
0100
,
0010
0001
0010
0100
,
1000
0100
0000
0001
,
0100
0010
0000
0010
,
0100
0010
0000
0001
,
1000
0100
0000
0001
,
0000
0100
1000
0001
,
0100
0001
0100
0000
,
1000
0000
0001
1000
,
0010
0100
0010
0000
,
1000
0010
1000
0010
,
0100
0001
1000
0100
,
1000
0010
0000
0010
,
0100
0000
0010
0000
,
1000
0010
1000
0010
,
1000
0001
0100
0001
,
0010
0100
0000
0001
,
0000
0010
0000
0100
,
0000
1000
0010
0001
,
1000
0001
0010
0001
,
0200
0000
0020
0000
,
0330
0000
0100
0000
1000
0000
0100
0010
,
0000
1000
0000
0001
0010
1000
0000
0001
,
0010
0100
0000
1000
0000
0000
0100
1000
,
0000
0010
0000
0100
1000
0010
0000
0000
,
0100
0001
0000
0010
0000
1000
0000
0001
,
1000
0100
0000
0000
0010
0001
0000
1000
,
0000
0100
0000
0000
0001
0010
0000
1000
,
0000
0100
0002
0000
1000
0000
0013
0000
,
0000
0001
0010
0001
,
0010
0001
0000
0100
0000
0020
0000
0000
,
1030
0001
0000
1000
0000
0000
0100
0010
,
0000
0001
0000
1000
0000
0010
0000
0000
,
0100
0010
0000
0100
0000
0010
0000
0000
,
1000
0100
0000
0000
0010
0001
0000
0000
,
0100
1000
0000
0001
0000
0100
0000
0001
,
1000
0010
0100
0020
,
0000
0130
1000
0001
,
0100
0010
0000
0100
0000
0010
0000
1000
,
0001
0100
0000
0010
0000
1000
0010
0100
,
0020
0030
0100
0010
,
1000
0000
0100
0000
0000
0000
0010
0100
,
0000
1000
0000
0010
0000
0100
0000
0001
,
1000
0010
0000
0100
0000
0010
0000
1000
,
0001
0001
0010
0100
,
1000
0010
1000
0100
,
1000
0001
0000
0100
,
0010
0000
0000
0000
0100
0010
0000
0200
,
0000
0310
0100
0001
,
0010
0001
0100
0010
,
0100
0002
0000
0000
,
0000
0000
0000
0000
,
0003
0000
0000
0000
;

//--------------- dance-single - B. M'Rey ----------------
#NOTES:
     dance-single:
     B. M'Rey:
     Hard:
     11:
     0,0,0,0,0:
0000
0000
0000
0000
,
0000
0000
0000
0000
,
0000
0000
0000
0000
,
0000
0000
0000
0000
,
0000
0000
0001
0010
0001
1000
0001
0100
,
0010
0100
0010
0100
0001
1000
0010
0100
,
0010
0100
0010
1000
,
0100
0010
0001
0010
,
0100
0010
0001
0010
0000
1000
0000
1000
,
0100
0010
0000
1000
0000
0000
0001
0000
,
0001
1000
0000
0001
0000
1000
0000
0010
,
0001
0100
0000
0100
0001
0010
0000
0100
,
0001
0010
0000
0000
0010
1000
0000
0100
,
0000
0010
0000
1000
0000
0100
0001
0010
,
0100
0000
0010
0000
0100
0000
0001
1000
,
0100
0000
0001
0000
1000
0001
1000
0000
,
0010
0000
0001
0000
0010
1000
0100
1000
,
0010
0100
0010
0000
0001
0000
1000
0000
,
0010
0000
0001
0100
0001
0000
0010
0000
,
0010
0100
0010
1000
0002
0000
0000
0003
,
0001
0010
0100
0000
0001
1000
0000
1000
,
0001
0010
0000
1000
0100
1000
0000
1000
,
0010
0200
0000
0300
0001
0000
0001
1000
,
0100
0000
0010
0000
0100
0000
0010
1000
,
0100
1000
0001
0000
0001
0010
0000
0010
,
0001
1000
0000
0010
0001
0010
0100
0010
,
0100
0000
0001
0000
1000
0000
0100
0010
,
0001
0100
0010
1000
,
0010
0000
0100
1000
0010
1000
0000
1000
,
0010
0100
0000
1000
0000
1000
0001
0100
,
0002
0000
0200
0000
,
0303
1000
0001
0000
0010
0000
0010
0100
,
0001
0100
0010
0000
0010
1000
0000
1000
,
0001
1001
0000
0101
0000
1000
0010
1000
,
0000
0100
0000
0010
0100
1000
0000
0100
,
0010
0100
0000
1000
0000
0001
0000
1000
,
0100
0010
0000
0010
0100
1000
0000
0100
,
0000
1000
0000
0010
0100
0010
0000
1000
,
0000
0010
0000
0010
0100
1000
0010
0000
,
0100
0000
0100
0010
0100
0000
1001
0000
,
0010
0100
0010
1000
0001
0010
0001
1000
,
0010
1010
0000
1100
0000
0010
0001
0100
,
0000
1000
0000
1000
0100
0010
0001
0100
,
0010
1000
0000
0010
0000
1000
0100
0000
,
0001
0010
0001
0000
0010
1000
0001
0000
,
0001
1000
0000
0100
0000
1000
0100
0010
,
0000
0001
0000
0100
0010
0100
0010
0000
,
0001
0000
0100
1000
0010
1000
0010
0000
,
0010
0100
0001
0010
0100
0010
0100
0010
,
0001
0100
0010
0200
0000
0000
0301
0010
,
0001
0000
0001
1000
0010
0000
0001
0000
,
0001
0100
0010
0000
0100
0000
0010
1000
,
0000
0010
0000
0010
0001
0010
0000
1000
,
0100
0010
0000
1000
0000
0001
0000
0100
,
0002
0000
0103
0010
0001
1000
0010
1000
,
0100
0010
0001
0100
0010
1000
0100
1000
,
0001
0100
0001
0000
0100
0000
0001
0000
,
1000
0000
0001
0000
1000
0001
0000
0020
,
0000
0000
0130
0010
0001
0100
0001
1000
,
0010
0100
0010
1000
0001
1000
0010
0100
,
0010
0100
0010
0000
0100
0000
0001
0000
,
2000
0000
0000
0000
,
3000
0000
0000
0000
;
