#VERSION:0.83;
#TITLE:Fast Car;
#ARTIST:Bars And Melody;
#GENRE:POP;
#CREDIT:B. M'Rey;
#MUSIC:Fast Car.ogg;
#BANNER:Fast Car.png;
#BACKGROUND:Fast Car-bg.png;
#JACKET:Fast Car-jacket.png;
#CDTITLE:./CDTITLES/Dance Dance Revolution SPACE.PNG;
#SAMPLESTART:51.635;
#SAMPLELENGTH:15;
#OFFSET:-0.155;
#BPMS:0=190.059;

//--------------- dance-single - B. M'Rey ----------------
#NOTEDATA:;
#STEPSTYPE:dance-single;
#DESCRIPTION:B. M'Rey;
#DIFFICULTY:Beginner;
#METER:3;
#RADARVALUES:0.117,0.295,0.075,0,0;
#CREDIT:B. M'Rey;
#NOTES:
0000
0000
0000
0000
,
0000
0000
0000
0000
,
0000
0000
0000
0000
,
0000
0000
0000
0000
,
0000
0000
0000
0000
,
0000
0000
0000
0000
,
0000
0000
0000
0000
,
0000
0000
0000
0000
,
0000
0000
0000
0000
,
0001
0000
0000
0000
,
1000
0000
0000
0000
,
0010
0000
0000
0000
,
0100
0000
0000
0000
,
0001
0000
0000
0000
,
0010
0000
0000
0000
,
0001
0000
0000
0000
,
1000
0000
0000
0000
,
0100
0000
0000
0000
,
0010
0000
0000
0000
,
0001
0000
0000
0000
,
1000
0000
0000
0000
,
0010
0000
0000
0000
,
0100
0000
0000
0000
,
0001
0000
0000
0000
,
0010
0000
0000
0000
,
0000
0000
0000
0000
,
0001
0000
1000
0000
,
0000
0000
0100
0000
,
0001
0000
0010
0000
,
0000
0000
1000
0000
,
0000
0000
0001
0000
,
0000
0000
0000
0000
,
0000
0000
0000
0000
,
0010
0000
0000
0000
,
0100
0000
0000
0000
,
0001
0000
0000
0000
,
1000
0000
0000
0000
,
0100
0000
0000
0000
,
1000
0000
0000
0000
,
0010
0000
0000
0000
,
0000
0000
0000
0000
,
0001
0000
1000
0000
,
0001
0000
0000
0000
,
1001
0000
1001
0000
,
1001
0000
1001
0000
,
0001
0000
1000
0000
,
0000
0000
0010
0000
,
0000
0000
0100
0000
,
0000
0000
0010
0000
,
0001
0000
1000
0000
,
0001
0000
1000
0000
,
0110
0000
0110
0000
,
0110
0000
0110
0000
,
0001
0000
0000
0000
,
1000
0000
0000
0000
,
0010
0000
0000
0000
,
0000
0000
0000
0000
,
0001
0000
1000
0000
,
0000
0000
0000
0000
,
0100
0000
0010
0000
,
0000
0000
0000
0000
,
0001
0000
1000
0000
,
0000
0000
0000
0000
,
0100
0000
0010
0000
,
0000
0000
0000
0000
,
0001
0000
0010
0000
,
0000
0000
0000
0000
,
1000
0000
0100
0000
,
0000
0000
0000
0000
,
0010
0000
0100
0000
,
0000
0000
0000
0000
,
0001
0000
0010
0000
,
0000
0000
0000
0000
,
1000
0000
0001
0000
,
1000
0000
0001
0000
,
0010
0000
0010
0000
,
0010
0000
0010
0000
,
0100
0000
0000
0000
,
0001
0000
0000
0000
,
1000
0000
0000
0000
;

//--------------- dance-single - B. M'Rey ----------------
#NOTEDATA:;
#STEPSTYPE:dance-single;
#DESCRIPTION:B. M'Rey;
#DIFFICULTY:Easy;
#METER:5;
#RADARVALUES:0.201,0.259,0,0.149,0;
#CREDIT:B. M'Rey;
#NOTES:
0000
0000
0000
0000
,
0000
0000
0000
0000
,
0000
0000
0000
0000
,
0000
0000
0000
0000
,
0000
0000
0000
0000
,
0000
0000
0000
0000
,
0000
0000
0000
0000
,
0000
0000
0000
0000
,
0000
0000
0000
0000
,
0001
0000
0000
0000
,
0010
0000
0100
0000
,
1000
0000
0100
0000
,
0010
0000
0001
0000
,
0010
0000
0100
0000
,
0010
0000
1000
0000
,
0001
0000
0010
0000
,
0001
0000
0100
0000
,
0010
0000
0001
0000
,
1000
0000
0010
0000
,
0100
0000
0001
0000
,
0010
0000
0001
0000
,
2000
0000
0000
0000
0000
0000
0000
0000
0000
0000
0000
0000
0000
0000
0000
0000
0000
0000
0000
0000
0000
0000
0000
0000
0001
3000
0000
0000
0000
0000
0000
0000
0000
0000
0000
0000
0000
0000
0000
0000
0000
0000
0000
0000
0000
0000
0000
0000
,
0002
0000
0000
0000
0000
0000
0000
0000
0000
0000
0000
0000
0000
0000
0000
0003
1000
0000
0000
0000
0000
0000
0000
0000
0000
0000
0000
0000
0000
0000
0000
0000
,
0010
0000
0100
0000
,
0001
0000
1000
0000
,
0000
0000
0010
0000
,
0001
0000
0100
0000
,
0000
0000
0010
0000
,
1000
0000
0100
0000
,
0000
0000
0001
0000
,
0000
0000
1000
0000
,
0000
0000
0000
0000
,
0000
0000
0000
0000
,
0001
0000
0010
0000
,
0100
0000
0010
0000
,
1000
0000
0001
0000
,
0010
0000
0001
0000
,
0100
0000
0010
0000
,
1000
0000
0100
0000
,
1000
0000
0010
0000
,
0100
0000
0001
0000
,
0010
0000
0001
0000
,
1000
0000
0010
0000
,
0200
0000
0000
0000
0000
0000
0000
0000
0000
0000
0000
0000
0000
0000
0000
0000
0000
0000
0000
0000
0000
0000
0000
0000
0000
0000
0000
0000
0000
0000
0000
0000
0000
0000
0000
0000
0000
0000
0000
0000
0000
0000
0000
0300
0000
0000
0000
0000
0020
0000
0000
0000
0000
0000
0000
0000
0000
0000
0000
0000
0000
0000
0000
0000
0000
0000
0000
0000
0000
0000
0000
0000
0000
0000
0000
0000
0000
0000
0000
0000
0000
0000
0000
0000
0000
0000
0000
0000
0000
0000
0000
0000
0000
0000
0000
0030
,
0200
0000
0000
0000
0000
0000
0000
0000
0000
0000
0000
0000
0000
0000
0000
0000
0000
0000
0000
0000
0000
0000
0000
0000
0000
0000
0000
0000
0000
0000
0000
0000
0000
0000
0000
0000
0000
0000
0000
0000
0000
0000
0000
0300
0000
0000
0000
0000
0020
0000
0000
0000
0000
0000
0000
0000
0000
0000
0000
0000
0000
0000
0000
0000
0000
0000
0000
0000
0000
0000
0000
0000
0000
0000
0000
0000
0000
0000
0000
0000
0000
0000
0000
0000
0000
0030
0000
0000
0000
0000
0000
0000
0000
0000
0000
0000
,
0001
0000
1000
0000
,
0010
0000
0100
0000
,
0001
0010
0100
0000
,
1000
0000
0010
0000
,
0100
0000
0001
0000
,
0010
0000
1000
0000
,
0200
0000
0320
0000
,
0230
0000
0320
0000
,
0031
0000
1000
0000
,
0010
0100
0010
0000
,
0002
0000
0000
0000
,
0000
0000
0000
0000
,
1003
0000
0000
0100
,
0001
0000
0010
0000
,
0100
0000
0000
0100
,
1000
0000
0000
0000
,
0001
0000
0100
0010
,
0001
0000
1000
0000
,
0010
0000
0100
1000
,
0001
0000
0010
0000
,
0100
0000
0001
0100
,
1000
0000
0010
0000
,
0001
0000
0010
0100
,
1000
0000
0100
0000
,
0010
0000
0001
0010
,
0100
0000
1000
0000
,
0010
0000
0200
0000
,
0000
0000
0301
0000
,
0010
0000
1000
0000
,
0100
0000
0010
0000
,
0002
0000
0000
0000
0000
0000
0000
0000
0000
0000
0000
0003
2000
0000
0000
0000
0000
0000
0000
0000
0000
0000
0000
3000
,
0002
0000
0000
0000
0000
0000
0000
0000
0000
0000
0000
0000
0000
0000
0000
0000
0000
0000
0000
0000
0000
0000
0000
0000
0000
0000
0000
0000
0000
0000
0000
0000
0000
0000
0000
0000
0000
0000
0000
0000
0000
0000
0000
0003
0000
0000
0000
0000
2000
0000
0000
0000
0000
0000
0000
0000
0000
0000
0000
0000
0000
0000
0000
0000
0000
0000
0000
0000
0000
0000
0000
0000
0000
0000
0000
0000
0000
0000
0000
0000
0000
0000
0000
0000
0000
0000
0000
0000
3000
0000
0000
0000
0000
0000
0000
0000
,
0010
0000
0100
0000
,
0010
0000
0001
0000
,
0100
0000
0000
0001
0000
0000
0000
0000
;

//--------------- dance-single - B. M'Rey ----------------
#NOTEDATA:;
#STEPSTYPE:dance-single;
#DESCRIPTION:B. M'Rey;
#DIFFICULTY:Medium;
#METER:7;
#RADARVALUES:0.296,0.333,0,0.121,0;
#CREDIT:B. M'Rey;
#NOTES:
0000
0000
0000
0000
,
0000
0000
0000
0000
,
0000
0000
0000
0000
,
0000
0000
0000
0000
,
0000
0000
0000
0000
,
0000
0000
0000
0000
,
0000
0000
0000
0000
,
0000
0000
0000
0000
,
0000
0000
0000
0000
,
0001
0010
1000
0100
,
0010
1000
0100
0000
,
0001
0010
0100
0010
,
1000
0100
0010
0000
,
0001
0010
0100
0001
,
1000
0010
0100
0000
,
0010
0000
1000
0000
,
0001
0000
0010
0000
,
0001
0100
0010
1000
,
0100
0010
1000
0000
,
0001
0010
0100
0001
,
0010
1000
0100
0000
,
0010
0001
0010
0000
,
1000
0100
1000
0000
,
0010
0100
0001
0010
,
1000
0100
0010
0000
,
0000
0100
0001
0010
,
1000
0100
0010
0000
,
0000
0000
0001
0010
,
1000
0100
0010
0000
,
0000
0000
0001
0000
,
1000
0000
0010
0000
,
0100
0000
0000
0000
,
0001
0000
0000
0000
,
0010
1000
0100
0001
,
0100
0010
1000
0010
,
0001
0010
0100
0010
,
1000
0010
0100
0000
,
0001
0010
0001
0100
,
0010
1000
0100
0000
,
0010
1000
0100
0010
,
0001
0000
0010
0001
,
0010
0000
0100
0000
,
0001
1000
0010
0000
,
0002
0000
2003
0000
,
3020
0000
0230
0000
,
0301
1000
0010
0100
,
0001
0010
1000
0010
,
0100
0000
0001
0010
,
0100
0000
1000
0001
,
0010
0100
1000
0100
,
0010
0001
0010
0100
,
2000
0000
3002
0000
,
0023
0000
0230
0000
,
0301
0010
1000
0100
,
0010
0000
0001
0000
,
0010
0100
0002
0000
,
0000
0000
0000
0000
,
1003
0010
0100
0000
,
0001
0010
0100
0000
,
0010
1000
0100
0000
,
0001
0010
0001
0000
,
0010
0100
1000
0000
,
0010
0100
0001
0000
,
0010
1000
0100
0000
,
0001
0010
0100
0000
,
1000
0100
0010
0000
,
0001
0010
0100
0000
,
1000
0001
0010
0000
,
0100
0010
1000
0000
,
0001
0010
0100
0000
,
1000
0001
0010
0000
,
0100
0010
1000
0000
,
0001
0010
0100
1000
,
0010
0100
0000
0001
,
1000
0100
0000
0001
,
0020
0000
0230
0000
,
2300
0000
3002
0000
,
0013
0100
0000
1000
,
0001
0010
0100
1000
,
0010
0100
0000
0000
;

//--------------- dance-single - B. M'Rey ----------------
#NOTEDATA:;
#STEPSTYPE:dance-single;
#DESCRIPTION:B. M'Rey;
#DIFFICULTY:Hard;
#METER:12;
#RADARVALUES:0,0,0,0,0;
#CREDIT:B. M'Rey;
#NOTES:
0000
0000
0000
0000
,
0000
0000
0000
0000
,
0000
0000
0000
0000
,
0000
0000
0000
0000
,
0000
0000
0000
0000
,
0000
0000
0000
0000
,
0000
0000
0000
0000
,
0000
0000
0000
0000
,
0000
0000
0000
0000
0000
0000
0000
0001
,
1000
0000
0010
0000
0010
0000
0100
0001
,
1000
0001
1000
0100
1000
0000
0100
0001
,
0100
0001
1000
0100
0010
0000
0010
0000
,
0100
0001
0100
0001
0010
0000
0000
0100
,
0010
0100
0010
0001
0100
0010
0100
0010
,
0100
0001
1000
0010
0100
0000
0000
0010
,
0100
0000
0100
0000
1000
0100
1000
0001
,
0100
0001
1000
0000
0001
0000
0000
0000
,
0001
0010
0001
0100
0010
1000
0100
1000
,
0010
1000
0100
0010
0100
0000
0001
0010
,
0001
0100
0010
0100
0010
0000
0100
0000
,
0100
0010
0100
1000
0010
0000
0000
1000
,
0100
0010
0001
0010
0100
0000
0100
1000
,
0010
1000
0100
0010
0100
0000
0000
1000
,
0001
0010
0001
1000
0010
0000
0010
1000
,
0100
0010
0100
1000
0100
0000
0000
0000
,
0000
0010
0100
0001
1000
0000
1000
0000
,
0100
0000
0010
0100
0000
0000
0000
0000
,
0000
0000
0000
0000
1000
0001
0100
0000
,
1000
0000
0010
0100
0000
0000
0000
0000
,
0000
0000
0100
0010
,
0100
0000
0010
1000
,
0000
0000
0000
1001
,
0000
0000
0000
0000
,
0001
0000
0001
0000
0100
0010
0001
1000
,
0001
1000
0001
0100
0010
0000
0001
0100
,
0010
0100
0010
1000
0001
0000
0001
1000
,
0100
0010
0100
1000
0010
0000
0010
0100
,
0001
1000
0010
1000
0001
0000
0010
1000
,
0100
0010
0100
0010
0100
0000
0000
0100
,
0001
0100
0001
0100
0010
1000
0010
0100
,
0001
1000
0010
0100
0010
1000
0001
0000
,
0100
0000
1000
0000
0010
0000
0001
1000
,
0100
0001
1000
0001
,
0002
0000
0023
0000
,
0230
0000
2300
0000
,
3010
0010
0000
0001
,
0010
0001
0000
1000
0000
0001
0000
0010
,
0000
1000
0100
0000
1000
0000
0010
0000
,
0010
0000
0001
0010
0100
0010
0100
0000
,
0001
1000
0001
0100
,
0001
0100
0010
0100
,
0002
0000
0023
0000
,
0230
0000
2300
0000
,
3001
0000
0001
0000
0000
1000
0010
0000
,
0010
0100
0000
1000
0000
0010
0000
0100
,
0000
0001
0020
0000
0000
0000
0000
0000
,
0000
0000
0000
0000
0000
0000
0000
0030
,
0010
0000
0010
1000
0100
0000
0100
0010
,
0001
1000
0010
1000
0001
0000
0010
1000
,
0100
1000
0000
1000
0000
0100
0000
0010
,
0100
0000
0000
0000
0001
0000
0001
1000
,
0010
0100
0000
1000
0000
1000
0010
0000
,
0010
1000
0100
0010
0100
0000
0000
0100
,
0010
1000
0001
0010
0001
0100
0010
1000
,
0010
0100
0010
0100
0001
0000
0000
0100
,
0001
0000
0000
1000
0010
0000
0001
0000
,
0010
1000
0100
1000
0010
0100
0001
0000
,
0010
0000
0100
1000
0010
0100
0010
1000
,
0100
1000
0010
0100
0001
0010
0100
0010
,
0000
1000
0010
1000
0100
0010
0001
0010
,
0001
0100
0001
0010
0000
0000
0100
0000
,
0001
1000
0100
0010
0001
0100
0010
0000
,
0001
0010
0100
1000
0010
1000
0001
0000
,
0100
0000
0010
0000
0001
0000
0010
1000
,
0010
0100
0001
0100
,
0002
0000
0023
0000
,
0230
0000
2300
0000
,
3010
0001
0000
0010
,
0100
0010
0000
1000
0000
0001
0000
1000
,
0000
0010
0200
0000
0000
0000
0000
0000
,
0300
0000
0000
0000
;
