#VERSION:0.83;
#TITLE:Empire of Fury;
#ARTIST:Kors K;
#GENRE:JUNGLE TERROR;
#CREDIT:B. M'Rey;
#MUSIC:Empire of Fury.ogg;
#BANNER:Empire of Fury-bn.png;
#BACKGROUND:Empire of Fury-bg.png;
#CDTITLE:./CDTITLES/beatmania IIDX 28 Bistrover.PNG;
#SAMPLESTART:74.134;
#SAMPLELENGTH:15;
#OFFSET:1.142;
#BPMS:0=204;
#BGCHANGES:0.000=Empire of Fury.mp4=1.000=0=0=0=StretchNoLoop====,;

//--------------- dance-single - B. M'Rey ----------------
#NOTEDATA:;
#STEPSTYPE:dance-single;
#DESCRIPTION:B. M'Rey;
#DIFFICULTY:Beginner;
#METER:7;
#CREDIT:B. M'Rey;
#RADARVALUES:0,0,0,0,0;
#NOTES:
0000
0000
0000
0000
,
0000
0000
0000
0000
,
0000
0000
0000
0000
,
0000
0000
0000
0000
,
0000
0000
0000
0000
,
0000
0000
0000
0000
,
0000
0000
0000
0000
,
0000
0000
0000
0000
,
0000
0000
0000
0000
,
1000
0000
0001
0000
,
1000
0000
0001
0000
,
0010
0000
0100
0000
,
0010
0000
0100
0000
,
0010
0100
0010
0100
,
0010
0100
0010
0100
,
0100
0000
0010
0000
,
0001
0000
0000
0000
,
1000
0000
0001
0000
,
1000
0001
1000
0001
,
1000
0001
1000
0001
,
1000
0001
1000
0001
,
0010
0000
0100
0000
,
0010
0100
0010
0100
,
0010
0100
0010
0100
,
0010
0000
1000
0000
,
0001
0000
0100
0000
,
0001
0100
0001
0100
,
0001
0100
0001
0100
,
0001
0000
1000
0000
,
0010
0000
1000
0000
,
0010
1000
0010
1000
,
0020
0000
2030
0000
,
3002
0000
0203
0000
,
0310
0000
0101
0000
,
0010
1000
0001
0000
,
0010
0100
0001
0000
,
0010
0000
1000
0000
,
0010
0100
0001
0000
,
0010
1000
0100
0000
,
0001
0010
1000
0000
,
0010
0000
0100
0000
,
0001
1000
0010
0000
,
0100
0001
0010
0000
,
1000
0100
1000
0000
,
0010
0100
0001
1000
,
0010
0000
0100
0000
,
0001
1000
0010
0000
,
0100
0000
0001
0000
,
1000
0000
0010
0000
,
0100
0000
0000
0000
,
0001
0000
0000
0000
,
1000
0000
0000
0000
,
0010
0000
0000
0000
,
0100
0000
0000
0000
,
1000
0000
0000
0000
,
0001
0000
0000
0000
,
0010
0000
0000
0000
,
0001
0000
1000
0000
,
0001
0000
1000
0000
,
0010
0000
0100
0000
,
0010
0000
0100
0000
,
0001
1000
0010
0100
,
0001
1000
0010
0100
,
0001
0000
1000
0000
,
0010
0000
0000
0000
,
1000
0000
0001
0000
,
1000
0000
0001
0000
,
1000
0000
0010
0000
,
1000
0010
1000
0010
,
1000
0000
0010
0000
,
0100
0000
0010
0000
,
0001
0000
0100
0000
,
0001
0010
0100
1000
,
0010
0000
0100
0000
,
0010
1000
0100
0001
,
0010
0000
0100
0000
,
0001
0010
1000
0100
,
0010
0000
1000
0000
,
0001
0010
0100
0001
,
1000
0000
0001
0000
,
1000
0000
0001
0000
,
0001
1000
0001
1001
,
0010
0100
0010
0110
,
0010
1000
0010
1010
,
0000
0000
0000
0101
,
0001
0100
0001
0101
,
0010
1000
0010
1010
,
0100
0010
0100
0110
,
0000
0000
0101
0000
,
0010
0100
0001
1001
,
0010
0100
0010
1010
,
0100
0010
0100
0101
,
0000
0000
1010
0000
,
0010
0100
0010
0101
,
0010
1000
0010
1010
,
0010
0100
0001
0101
,
0010
0000
1000
0000
,
1001
0000
0000
0000
;

//--------------- dance-single - B. M'Rey ----------------
#NOTEDATA:;
#STEPSTYPE:dance-single;
#DESCRIPTION:B. M'Rey;
#DIFFICULTY:Easy;
#METER:12;
#CREDIT:B. M'Rey;
#RADARVALUES:0,0,0,0,0;
#NOTES:
0000
0000
0000
0000
,
0000
0000
0000
0000
,
0000
0000
0000
0000
,
0000
0000
0000
0000
,
0000
0000
0000
0000
,
0000
0000
0000
0000
,
0000
0000
0000
0000
,
0000
0000
0000
0000
,
0000
0000
0000
0000
,
1001
0000
0001
0000
,
0100
0000
0100
0000
,
1000
0000
1000
0000
,
0001
0000
0001
0000
,
0100
0010
1000
0010
,
0001
1000
0010
1000
,
0001
0001
0010
0010
,
0100
0001
0000
1000
0000
1000
0000
1000
,
0100
0000
0000
0001
0000
0000
1000
0000
,
1010
0000
0000
0010
0000
0000
0100
0000
,
1100
0000
0000
1000
0000
0000
0001
0000
,
0101
0000
0000
0100
1000
0000
0001
0000
,
0011
0000
0000
0010
0000
0000
0100
0000
,
0101
0000
0000
0001
0000
0000
1000
0000
,
1100
0000
0000
0100
0000
0000
0010
0000
,
0001
0100
0001
0100
1000
0000
0001
0000
,
1001
0000
1000
0001
0100
0000
1000
0000
,
0010
1010
0101
0000
,
1100
0000
1000
0100
0001
0000
1000
0000
,
0100
0001
0010
0000
0110
0000
1001
0000
,
1010
0000
0010
0100
0001
0000
0010
0000
,
1000
1001
0011
0000
,
0100
0000
1000
0001
0000
0100
0001
0000
,
0010
0001
0100
1000
,
0001
0000
0010
0100
0010
0000
1010
0000
,
1000
0100
0001
0000
1000
0000
0010
0000
,
0100
0000
1000
0010
0000
0100
0001
0000
,
0010
0000
1000
0001
0010
0000
0110
0000
,
0101
0000
0001
1000
0100
0000
0110
0000
,
0010
0001
0100
0000
1000
0000
0001
0000
,
0100
0000
1000
0010
0000
0001
0010
0000
,
0100
0000
0001
1000
0100
0001
0100
0000
,
0110
0000
0010
0001
1000
0000
1010
0000
,
0010
0100
1000
0000
0000
0001
0010
0000
,
0100
0000
0001
1000
0000
0100
1000
0000
,
0010
0000
0100
0001
0010
0000
0100
0000
,
0101
0000
0001
1000
0010
0000
0110
0000
,
0100
1000
0001
0000
0100
0000
0010
0000
,
2000
3001
0100
0010
,
1000
0001
1000
0100
0010
0000
0001
0000
,
0100
0000
0010
0100
0000
0001
0100
0000
,
1000
0001
0100
0000
,
0010
0000
0100
1000
0000
0100
0001
0000
,
1000
0100
0001
0000
,
0010
0000
0100
0001
0000
0100
1000
0000
,
0010
0100
0000
0001
0000
0010
1000
0000
,
0001
0010
0000
1000
0000
0100
0001
0000
,
1000
0100
0010
0100
0001
1000
0001
0000
,
0011
0000
0001
0100
1000
0000
0001
0000
,
0110
0000
1000
0100
0001
0000
1000
0000
,
0110
0000
0001
0100
1000
0000
0001
0000
,
0110
0000
1000
0100
0001
0000
1000
0000
,
0010
0000
0100
1000
0010
0000
0100
1000
,
0001
0000
1000
0100
0001
0000
0010
0001
,
0100
1000
0001
1000
0001
0100
1000
0100
,
0010
0001
0000
1000
0000
1000
0000
1000
,
0010
0000
0100
0000
0010
0000
1000
0000
0001
0000
1000
0000
,
0100
0000
0000
0001
1000
0000
0100
0000
0000
0001
0010
0000
,
0100
0000
0001
0000
0100
0000
1000
0000
0010
0000
1000
0000
,
0100
1100
0011
0000
,
1000
0000
0010
0000
0100
0000
0001
0000
0010
0000
1000
0000
,
0000
0001
0010
0000
1000
0000
0100
0000
0001
0000
1000
0000
,
0100
0000
0001
0000
0100
0000
1000
0000
0100
0000
0010
0000
,
1000
0000
0000
1000
0000
0000
1000
0000
1000
0000
0000
0000
0011
0000
0000
0000
,
1000
0000
0100
0000
0001
0000
1000
0000
0100
0000
0001
0000
,
0010
0000
0100
0000
0000
0001
0100
0000
1000
0000
0010
0000
,
0100
0000
1000
0000
0100
0000
0001
0000
0010
0000
1000
0000
,
0001
0011
1100
0000
,
1000
0000
0001
0000
0100
0000
1000
0000
0010
0000
0001
0000
,
1000
0000
0010
0000
0100
0000
0010
0000
0001
0000
1000
0000
,
1002
0203
2300
3001
,
0010
0000
0100
0001
0000
0001
1000
0000
,
0100
0000
0010
0000
0100
0001
2000
0000
,
3010
0000
0100
0000
0010
0001
2000
0000
,
3010
0000
0100
0000
0010
0001
2000
0000
,
3010
0001
0100
1000
,
0010
0000
0001
0000
1000
0010
0100
0000
,
0001
0000
0010
0000
1000
0001
0020
0000
,
1030
0000
0100
0000
0001
1000
0200
0000
,
0320
0001
0100
1030
,
0110
0000
0100
0001
0000
1000
0200
0000
,
0301
1000
0000
0100
0000
0001
0010
0000
,
0100
0000
1000
0000
0010
0100
0001
0000
,
0010
0000
0100
0001
1000
0000
1001
0000
,
0001
0000
0010
1000
0000
0100
0001
0000
,
1000
0000
0100
0001
0000
0010
0002
0000
,
0103
0000
1000
0001
0001
0100
0010
0000
,
0001
1000
0010
1000
0100
1000
0010
0000
,
0220
0000
0000
0000
,
0000
0000
0000
0000
,
0330
0000
0000
0000
;

//--------------- dance-single - B. M'Rey ----------------
#NOTEDATA:;
#STEPSTYPE:dance-single;
#DESCRIPTION:B. M'Rey;
#DIFFICULTY:Medium;
#METER:15;
#CREDIT:B. M'Rey;
#RADARVALUES:0,0,0,0,0;
#NOTES:
0000
0000
0000
0000
,
0000
0000
0000
0000
,
0000
0000
0000
0000
,
0000
0000
0000
0000
,
0000
0000
0000
0000
,
0000
0000
0000
0000
,
0000
0000
0000
0000
,
0000
0000
0000
0000
,
0000
0000
0000
0000
,
1001
0000
1000
0100
0000
0010
1000
0000
,
1001
0000
1000
0100
0000
0010
1000
0000
,
1001
0000
0001
0100
0000
0010
0001
0000
,
1001
0000
0001
0100
0000
0010
0001
0000
,
1000
0000
1000
0100
0001
0000
0001
0010
,
1000
0000
1000
0001
0100
0000
0100
0010
,
0001
0100
0010
0001
1000
0010
0100
1000
,
0001
0100
0001
0000
0010
0000
1000
0000
0000
0000
1000
0000
0000
0000
1000
0000
,
1002
0000
0000
0103
0010
0010
1000
0010
,
0010
0001
0100
0100
1000
0100
0100
0010
,
0001
0001
1000
0001
0001
0100
0010
0010
,
1000
0010
0001
1000
0010
0001
1000
0001
,
0200
0000
0000
1300
0010
0010
0001
0010
,
0010
0100
0001
0001
0010
1000
1000
0000
,
0011
0010
1000
0100
0100
0110
1000
0001
,
0011
1000
0001
1000
0100
0000
0010
0000
0001
0000
0000
0000
0001
0000
0000
0000
,
1001
0000
1000
0010
0011
0000
1010
0000
,
0010
0110
1001
1000
,
1010
0000
0100
0001
1000
0000
1100
0000
,
0100
0010
0100
0000
0001
0000
0000
0000
0011
0000
0000
0000
1000
0000
0000
0000
,
0101
0000
0001
1000
1010
0000
0101
0000
,
0100
0110
1001
0100
,
1002
0000
0203
0320
0000
0032
2003
0000
,
3010
0001
0100
0010
,
1001
0000
0000
1000
0100
0000
0100
0000
0010
0000
1000
0000
0001
0000
0000
0000
,
0010
0001
0001
1000
0100
0010
0100
0001
,
1000
0100
0010
1000
0001
0010
0001
1000
,
0100
0000
0001
0010
0100
0000
0110
0000
,
1001
0000
0000
0000
0001
0000
0100
0000
1000
0000
0001
0010
0001
0000
0000
0000
,
1000
0100
0100
0010
1000
0001
0010
1000
,
0001
0100
0010
0001
1000
0001
0100
1000
,
0010
0100
0010
0001
1000
0000
1001
0000
,
0110
0000
0000
0000
0001
0000
0010
0000
0000
1000
0000
0000
1001
0000
0000
0000
,
0001
0100
0100
1000
0001
1000
0010
0100
,
0010
0001
1000
0100
0010
1000
0100
0010
,
0001
0010
1000
0000
0011
0100
0001
0000
,
0110
0000
1000
0100
0001
0000
1001
0000
,
0010
1000
1000
0100
0010
0001
0010
1000
,
0001
0010
0100
1000
0001
0100
0010
0100
,
2000
3020
0032
1003
,
0110
0000
0001
1000
0000
0100
0010
0000
,
1000
0001
0000
0100
0000
0010
0001
0000
,
0101
0000
0100
0010
0000
0001
1000
0000
,
0100
0001
0000
0010
0000
1000
0001
1000
,
0010
0000
0001
0100
0000
1000
0100
0000
,
0010
0001
0000
0010
0000
1000
0100
0000
,
0010
1000
0001
1000
0000
0100
0010
0000
,
0100
0001
1000
0001
0010
1000
0001
0000
,
1001
0000
0001
0100
1000
0100
0001
0000
,
1001
0000
1000
0100
0001
0100
1000
0000
,
1001
0000
0001
0010
1000
0010
0001
0000
,
1001
0000
1000
0010
0001
0010
1000
0000
,
1001
0000
0010
1000
0100
0000
0010
0001
,
0100
0000
0100
1000
0010
0000
0100
0001
,
0010
1000
0001
0010
0100
0001
1000
0001
,
0010
0100
0010
0000
1000
0000
0001
0000
0000
0000
0001
0000
0000
0000
0001
0000
,
0100
0000
0001
0000
1000
0000
0010
0000
1000
0000
0001
0000
,
0100
0010
0001
0100
0010
1000
0100
0000
0010
0000
1000
0000
,
1001
0000
0001
0000
0010
0000
0110
0000
0100
0000
0001
0000
,
0010
0000
0100
1000
0100
0000
0001
1000
0001
0000
1000
0100
0001
0000
0000
0000
,
0011
0000
0010
0000
0100
0000
1100
0000
1000
0000
0010
0000
,
0100
0001
0100
1000
0001
0010
1000
0000
0100
0000
0010
0000
,
0011
0000
0001
0000
0100
0000
1100
0000
1000
0000
0001
0000
,
1001
0000
0000
1010
0000
0000
0001
0000
0100
0000
0000
0000
0110
0000
0000
0000
,
1001
0000
0001
0000
0100
0000
1100
0000
1000
0000
0001
0000
,
0010
1000
0100
0010
0001
0100
0010
0000
0001
0000
1000
0000
,
1001
0000
0010
0000
1000
0000
1001
0000
0010
0000
0001
0000
,
1000
0000
0100
0010
0100
0000
0001
1000
0001
0000
0010
0100
1000
0000
0000
0000
,
0011
0000
0010
0000
0001
0000
1010
0000
0010
0000
1000
0000
,
0001
0100
1000
0010
0100
0010
1000
0000
0001
0000
0010
0000
,
2000
3002
0203
0320
,
0031
1000
0001
0000
0100
0000
0010
0000
0000
0000
0010
0000
0001
0000
1000
0000
,
0100
0001
1000
0001
0010
1000
1001
0000
,
0001
0100
1000
0010
0001
1000
1001
0000
,
0010
0000
1000
0000
0100
0000
0001
0000
1000
0000
0100
0000
0001
0010
0001
0010
,
0200
1000
0301
0110
,
0010
1000
0001
1000
0100
0010
0110
0000
,
0100
0001
0010
1000
0001
0100
1100
0000
,
1000
0000
0010
0000
0001
0000
1000
0000
0010
0000
0001
0000
1000
0010
1000
0010
,
0200
0000
2300
0000
3001
0100
1100
0000
,
1000
0010
0001
0010
0100
0001
0011
0010
,
1000
0001
0100
0010
0001
0100
0110
0010
,
1000
0000
0100
0000
0010
0000
1000
0000
0001
0000
0010
0000
1000
0001
1000
0001
,
0020
1000
0031
0110
,
0100
0001
1000
0100
0010
0001
1001
1000
,
0010
0100
0001
0100
1000
0001
0101
0100
,
0010
0000
0001
0000
1000
0000
0010
0000
0100
0000
1000
0000
0001
0010
0100
1000
,
0020
0001
1030
0011
,
2220
0000
0000
0000
,
0000
0000
0000
0000
,
3330
0000
0000
0000
;

//--------------- dance-single - B. M'Rey ----------------
#NOTEDATA:;
#STEPSTYPE:dance-single;
#DESCRIPTION:B. M'Rey;
#DIFFICULTY:Hard;
#METER:18;
#CREDIT:B. M'Rey;
#RADARVALUES:0.848091,1.125971,0.779391,0.132662,0.422861,716,622,94,16,0,5,0.848091,1.125971,0.779391,0.132662,0.422861,716,622,94,16,0,5;
#NOTES:
0000
0000
0000
0000
,
0000
0000
0000
0000
,
0000
0000
0000
0000
,
0000
0000
0000
0000
,
0000
0000
0000
0000
,
1000
0000
0010
0001
0000
0100
1000
0000
,
0010
1000
0001
0010
,
0100
0000
0100
1000
0000
0001
0100
0000
,
0010
1000
0100
0001
,
0010
0100
0001
1000
0010
1000
0100
0000
,
0001
0100
0000
1000
0010
1000
0001
0000
,
0100
0010
0001
1000
0100
1000
0010
0000
,
0010
0100
0000
0100
0001
1000
0100
0000
,
0001
0010
0001
0100
0001
0010
0100
0010
,
0001
0100
0001
0100
0001
1000
0010
0100
,
0010
0100
0010
1000
0001
1000
0010
1000
,
0100
0010
0001
1000
0000
0010
0000
0000
,
1000
0001
0010
0000
1000
0000
0001
0000
0100
0000
0000
0000
0010
0000
1000
0000
,
0001
0000
1000
0001
1000
0000
0010
0000
1000
0100
1000
0100
0010
0000
0001
0000
,
1000
0100
1000
0000
0010
0000
0100
0010
0100
0000
0001
0000
0010
0001
0010
0000
,
0100
0000
1000
0100
1000
0000
0010
0000
0001
0010
0001
0000
0100
0000
0010
0000
,
1000
0001
0010
0000
0100
0000
1000
0100
,
0010
0100
0010
0000
0001
0000
0010
0100
0010
0000
1000
0000
0100
0010
1000
0000
,
0001
0000
0010
0100
0010
0000
1000
0000
0001
0010
0100
0000
0010
0000
1000
0100
,
1000
0100
0001
0010
1000
0010
0100
0000
0001
0000
0000
0000
0110
0000
0000
0000
,
2002
0000
3003
0220
0000
0330
0022
0000
,
1133
0000
0100
1000
0100
0000
0110
0000
0010
0100
0010
0000
0011
0000
0001
0010
,
0001
0000
1001
0000
0001
1000
0001
0000
0110
0000
0010
0100
0010
0000
0101
0000
,
0001
0100
0001
0000
1010
0000
0010
1000
0010
0000
0110
0000
0010
0100
0010
0000
,
0011
1000
0010
1100
0001
0000
0110
0000
,
1000
0000
0001
0100
0001
0000
0001
0000
1000
0010
1000
0000
0010
0000
0100
0010
,
0100
1000
0001
1000
0000
0100
0010
0000
,
1001
0110
1001
0101
,
0020
0000
0000
0000
0000
0000
0100
0000
0000
0000
0100
1000
0130
0000
0001
0000
,
0010
0100
0010
0000
1000
0000
0010
0100
0010
0000
1001
0000
0001
1000
0001
0000
,
1001
0000
1000
0001
1000
0000
0100
0000
0001
1000
0001
0000
0010
0000
0001
1000
,
0001
0000
0110
0000
0010
0100
0010
0000
0110
0000
0010
0100
0020
0000
0000
0000
,
0031
0000
1000
0010
0100
0000
0001
0000
0100
0000
0010
0000
1000
0100
0001
0000
,
0010
0000
1000
0010
0100
0000
0010
0000
0100
0010
1000
0000
0001
0000
0010
0001
,
0100
0000
0010
0000
1000
0100
1000
0000
0010
0000
0001
0100
0010
0000
0100
0000
,
1000
0100
0010
0000
0001
0000
0010
0100
1000
0000
0010
0000
0100
0000
0000
0000
,
0010
0000
0100
0000
1000
0000
0100
0000
0001
0000
0010
0000
0001
0000
0010
1000
,
0100
0000
0010
0000
0001
0100
0010
0000
0100
0000
1000
0100
1000
0000
0010
0000
,
0100
0001
0010
0000
0100
1000
0010
0000
0001
0000
0100
0010
1000
0000
0100
0000
,
0010
0001
0100
0000
0010
0000
1000
0000
0001
0000
0100
0000
0010
0000
0100
0000
,
1001
0000
0100
0000
0010
0000
0001
0000
0010
0000
0100
1000
0100
0000
0010
0000
,
0100
0001
0100
0000
0010
0000
1000
0100
1000
0000
0010
0000
0100
0001
0010
0000
,
1010
0110
0101
1010
,
0110
0101
0110
0110
,
1000
0000
0001
0100
0000
0010
1000
0000
,
0100
0001
0000
0010
0100
1000
0001
0000
,
0010
0000
1000
0100
0000
0001
0010
0000
,
0100
0010
0000
0001
1000
0001
0010
0000
,
1000
0000
0001
0010
0000
0100
1000
0000
,
0010
0100
0000
0001
0010
0000
1000
0000
,
0010
0100
0000
0001
1000
0000
0010
0100
,
0000
0001
0010
0000
0100
1000
0000
0001
,
0110
0000
0010
1000
0000
1000
0001
0000
,
0001
0010
0100
1000
0001
0010
0100
0010
,
0011
0000
0001
1000
0000
1000
0100
0000
,
0010
0100
0001
0010
0001
0010
0001
1000
,
1010
0000
0001
0010
0000
1000
0010
0100
,
0010
0100
0010
1000
0001
1000
0001
0010
,
0001
1000
0100
0010
0100
0010
0001
0100
,
0001
1000
0010
0001
0000
0100
0000
0010
,
0001
0000
0100
1000
0010
1000
0010
0000
0001
0100
0010
0100
,
0010
0000
0000
0000
0000
0000
0000
0000
0001
0000
0000
0000
0010
0000
0000
0000
0000
0000
1000
0000
0000
0001
0000
0000
0010
0000
0000
0000
1000
0000
0000
0000
0100
0000
0000
0000
1000
0000
0000
0000
0001
0000
0000
0000
0100
0000
0000
0000
,
0001
0000
0001
1000
0010
1000
0010
0000
0100
0010
0001
1000
,
0001
0000
1000
0100
1000
0000
0001
0010
0001
0000
0010
0100
0010
0000
1000
0010
,
0001
0000
0010
1000
0100
0010
0100
0000
0100
1000
0010
0100
,
0010
0000
0000
0000
0000
0000
0000
0000
0001
0000
0000
0000
1000
0000
0000
0001
0000
0000
1000
0000
0000
0001
0000
0000
1000
0000
0000
0000
0000
0000
0000
0000
0000
0000
0000
0000
0010
0000
0000
0000
0100
0000
0000
0000
0010
0000
0000
0000
,
0001
0000
0001
0100
0001
0010
0100
0000
0001
0010
0100
1000
,
0100
0001
0100
0001
0100
0000
0010
0000
0010
1000
0010
1000
0010
0000
0100
0000
,
0001
0000
0010
0100
0001
0010
0100
0000
0001
0010
0001
0010
,
0100
0000
0100
1000
0010
0100
0001
0000
0001
1000
0010
0100
,
0010
0000
0010
1000
0001
0010
0001
0000
0001
0010
0100
0010
,
0001
0000
0000
0010
0000
0000
0001
0000
0000
0010
0000
0000
0001
0000
0000
0100
0000
0000
0010
0000
0000
0100
0000
0000
0010
0000
0000
0100
0000
0000
0001
0000
0000
0000
0000
0000
0010
0000
0000
0000
0100
0000
0000
0000
0010
0000
0000
0000
,
0100
0010
0000
0001
1000
0001
0010
0001
0000
0010
0100
0001
,
0010
0000
0010
0100
1000
0001
0100
0000
1000
0001
0100
0001
,
2000
0002
3203
0020
,
2330
0002
3203
0020
,
0331
0100
0001
0000
0001
0100
0010
0000
0100
1000
0001
0000
0101
0000
0100
0000
,
0010
1000
0010
0000
0001
1000
0010
0000
0010
1000
0001
0000
1010
0000
0100
0000
,
0100
0010
0001
0000
0100
0010
0100
0000
0001
0100
0010
0000
0001
0100
0001
0010
,
0100
1000
0001
0000
0001
0100
0110
0100
,
0010
1000
0010
0000
0010
0100
0001
0000
0100
1000
0100
0000
1010
0000
0100
0000
,
0100
0010
0100
0000
0001
0010
0100
0000
0100
0010
0001
0000
1001
0000
0001
0000
,
0100
1000
0001
0000
0100
0010
0100
0000
0001
0100
0001
0000
0001
0010
0100
1000
,
0100
0001
0010
0000
0100
0001
0010
0000
,
0001
0010
0100
0010
0001
0000
1000
0010
0100
0000
0001
0000
0010
0100
1000
0000
,
0001
0100
0010
0100
0001
0000
1000
0100
0001
0000
0100
0000
1100
0000
0001
0000
,
1000
0010
0100
0010
1000
0000
0001
0010
0100
0000
1000
0000
0010
0100
0010
0100
,
0002
0000
0010
0010
1003
0000
1100
0000
,
0001
0010
0001
0100
0010
0000
1000
0001
0100
0000
0010
0000
1000
0001
0010
0000
,
0100
1000
0010
0100
0001
0000
0010
0001
0100
0000
0010
0000
0100
0001
0010
0000
,
0100
1000
0001
1000
0100
0000
0010
0001
1000
0000
0010
0000
0100
0001
0100
0001
,
2000
3020
0032
0023
0230
0302
2003
3000
,
0220
0000
0000
0000
,
0000
0000
0000
0000
,
0330
0000
0000
0000
;
