#TITLE:El Condor Pasa;
#ARTIST:Plastic Fruits;
#GENRE:FOLKTRONICA;
#CREDIT:B. M'Rey;
#MUSIC:El Condor Pasa.ogg;
#BANNER:El Condor Pasa-bn.png;
#BACKGROUND:El Condor Pasa-bg.png;
#CDTITLE:./CDTITLES/Dance Dance Revolution SPACE.PNG;
#SAMPLESTART:12.93;
#SAMPLELENGTH:15;
#OFFSET:-0.127;
#BPMS:0=150;

//--------------- dance-single - B. M'Rey ----------------
#NOTES:
     dance-single:
     B. M'Rey:
     Beginner:
     5:
     0,0,0,0,0:
0000
0000
0000
0000
,
0000
0000
0000
0000
,
0000
0000
0000
0000
,
0000
0000
0000
0000
,
0001
0000
0000
0000
,
0100
0000
0000
0000
,
1010
0000
0000
0000
,
0200
0000
0300
0000
,
0001
0000
1000
0000
,
0010
0000
0100
0000
,
1000
0000
0010
0000
,
0100
0000
0001
0000
,
1001
0000
0010
0000
,
0100
0000
1000
0000
,
0010
0000
0100
0000
,
0001
0001
1000
1000
,
0001
0100
0000
0010
,
1000
0000
0100
0000
,
0001
0000
1000
0100
,
0001
0000
0100
0100
,
0001
0000
1000
0000
,
0010
0000
0100
0001
,
0010
0000
1000
0000
,
0001
0000
1000
0000
,
0010
0100
0001
0000
,
0010
1000
0100
0000
,
1000
0010
0100
0000
,
0001
0010
0001
0000
,
1000
0100
1000
0000
,
0010
0100
0001
0000
,
0010
0001
0100
0000
,
1000
0010
1000
0000
,
0001
0000
0000
0000
,
0100
0000
0000
0000
,
0010
0000
0000
0000
,
1000
0000
0000
0000
,
0001
0000
0000
0000
,
0100
0000
0000
0000
,
0010
0000
0000
0000
,
1001
0000
0110
0000
,
0001
0001
0000
1000
,
0010
1000
0000
0100
,
1000
0100
0000
0010
,
0100
0000
0001
0000
,
0010
0100
0000
0001
,
0010
0001
0000
1000
,
0100
1000
0000
0010
,
0100
0000
0001
0000
,
0010
0100
0010
0000
,
0001
1000
0001
0000
,
0100
1000
0100
0000
,
0010
0000
0001
0000
,
0010
0100
0010
0000
,
1000
0100
1000
0000
,
0010
0100
0001
0000
,
0010
0000
1000
0000
,
0001
0000
0000
0000
,
0100
0000
0000
0000
,
0010
0000
0000
0000
,
1000
0000
0000
0000
,
0001
0000
0001
0000
,
1000
0000
1000
0000
,
0010
0000
0010
0000
,
0100
0000
0100
0000
,
0001
0010
0100
0001
,
0010
0001
0100
0010
,
1000
0010
1000
0001
,
1000
0100
0010
0001
,
0010
0001
0010
0100
,
1000
0100
1000
0001
,
1000
0100
0010
0001
,
0010
0100
1000
0010
,
0100
0001
0010
0100
,
1000
0100
0010
0001
,
0010
0100
1000
0001
,
0010
0001
0100
0010
,
1000
0100
0010
0001
,
1000
0001
1000
0100
,
1000
0001
0100
0001
,
0100
0010
1000
0100
,
0002
0000
0000
0000
,
0003
0000
0000
0000
;

//--------------- dance-single - B. M'Rey ----------------
#NOTES:
     dance-single:
     B. M'Rey:
     Easy:
     8:
     0,0,0,0,0:
0000
0000
0000
0000
,
0000
0000
0000
0000
,
0000
0000
0000
0000
,
0000
0000
0000
0000
,
0001
0000
0100
0000
,
0010
0000
1000
0000
,
1001
0000
0010
0000
,
2002
0000
3003
0000
,
0100
1000
0100
0010
,
0001
1000
0010
1000
,
0100
0010
0001
0100
,
0010
1000
0010
1000
,
0010
0100
0001
0010
,
0001
1000
0100
0010
,
0100
0010
0100
1000
,
0010
1000
0010
1000
,
0001
1000
0000
0010
,
0000
0100
0000
0001
,
0010
0000
1000
0000
,
0010
0000
0101
1010
,
0101
0000
0010
0000
,
1000
0000
0100
0000
,
0010
0000
1000
0000
,
1001
0110
0101
1010
,
0001
0100
1000
0001
,
0100
0010
1000
0001
,
1000
0100
0010
0001
,
0010
0100
0010
0100
,
1000
0010
0100
0010
,
1000
0010
1000
0001
,
0100
0001
0010
0001
,
1000
0100
0010
0100
,
1000
0000
0000
0000
,
0001
0000
0000
0000
,
0100
0000
0000
0000
,
0010
0000
0000
1000
,
1000
0000
0000
0010
,
0010
0000
0000
0000
,
0100
0000
0000
0000
,
0001
0000
1000
0000
,
0001
1000
0010
0100
,
0010
0001
1000
0010
,
0100
1000
0100
1000
,
0010
0000
0100
0000
0001
0010
0100
0000
,
1000
0010
0100
1000
,
0010
0001
0100
0010
,
1000
0100
0010
1000
,
1001
0110
0101
0000
,
0001
0000
1000
0000
0010
0100
1000
0000
,
0001
0000
0010
0000
0100
0010
0001
0000
,
0001
0000
1000
0000
0010
0100
0010
0000
,
0001
1000
0010
0100
,
1000
0000
0001
0000
0001
0010
0100
0000
,
1000
0000
0010
0000
0100
1000
0100
0000
,
0010
0000
0001
0000
0010
0100
1000
0000
,
1001
0110
0101
0000
,
0010
1000
0100
1000
,
0000
0001
0010
0100
,
0000
0001
1000
0100
,
0000
0010
0100
0001
,
0001
0000
1000
0000
,
0010
0000
0100
0000
,
0010
1000
0100
0010
,
1001
1001
1001
1001
,
1001
0000
0001
1000
0001
0000
0001
1000
,
0001
0000
0001
1000
0001
0000
0001
0000
,
1000
0000
0010
0001
0100
0000
0100
0010
,
0001
0000
0001
0010
0100
0000
0100
0000
,
0001
0000
1000
0010
1000
0000
0010
1000
,
0010
0000
1000
0010
1000
0000
0010
0000
,
0100
0000
0001
0100
0001
0000
0100
0001
,
0100
0010
1000
0100
,
0001
0000
1000
0000
0001
1000
0001
0000
,
1000
0000
0010
0000
0100
0000
0010
0100
,
0010
0000
0001
0000
0010
0000
0001
1000
,
0001
0000
0010
0000
0100
0000
0010
1000
,
0010
0000
0100
0000
0010
0000
0001
0100
,
0001
0000
0010
0000
1000
0000
0010
1000
,
0010
0000
0100
0000
0010
0000
0001
0100
,
0001
1000
0010
0100
,
2002
0000
0000
0000
,
3003
0000
0000
0000
;

//--------------- dance-single - B. M'Rey ----------------
#NOTES:
     dance-single:
     B. M'Rey:
     Medium:
     11:
     0,0,0,0,0:
0000
0000
0000
0000
,
0000
0000
0000
0000
,
0000
0000
0000
0000
,
0000
0000
0000
0000
,
1001
0010
0100
0010
,
0001
0010
0100
0010
,
1010
0100
0010
0001
,
1001
0000
1001
0000
,
0010
0000
0100
0000
0001
0010
0100
0000
,
1000
0000
0010
0000
0100
0010
0001
0000
,
0010
0000
1000
0000
0100
0000
0010
1000
,
0001
0000
0010
0000
0100
0000
0010
1000
,
0100
0000
0001
0000
0010
0000
0001
0010
,
0100
0000
1000
0000
0100
0000
0010
1000
,
0100
0010
1000
0100
,
0101
1010
0110
0101
,
1010
0010
0100
0001
,
1001
0010
0100
1000
,
0010
0100
0001
0110
,
0101
0000
0010
0000
1000
0010
1000
0010
,
1000
0010
0100
0001
,
0101
0010
1010
0100
,
0010
1000
0100
0010
,
1001
0110
0101
1010
,
0010
0000
1000
0010
1000
0000
0001
0100
,
0001
0000
0010
1000
0010
0000
0100
0010
,
0100
0000
0001
0010
0001
0000
1000
0100
,
1000
0000
0010
0100
0010
0000
0001
0010
,
1001
0000
0010
0100
0010
0000
1000
0100
,
1000
0000
0010
0100
0010
0000
0001
0010
,
0001
0000
1000
0010
1000
0000
0010
0100
,
0101
1010
0110
0101
,
2002
0000
0000
0000
0000
0000
0000
0000
0000
0000
0000
0000
0000
0000
0000
0000
0000
0000
0000
0000
0000
0000
0000
0000
0000
0000
0000
0000
0000
0000
0000
0000
0000
0000
0000
0000
0000
0000
0000
0000
0000
0000
0000
0000
0000
0000
0000
0000
0000
0000
0000
0000
0000
0000
0000
0000
0000
0000
0000
0000
0000
0000
0000
0000
0000
0000
0000
0000
0000
0000
0000
0000
0000
0000
0000
0000
0000
0000
0000
0000
0000
0000
0000
0000
0000
0000
0000
0000
0000
0000
0000
0000
0000
0000
0000
0000
0000
0000
0000
0000
0000
0000
0000
0000
0000
0000
0000
0000
0000
0000
0000
0000
0000
0000
0000
0000
0000
0000
0000
0000
0000
0000
0000
0000
0000
0000
0000
0000
0000
0000
0000
0000
0000
0000
0000
0000
0000
0000
0000
0000
0000
0000
0000
0000
0000
0000
0000
0000
0000
0000
0000
0000
0000
0000
0000
0000
0000
0000
0000
0000
0000
0000
0000
0000
0000
0000
0000
0000
0000
0000
0000
0000
0000
0000
0000
0000
0000
0000
0000
0000
0000
0000
0000
0000
0000
0000
0000
0003
0000
0000
0000
0000
,
3200
0000
0000
0000
,
0320
0000
0000
0000
,
0032
0000
0000
1003
,
0010
0000
0100
0010
,
0001
0000
0000
0010
,
1000
0000
0010
0000
,
0100
0000
0000
0000
0001
1000
0001
1000
,
0001
1000
0001
0000
0010
0100
0010
1000
,
0100
1000
0100
0000
0010
0100
0010
0100
,
0001
0010
0001
0000
0010
1000
0100
1000
,
0010
0100
0010
1000
,
0001
0010
0001
0000
1000
0100
1000
0100
,
0010
1000
0100
0000
0001
0010
0100
0010
,
0100
0001
1000
0000
0010
0100
0010
0100
,
0001
1000
0110
0100
,
0001
0010
0001
0000
1000
0100
1000
0010
,
0100
0010
1000
0000
0001
0100
0010
0100
,
0001
0010
1000
0000
0010
0100
1000
0100
,
1010
0101
0110
1001
,
0001
0010
0001
0000
0100
0010
1000
0100
,
1000
0010
0100
0000
0001
0010
0001
0100
,
0010
1000
0100
0000
0010
1000
0010
0100
,
1001
0110
0101
1010
,
0010
1000
0100
0001
,
0010
0100
0001
0010
,
0001
1000
0100
1000
,
0010
0100
0001
0010
,
1001
1000
0100
1000
,
0010
0100
0001
0010
,
1001
0010
0100
1000
,
1010
0101
1010
0110
,
0101
0000
0001
0010
0001
0010
0001
0010
,
0001
0010
1000
0000
0100
1000
0100
1000
,
0100
1000
0100
0000
0010
0100
0010
0100
,
0010
0100
0010
0000
0001
0010
0001
0010
,
0001
0010
0001
0000
1000
0100
1000
0100
,
1000
0100
1000
0000
0010
0100
0010
0100
,
0010
0100
0010
0000
0001
0010
0001
0010
,
0002
2003
3020
0230
,
0301
0010
0001
0010
0001
0010
0001
0010
,
0000
1000
0100
1000
0100
1000
0100
1000
,
0000
0010
0100
0010
0100
0010
0100
0010
,
0000
0001
0010
0001
0010
0001
0010
0001
,
0000
1000
0100
1000
0100
1000
0100
1000
,
0000
0010
0100
0010
0100
0010
0100
0000
,
0001
0010
0001
0010
0001
0010
0001
0000
,
1001
0110
0101
1010
,
2002
0000
0000
0000
,
3003
0000
0000
0000
;

//--------------- dance-single - B. M'Rey ----------------
#NOTES:
     dance-single:
     B. M'Rey:
     Hard:
     15:
     0,0,0,0,0:
0000
0000
0000
0000
,
0000
0000
0000
0000
,
0000
0000
0000
0000
,
0000
0000
0000
0000
,
1001
0001
0010
0100
,
0001
0010
0001
1000
,
0110
0100
0010
1000
,
1001
0000
0000
0000
0000
0000
0000
0001
1000
0000
0000
0000
0000
0000
0000
0000
,
0100
1000
0001
1000
0010
1000
0010
0100
,
0010
0100
0001
0100
0010
1000
0010
1000
,
0010
0100
0001
0100
0001
0100
0010
1000
,
0100
1000
0100
0010
0001
0100
0001
0100
,
0001
0010
0100
0010
0100
1000
0001
1000
,
0100
1000
0001
0010
0100
1000
0010
0100
,
0010
0100
0001
1000
0100
0010
0001
1000
,
1001
0000
0000
0000
0110
0000
0000
0000
0011
0000
0000
0000
0100
0010
0100
0010
,
0100
0001
0100
0001
,
0010
0100
0000
1000
0010
1000
0100
0010
,
0100
0001
0100
1000
,
1010
0000
0110
0000
0001
0100
0001
0010
,
0100
0010
0100
1000
,
1001
0000
0010
0000
0010
1000
0010
1000
,
0001
0000
0010
0100
0010
0000
0100
0000
,
0001
0100
0001
0100
0010
1000
0010
0100
,
0001
0000
0100
0000
1000
0001
1000
0000
1000
0001
1000
0000
1000
0001
0100
0000
,
0010
0000
0100
0000
0010
0000
0100
0000
1000
0001
1000
0000
1000
0001
1000
0000
,
1000
0000
0010
0000
0100
0000
0001
0100
0001
0000
0001
0100
0001
0000
0010
0000
,
1000
0000
0010
1000
0010
0000
0010
0000
0100
0001
0100
0000
0100
0001
0100
0000
,
0100
0000
0010
1000
0010
0000
0010
0000
0100
0010
0100
0000
1000
0000
0001
0000
,
0010
0000
0001
0010
0001
0000
0001
0000
0100
0000
0010
0000
0100
0010
0100
0000
,
0100
0000
0001
0000
0010
0000
0001
0010
0001
0000
0001
0010
0001
0000
0010
0000
,
0100
0000
0010
0000
1000
0000
0010
0000
1000
0000
0100
0000
1000
0100
1000
0100
,
2000
0000
0000
0000
,
3020
0000
0000
0000
,
0230
0000
0000
0000
,
0302
0000
0000
0013
,
1000
0000
0010
0000
,
0100
0000
0001
0000
,
0001
1000
0001
0010
,
0001
0000
1000
0000
,
0100
1000
0001
0010
0001
0010
0100
0010
,
0001
0100
0010
0100
0010
0100
0001
0010
,
0001
0010
0100
0010
0001
1000
0001
1000
,
0010
0100
0010
0100
0010
1000
0001
0010
,
0100
1000
0001
0010
0100
1000
0001
0100
,
0001
1000
0010
0100
0001
1000
0001
0010
,
0100
0010
0100
0010
0001
0100
0001
1000
,
0001
1000
0100
1000
0100
0000
0010
0000
,
0001
0010
0100
0010
0100
1000
0010
0100
,
0010
1000
0100
1000
0100
1000
0001
0010
,
0001
1000
0010
1000
0010
1000
0001
0100
,
0010
1000
0100
0010
0001
0100
0001
0100
,
0010
1000
0010
0100
0001
0100
0010
0100
,
0001
1000
0001
0010
0001
1000
0100
0010
,
0001
0010
0001
1000
0010
0100
0001
0100
,
0010
0001
1000
0100
,
0001
1000
0000
0001
0000
0100
0000
0001
0000
0010
0000
0100
0010
0000
0001
0000
,
0000
0100
0000
0001
0000
1000
0000
0100
0000
1000
0000
0010
1000
0000
0010
0000
,
0000
0100
0000
0001
0000
0100
0000
0001
0000
1000
0000
0010
1000
0000
0100
0000
,
0000
0010
0000
0100
0000
0010
0000
0001
0000
1000
0000
0100
1000
0000
0010
0000
,
0000
1000
0000
0100
0000
0010
0000
0001
0000
1000
0000
0100
0010
0000
0100
0000
,
0000
0010
0000
0001
0000
1000
0000
0100
0000
1000
0000
0001
1000
0001
1000
0001
,
0000
0100
0000
0001
0000
0100
0000
0010
0000
0100
0000
0001
0010
0000
0001
0000
,
0000
0100
0000
0001
0000
0100
0000
0010
0000
0100
0000
0010
1000
0010
1000
0010
,
1000
0000
0100
1000
0001
0100
0001
1000
,
0010
0100
0010
0100
0010
1000
0001
0100
,
0010
0100
0001
0100
0010
1000
0001
0010
,
0100
1000
0010
1000
0010
0100
0001
0010
,
0100
0010
0100
0010
0001
0100
0001
0010
,
0100
1000
0010
1000
0001
0010
0001
1000
,
0100
0010
0001
0100
0010
0100
0001
0100
,
0001
1000
0001
1000
0100
0010
0001
0010
,
0100
0010
0001
1000
0010
0100
0001
0010
,
0100
1000
0100
0010
0100
1000
0001
0010
,
0001
0010
0100
1000
0100
0010
0100
1000
,
0001
0010
0001
0010
0001
1000
0010
1000
,
0010
0100
0001
0010
0001
0010
0100
1000
,
0100
0010
0001
0010
0100
1000
0001
0010
,
0100
1000
0001
0100
0001
0100
0010
1000
,
0001
0000
1000
0000
0100
0000
1000
0000
0010
0000
0100
0000
0001
0010
0100
1000
,
0200
0000
0000
0000
,
0300
0000
0000
0000
;

//--------------- dance-single - B. M'Rey ----------------
#NOTES:
     dance-single:
     B. M'Rey:
     Challenge:
     17:
     0,0,0,0,0:
0000
0000
0000
0000
,
0000
0000
0000
0000
,
0000
0000
0000
0000
,
0000
0000
0000
0000
,
1000
0001
1000
0010
0000
0100
0000
1000
0000
0010
0000
0100
0010
0000
1000
0000
,
0010
0100
0010
1000
0000
0100
0000
0010
0000
0100
0000
0010
0001
0000
0100
0000
,
0010
0100
0010
0100
0000
0001
0000
0010
0000
0100
0000
1000
0010
0000
0100
0000
,
0110
0000
0000
0000
0000
0000
0001
1000
0000
0000
0000
0000
0000
0000
0000
0000
,
0100
0010
0000
0100
0000
0010
0000
1000
0000
0001
0000
1000
0001
0000
0100
0000
,
1000
0010
0000
1000
0000
0100
0000
0010
0000
0001
0000
1000
0010
0000
1000
0000
,
0100
0010
0000
1000
0000
0100
0000
0010
0000
0100
0000
0010
0001
0000
0100
0000
,
1000
0010
0000
0100
0000
0010
0000
0100
0000
0001
0000
1000
0100
0000
1000
0000
,
0010
0001
0000
0100
0000
0010
0000
0100
0000
0010
0000
1000
0100
0000
0010
0000
,
0001
0100
0000
1000
0000
0001
0000
0100
0000
0010
0000
1000
0001
1000
0010
0000
,
1000
0100
0000
0010
0000
0001
0000
0100
0000
0001
0000
0010
0001
0000
1000
0000
,
0010
0100
0000
0010
0000
0001
0000
0010
0000
0001
0000
1000
0010
1000
0010
1000
,
0200
0000
0310
0000
0010
0100
0001
0010
,
0001
0000
0100
0010
0100
1000
0010
0100
,
0001
0000
0001
0100
0010
1000
0001
1000
,
0100
0000
0001
0010
1100
0010
0101
1000
,
0110
0000
0001
0010
0001
0000
0100
0010
,
0001
0000
0001
0100
0010
0100
0001
0010
,
0100
0000
0100
1000
0100
0000
0001
0100
,
0101
0110
0011
1001
,
0001
0100
0000
0010
0000
0100
0000
0010
1000
0001
0000
0100
0010
0001
1000
0000
,
0100
0010
0000
1000
0000
0010
0000
0100
0010
0100
0000
1000
0001
0000
1000
0000
,
0010
0001
0000
0100
0000
0010
0000
1000
0010
0100
0000
1000
0100
0000
0010
0000
,
0100
1000
0000
0010
0000
0100
0000
1000
0010
1000
0000
0100
0010
0000
1000
0000
,
1000
0010
0000
0100
0000
0001
0000
1000
0100
1000
0000
0010
0100
0000
1000
0000
,
1000
0010
0000
1000
0000
0100
0000
0010
0001
0010
0000
0100
0001
0000
0010
0000
,
0010
0100
0000
1000
0000
0001
0000
1000
0100
1000
0000
1000
0100
0000
0010
0000
,
0010
0100
0000
1000
0000
0001
0000
0100
0001
0100
0000
1000
0100
0000
0010
0000
,
2000
0000
0000
0000
,
3200
0000
0000
0000
,
0302
0000
0000
0000
,
0203
0000
0000
0000
0000
0000
0000
0000
0000
0000
0000
0310
0000
0010
0000
1000
,
0001
0000
0000
0000
0100
0000
0000
0000
0010
0000
0000
0100
0000
0001
0000
0000
,
1000
0000
0000
0000
0001
0000
0000
0000
0100
0000
0000
0010
0000
0000
0001
0000
,
1001
0100
0010
1000
,
0101
0000
0000
0000
0000
0000
0000
0000
0100
0010
0100
0010
0100
0010
0001
0010
,
0100
0000
0001
0000
0010
1000
0100
0000
0001
0100
0001
0100
0001
1000
0010
1000
,
0010
0000
0001
0000
0001
0010
0001
0000
0010
0100
0010
0100
0001
0010
0001
0100
,
0001
0000
0100
0000
1000
0100
1000
0000
0001
0010
0001
0010
0100
1000
0010
1000
,
0010
0000
0010
0000
0001
0100
0001
0000
0001
0000
0100
0000
0010
1000
0100
1000
,
0001
0000
0001
0000
0100
0010
0100
0000
0001
1000
0001
1000
0100
1000
0100
0010
,
0100
0000
0001
0000
0100
1000
0100
0000
0010
0100
0010
0100
0010
1000
0100
1000
,
0100
0000
0010
0000
0001
0100
0001
0000
0001
0010
0100
0010
0001
0010
0001
1000
,
0010
1000
0001
0100
0001
0100
0010
0100
,
0010
1000
0010
1000
0001
0000
0010
0000
0001
0010
0100
0010
0100
1000
0100
1000
,
0010
0000
0100
0000
0010
0100
0000
0100
0010
1000
0010
1000
0001
1000
0001
0010
,
0001
0000
0100
0000
0100
1000
0010
0000
0001
1000
0001
0100
0001
0000
0100
0000
,
1000
0000
0010
0100
0010
0000
0010
0000
0001
0100
0001
0010
0000
0010
0100
0010
,
0100
0000
0001
0000
0010
0000
0001
0100
0001
0010
0100
0010
0100
0010
0001
1000
,
0001
0000
0001
0000
0100
0010
0100
0000
0100
1000
0001
1000
0001
0100
0010
0100
,
0010
0000
0001
0000
0001
1000
0001
0000
0010
0100
0010
0000
0001
1000
0010
0000
,
0110
0000
0100
0000
0110
0000
0100
0000
0011
0000
0000
0110
0000
0000
0010
0000
,
1000
0001
0000
1000
0000
0010
0000
1000
0000
0100
0000
0010
0100
0000
1000
0000
,
0000
0010
0000
1000
0000
0001
0000
0010
0000
0001
0000
0100
0001
0000
0100
0000
,
0000
0010
0000
1000
0000
0010
0000
1000
0000
0001
0000
0100
0001
0000
0010
0000
,
0000
0100
0000
0010
0000
0100
0000
1000
0000
0001
0000
0010
0001
0000
0100
0000
,
0000
0001
0000
0010
0000
0100
0000
1000
0000
0001
0000
0010
0100
0000
0010
0000
,
0000
0100
0000
1000
0000
0001
0000
0010
0000
0001
0000
1000
0001
1000
0001
1000
,
0000
0010
0000
1000
0000
0010
0000
0100
0000
0010
0000
1000
0100
0000
1000
0000
,
0000
0010
0000
1000
0000
0010
0000
0100
0000
0010
0000
0100
0001
0100
0001
0100
,
0001
0000
0000
0000
0001
1000
0001
1000
0100
1000
0100
0010
0100
0010
0001
0010
,
0001
0100
0001
0010
0100
0010
0100
0010
0001
0100
0001
0100
0001
1000
0100
1000
,
0100
1000
0001
0010
0001
0010
0001
1000
0010
1000
0010
1000
0001
0100
0001
1000
,
0001
1000
0100
1000
0100
0010
0100
1000
0010
1000
0010
1000
0001
0010
0001
0010
,
0001
0100
0010
0100
0010
0100
0001
1000
0001
1000
0001
0010
0100
0010
0100
0010
,
0001
1000
0001
1000
0001
0010
0100
1000
0100
1000
0100
0010
0001
0010
0001
0010
,
0100
1000
0100
1000
0100
0010
0001
0010
0001
0010
0100
1000
0100
0010
0100
0010
,
0001
0010
0001
0100
0010
0100
0010
0100
0001
1000
0100
1000
0100
1000
0010
0100
,
0001
0100
0001
0100
0010
1000
0010
0100
0010
0100
0001
0100
0001
1000
0001
1000
,
0010
0100
0010
0100
0010
1000
0100
1000
0100
1000
0001
0010
0001
0010
0100
0010
,
0100
1000
0100
1000
0001
1000
0001
0100
0001
0100
0010
0100
0010
1000
0010
1000
,
0001
0010
0001
1000
0010
0100
0010
1000
0010
1000
0100
0010
0001
0100
0001
0100
,
0010
0100
0010
1000
0010
0100
0001
0100
0001
0100
0010
1000
0010
1000
0010
0100
,
0001
0100
0001
0100
0010
1000
0010
1000
0010
0100
0001
0100
0001
0100
0010
1000
,
0010
1000
0010
0100
0001
0100
0001
0100
0010
1000
0010
1000
0010
0100
0001
0010
,
0001
0100
0001
0010
0100
0010
0100
0010
0001
1000
0100
1000
0100
0010
0100
0010
,
0002
0000
0000
0000
,
0003
0000
0000
0000
;
