#VERSION:0.83;
#TITLE:ECSTASY -force to the finale mix-;
#ARTIST:fmy.;
#GENRE:EURO TRANCE;
#CREDIT:B. M'Rey;
#MUSIC:ECSTASY -force to the finale mix-.ogg;
#BANNER:ECSTASY -force to the finale mix-.png;
#BACKGROUND:ECSTASY -force to the finale mix--bg.png;
#CDTITLE:./CDTITLES/Dance Dance Revolution SPACE.PNG;
#SAMPLESTART:66.280;
#SAMPLELENGTH:15;
#OFFSET:-0.130;
#BPMS:0=145,128=72.5,144=145;
#STOPS:176=1.241;

//--------------- dance-single - B. M'Rey ----------------
#NOTEDATA:;
#STEPSTYPE:dance-single;
#DESCRIPTION:B. M'Rey;
#DIFFICULTY:Beginner;
#METER:4;
#CREDIT:B. M'Rey;
#RADARVALUES:0.136,0.185,0.035,0,0;
#NOTES:
0000
0000
0000
0000
,
0000
0000
0000
0000
,
0000
0000
0000
0000
,
0000
0000
0000
0000
,
1000
0000
0000
0000
,
0001
0000
0000
0000
,
0110
0000
0000
0000
,
0000
0000
0000
0000
,
0001
0001
0000
0000
,
1000
0000
0100
0000
,
1000
1000
0000
0000
,
0010
0000
1000
0000
,
0100
0000
0100
0000
,
0010
0000
0010
0000
,
0001
0001
0000
0000
,
1000
1000
0000
0000
,
0010
0000
1000
0000
,
0100
0000
0100
0000
,
0010
0000
0001
0000
,
0100
0000
0100
0000
,
0010
0000
1000
0000
,
0100
0000
0001
0000
,
0010
0000
1000
0000
,
0110
0000
0000
0000
,
0001
0000
0000
0000
,
0000
0000
0000
0000
,
1000
0000
0000
0000
,
0000
0000
0000
0000
,
0100
0000
0100
0000
,
0010
0000
0010
0000
,
0001
0000
0000
0000
,
1000
0000
0000
0100
,
0100
0000
0000
0000
,
0010
0000
0000
0000
,
0100
0100
0100
0000
,
0010
0000
0010
0000
,
1001
0000
0000
0000
,
1000
0000
0000
0000
,
0100
0000
0000
0000
,
1000
0000
0000
0000
,
0010
0000
0010
0000
,
0100
0000
0100
0000
,
0001
0001
0000
0000
,
1000
1000
1000
0000
,
1001
0000
0001
0000
,
0100
0100
0100
0000
,
1000
0000
0010
0010
,
0010
0000
0001
0000
,
0100
0100
0000
0001
,
0000
0010
0000
1000
,
0000
0100
0000
0100
,
0000
0010
0010
0010
,
0000
0001
0001
0001
,
0001
0000
1000
0000
,
1000
1000
1000
1000
,
1000
0000
0001
0000
,
0001
0001
0000
0100
,
0000
0001
0000
1000
,
0000
0100
0000
0010
,
0000
0100
0100
0100
,
0000
0010
0000
0000
;

//--------------- dance-single - B. M'Rey ----------------
#NOTEDATA:;
#STEPSTYPE:dance-single;
#DESCRIPTION:B. M'Rey;
#DIFFICULTY:Easy;
#METER:5;
#CREDIT:B. M'Rey;
#RADARVALUES:0.231,0.264,0.088,0.044,0;
#NOTES:
0000
0000
0000
0000
,
0000
0000
0000
0000
,
0000
0000
0000
0000
,
0000
0000
0000
0000
,
0010
1000
0000
1000
,
0100
0001
0000
0000
,
0022
0000
0000
0033
,
1000
0000
0000
0000
,
0001
0000
0100
0000
,
1000
0001
0100
0000
,
1000
0000
0010
0000
,
0001
1000
0100
0000
,
0001
0000
0010
0000
,
0001
0000
0100
0000
,
1000
0001
1000
0100
,
1000
0000
0001
0100
,
1000
0000
0100
0100
,
0001
1000
1000
0000
,
0100
0000
0001
0001
,
0010
1000
1000
0000
,
0001
0000
0100
0000
,
1000
0001
1001
0000
,
0100
0000
0001
0000
,
2000
3002
1003
1001
,
0001
0000
0010
0000
,
1000
0000
0001
0000
,
0100
0000
0100
0000
,
0001
0000
0100
0000
,
1000
0000
0000
0001
,
0001
0000
0000
0100
,
0100
0000
0000
1000
,
1000
0000
0010
0000
,
1001
0010
0100
0000
,
0010
0100
1000
0000
,
0010
1000
1000
0001
,
1000
0100
0001
0000
,
1000
0000
0001
0001
,
0100
0010
1000
0000
,
0010
0000
0001
0001
,
1000
0010
0100
0000
,
1000
0000
0010
0000
,
1000
0010
0001
0000
,
1001
0000
0100
0001
,
0100
0010
1000
0000
,
0110
0001
0001
0100
,
0100
1000
1000
0000
,
0101
1000
1000
0100
,
0100
0001
0001
0000
,
1001
0001
0010
0010
,
1000
1000
0100
0100
,
0001
0001
1000
1000
,
0100
0001
1000
0000
,
1001
0010
0000
0001
,
0100
1000
0001
0100
,
1000
1000
0000
1000
,
0100
0010
1000
0001
,
0000
0010
0010
0000
,
0100
0000
0010
0000
,
0001
0100
1000
0100
,
0001
1000
1000
0100
,
0010
1010
0000
0000
;

//--------------- dance-single - B. M'Rey ----------------
#NOTEDATA:;
#STEPSTYPE:dance-single;
#DESCRIPTION:B. M'Rey;
#DIFFICULTY:Medium;
#METER:8;
#CREDIT:B. M'Rey;
#RADARVALUES:0.376,0.395,0.201,0.053,0;
#NOTES:
0000
0000
0000
0000
,
0000
0000
0000
0000
,
0000
0000
0000
0000
,
0000
0000
0000
0000
,
0010
1001
0100
0100
,
0001
1000
0100
0001
,
0220
0000
0000
0330
,
1001
0000
0000
0100
,
1000
0000
0001
0000
0100
0001
0100
0000
,
1000
0001
0100
1000
,
0100
0000
1000
0000
0010
0001
0010
0000
,
0001
0000
1000
0000
0100
0001
1000
0000
,
0001
0000
0010
0000
1000
0001
1000
0000
,
0100
0010
1000
0100
,
1000
0100
0001
0000
0001
1000
0001
0000
,
1000
0000
1001
0000
0010
0100
0010
0000
,
1001
0000
0010
0100
0010
0000
0100
0010
,
0100
0000
1000
0000
0001
0100
0010
0000
,
1000
0000
0001
1000
0001
0000
0100
1000
,
0100
0001
0010
1001
,
0010
0000
0010
0000
1000
0100
0001
0000
,
1000
0000
1000
0100
0001
0000
1000
0000
,
0100
0001
1000
0000
0100
0001
1000
0000
,
0010
0010
0101
1100
,
1001
0020
0001
0031
,
0100
1000
0001
0000
,
0001
0200
1000
1000
,
1300
0100
0001
0000
,
0201
0000
1000
0000
,
0301
0000
0010
0000
,
0001
0000
0010
0000
,
1000
0000
0100
0010
,
1001
0000
0010
1000
0100
0001
0100
0000
,
0010
0000
1000
0010
0001
0100
1000
0000
,
0001
0100
0010
0001
,
1000
0100
0010
1000
0100
1000
0001
0000
,
0010
0010
0001
1000
,
0100
0001
1000
0001
,
0010
0001
0100
0001
,
1000
0100
0001
0000
,
0010
0001
0010
0100
,
1000
0010
1000
0001
,
1000
0001
0010
0001
,
0100
0000
0110
0000
0001
0010
0001
1000
,
0100
0000
1000
0000
0100
0001
0000
1000
,
0010
0000
1000
0000
0001
0000
1000
0100
,
0001
0000
0010
0000
0100
1000
0000
0001
,
0100
0000
0010
0000
0010
0000
0000
1000
,
0001
0000
1000
0000
0100
0001
0000
1000
,
0100
0000
1000
0000
1000
0000
0001
0100
,
0010
0000
0001
0000
0100
0010
0000
0100
,
0001
0010
0010
0100
,
0110
0000
1000
0000
0100
0001
0000
0001
,
1000
0000
0100
0001
1000
0000
0100
0001
,
1000
0000
0010
0000
1000
0010
0000
0010
,
1000
0000
0001
0100
1000
0000
0001
0100
,
1000
0000
0100
0000
1000
0010
0000
0001
,
1000
0000
0010
1000
0001
0000
0010
1000
,
0001
1000
0010
0001
,
0100
0000
0010
0000
0110
0000
0001
0100
,
0010
0001
1100
0000
0000
0000
0000
0000
;

//--------------- dance-single - B. M'Rey ----------------
#NOTEDATA:;
#STEPSTYPE:dance-single;
#DESCRIPTION:B. M'Rey;
#DIFFICULTY:Hard;
#METER:11;
#CREDIT:B. M'Rey;
#RADARVALUES:0.493,0.58,0.193,0.088,0.35;
#NOTES:
0000
0000
0000
0000
,
0000
0000
0000
0000
,
0000
0000
0000
0000
,
0000
0000
0000
0000
,
0010
0000
0000
1000
0000
0000
0100
0000
0000
0000
1000
0000
0001
0000
0000
0000
,
0010
0000
0000
1000
0000
0000
0001
0000
0000
0000
0010
0000
0100
0000
0000
0000
,
2002
0000
0000
3003
,
1001
0000
0000
0000
,
0010
0001
0010
0000
0001
0100
0001
0000
,
0100
0010
0001
1000
0000
0001
0100
0000
,
1000
0010
1000
0000
0001
0100
0001
0000
,
1000
0100
0001
0000
0100
0001
1000
0000
,
0001
0010
1000
0000
1000
0001
0010
0000
,
0001
0000
0100
1000
0001
1000
0001
0000
,
0100
1000
0100
0000
1000
0001
1000
0000
,
0100
0001
0100
0010
0100
0001
1000
0000
,
0100
0001
0010
0100
0010
1000
0001
0000
,
1000
0000
0100
0010
0000
0010
0100
0000
,
1000
0001
0010
0100
1000
0001
0100
0000
,
1000
0000
0100
1000
0100
0000
1001
0000
,
0001
0000
0100
1000
0001
1000
0100
0000
,
0010
0000
0001
0100
0000
0100
1000
0000
,
0001
0010
1000
0000
0100
1000
0001
0000
,
1100
0000
0011
0000
0100
1000
0001
1000
,
0100
0001
1000
1000
,
0001
0000
0010
0000
1000
0001
1000
0000
,
0100
0010
1000
0100
,
0010
0000
0010
0000
0000
0100
0010
0000
,
1001
0000
0010
1000
0000
1000
0000
0100
,
0000
0001
0000
1000
0000
0000
0100
0001
,
1000
0000
0001
0010
0000
1000
0000
0001
,
0000
0001
0000
0100
0000
1000
0001
0000
,
1001
0000
0000
1000
0000
1000
0000
1000
0000
0100
0000
0001
0000
0000
0000
0000
,
1000
0000
0000
0100
0000
0001
0000
0001
0000
0010
0000
1000
0000
0000
0001
0000
,
1001
0000
0001
0100
0000
0100
0000
1000
0000
0001
0000
0010
0000
0000
0001
0000
,
1000
0000
1000
0100
0000
0100
0000
0001
0000
1000
0000
0100
0000
0001
0010
0000
,
0001
2000
0010
0001
,
3200
0010
0001
1300
,
0100
0002
0010
1000
,
0203
0000
1000
0000
0001
0000
1300
0001
,
0021
1030
0002
0103
,
0020
0000
1030
0000
0200
0000
0301
0010
,
1000
0001
0100
1000
,
1010
0000
0101
0000
0010
0100
1100
0001
,
1001
0000
0000
0000
0010
0000
0000
1000
0000
0000
0100
0000
0000
0000
0001
0000
,
0010
0000
0001
0000
1000
0001
0000
0001
0100
0000
1000
0001
0000
0001
1000
0000
,
0001
0000
0000
0000
0010
0000
0000
0001
0000
0000
0100
0000
0000
0000
0010
0000
,
0001
0000
1000
0000
0100
0001
0000
0001
0100
0000
0010
1000
0000
1000
0100
0000
,
0010
0000
0010
0000
0001
0000
0000
1000
0000
0000
0100
0000
0000
0000
0001
0000
,
1000
0000
0010
0000
0001
0010
0000
0010
0100
0000
0001
1000
0000
1000
0001
0000
,
1000
0000
0100
0000
0001
0000
0000
0100
0000
0000
1000
0000
0000
0000
0001
0000
,
1000
0000
0001
0000
0100
0010
0000
0010
0100
0000
0010
1000
0000
1000
0000
0100
,
0000
0010
1000
0000
0001
0000
0010
0000
0100
0000
1000
0000
0001
0000
0100
0000
,
0010
0000
0000
0000
1000
0100
0000
0100
0001
0000
0001
1000
0000
1000
0100
0000
,
0001
0000
0010
0100
1000
0001
0100
0010
,
1000
0000
0000
0000
0001
0100
0000
0100
1000
0000
1000
0001
0000
0001
0010
0000
,
1000
1000
0100
0010
0001
1000
0100
0001
,
0100
0000
0000
0000
1000
0010
0000
0010
0100
0000
0100
1000
0000
1000
0001
0000
,
0100
0010
1010
0100
,
0101
0000
0000
0000
0010
0001
0000
0001
1000
0000
1000
0010
0000
0010
0000
0100
,
0000
1000
0001
0000
0011
0000
0000
0000
0000
0000
0000
0000
0000
0000
0000
0000
;
