#TITLE:Don't Be Shy;
#ARTIST:Tiƫsto ft KAROL G;
#GENRE:EDM;
#MUSIC:Don't Be Shy.ogg;
#BANNER:Don't Be Shy-bn.png;
#BACKGROUND:Don't Be Shy-bg.png;
#CDTITLE:./CDTITLES/Dance Dance Revolution SPACE.PNG;
#SAMPLESTART:39.283;
#SAMPLELENGTH:15;
#OFFSET:-0.280;
#BPMS:0=120.020;
#BGCHANGES:-0.280=Don't Be Shy.avi=1.000=0=0=1,;

//--------------- dance-single - B. M'Rey ----------------
#NOTES:
     dance-single:
     B. M'Rey:
     Beginner:
     4:
     0,0,0,0,0:
0000
0000
0000
0000
,
0000
0000
0000
0000
,
0000
0000
0000
0000
,
0000
0000
0000
0000
,
0000
1000
0001
0010
,
0000
0100
0000
0100
,
0000
0001
0010
1000
,
0000
0100
0000
0010
,
0000
0001
1000
0010
,
0000
0100
0000
0100
,
0000
0010
1000
0010
,
0000
0001
0000
0100
,
0000
0000
0010
1000
,
0010
0000
0100
1000
,
0010
0000
0001
0100
,
1000
0000
0010
0100
,
0001
0000
0001
0010
,
0001
0000
1000
0100
,
0010
0000
1000
0100
,
1000
0000
0001
0000
,
1000
0000
0001
1000
,
0001
0000
0010
0100
,
0010
0000
1000
0100
,
1000
0000
0001
0000
,
0010
0000
0001
0010
,
0001
0000
0100
0010
,
0100
0000
1000
0100
,
1000
0000
0001
0000
,
0100
0010
0000
0001
,
0000
1000
0001
1000
,
0001
0010
0000
0100
,
0000
0001
0010
1000
,
0000
0010
0000
0100
,
0000
0001
0010
0001
,
0010
0001
0000
1000
,
0000
0010
0100
0001
,
0000
0000
0001
0010
,
0001
0000
1000
0100
,
0010
0000
0001
0010
,
1000
0000
0001
0000
,
1000
0000
0010
0100
,
0010
0000
0001
1000
,
0010
0000
0100
1000
,
0010
0000
0001
0100
,
0010
0000
1000
0001
,
1000
0000
0010
0100
,
0010
0000
0001
0010
,
0001
0000
1000
0010
,
0100
0000
0001
0010
,
0001
0000
1000
0100
,
0010
0000
1000
0001
,
0010
0000
0100
0010
,
1000
0001
0000
0010
,
0000
0000
0000
1000
,
0100
0001
0000
0020
,
0000
0000
0000
0000
,
0030
1000
0000
0001
,
0000
0000
0000
0100
,
0010
1000
0010
0002
,
0000
0000
0000
0000
,
0103
0000
0001
0010
,
0001
0000
1000
0100
,
0010
0000
0001
1000
,
0001
0000
0010
0100
,
1000
0000
0010
0100
,
0010
0000
1000
0001
,
0010
0000
0100
0010
,
0001
0000
1000
0100
,
0010
0000
0000
0000
;

//--------------- dance-single - B. M'Rey ----------------
#NOTES:
     dance-single:
     B. M'Rey:
     Easy:
     6:
     0,0,0,0,0:
0000
0000
0000
0000
,
0000
0000
0000
0000
,
0000
0000
0000
0000
,
0000
0000
0000
0000
,
0000
1000
0001
0010
,
0100
0001
0000
0001
,
0000
1000
0100
1000
,
0000
0010
0100
0001
,
0000
1000
0010
0100
,
0001
1000
0000
1000
,
0000
0001
0010
0001
,
0000
0100
0010
1000
,
0000
0000
0001
0010
,
0001
0000
0100
0010
,
1000
0000
0010
0100
,
0001
0000
1000
0001
,
0100
0000
0010
1000
,
0100
0000
0001
0100
,
0010
0000
1000
0100
,
0001
0000
0010
0100
,
0001
0000
0000
0000
1000
0100
1000
0000
,
0010
0000
0000
0000
0001
0010
0001
0000
,
0100
0000
0000
0000
1000
0100
1000
0000
,
0010
0000
0000
0000
0001
0010
0001
0000
,
0100
0000
0010
1000
,
0001
0010
0001
0100
,
0010
1000
0100
1000
,
0001
0000
0010
0000
0001
0010
0001
0000
,
0100
0010
1000
0100
,
1000
0001
0010
0001
,
0100
0000
0010
0000
1000
0010
1000
0000
,
0100
0000
0001
0000
0010
0001
0010
0000
,
0100
0010
1000
0100
,
0001
0010
0100
0001
,
1000
0000
0010
0000
0100
0010
0100
0000
,
0001
0000
1000
0000
0001
1000
0001
0000
,
0010
0000
0100
0001
,
1000
0000
0010
0100
,
0001
0000
0010
1000
,
0100
0000
0001
0010
,
0001
0000
0100
0010
,
1000
0000
0001
0010
,
0001
0000
0100
0010
,
1000
0000
0001
1000
,
0001
0000
0001
1000
,
0001
0010
0001
0100
,
0010
1000
0100
0001
,
1000
0100
0001
1000
,
0001
0000
0100
0001
,
0010
0001
0100
0001
,
1000
0100
0001
1000
,
0100
0001
0100
0010
,
0001
0000
1000
0001
1000
0000
0001
1000
,
0001
0000
0000
0001
,
0100
0000
0001
0100
0001
0000
0020
0000
,
0000
0000
2030
0000
,
0000
0000
3001
0010
0100
0000
1000
0100
,
0010
0000
0000
0001
,
0100
0000
0001
0010
0100
0000
2000
0000
,
0000
0000
3020
0000
,
0130
0000
0001
0000
0001
0010
0001
0000
,
0100
0000
0010
0000
1000
0100
1000
0000
,
0010
0000
0100
0000
0001
0010
0001
0000
,
0010
0000
0100
0000
0010
0100
0010
0000
,
0001
0000
1000
0000
0001
1000
0001
0000
,
0100
0000
0010
0000
1000
0100
1000
0000
,
0001
0000
0010
0000
0001
0100
0001
0000
,
0100
0000
0001
0000
1000
0100
1000
0000
,
0010
0100
0000
0000
;

//--------------- dance-single - B. M'Rey ----------------
#NOTES:
     dance-single:
     B. M'Rey:
     Medium:
     7:
     0,0,0,0,0:
0000
0000
0000
0000
,
0000
0000
0000
0000
,
0000
0000
0000
0000
,
0000
0000
0000
0000
,
0000
1000
0001
0010
,
0100
0001
1000
0010
,
0100
0010
0001
0010
,
1001
0000
0010
0000
0100
1000
0100
0000
,
0010
0001
0010
0100
,
1000
0010
0100
0001
,
0010
0000
0001
0000
1000
0001
1000
0000
,
0010
0000
0100
0000
0001
0010
0100
0000
,
0001
0000
0000
0000
1000
0100
1000
0000
,
0010
0000
0000
0000
0001
0100
0010
0000
,
0001
0000
0000
0000
1000
0100
1000
0000
,
0010
0000
0000
0000
0100
0010
0100
0000
,
0001
0000
0000
0000
1000
0100
1000
0000
,
0010
0000
0000
0000
0100
0001
0100
0000
,
0010
0000
0000
0000
1000
0100
1000
0000
,
0010
0000
0000
0000
0001
0010
0100
0000
,
0001
0000
1000
0000
0001
1000
0001
0000
,
0010
0000
0001
0000
1000
0100
1000
0000
,
0001
0000
1000
0000
0100
0010
0100
0000
,
0001
0000
0010
0000
1000
0100
1000
0000
,
0010
0000
0001
0000
0001
0010
0001
0000
,
1000
0000
0100
0000
0010
0001
0010
0000
,
1000
0000
0100
0000
0010
0100
0010
0000
,
0001
0000
1000
0000
0010
1000
0010
0000
,
0100
0001
0010
1000
,
0100
0000
0001
0010
0001
0000
0010
0001
,
0010
0000
1000
0000
0100
1000
0100
0000
,
0010
0000
0100
0000
0001
0010
0001
0000
,
1001
1000
0011
0100
,
1001
0000
0010
0100
0001
0000
0010
0100
,
1000
0000
0010
0000
0100
0001
0010
0000
,
1001
0000
0010
0000
0100
0010
1000
0000
,
1001
0000
0000
0000
0001
1000
0010
0000
,
0100
0000
0000
0000
0001
1000
0010
0000
,
0100
0000
0000
0000
0001
0010
1000
0000
,
0100
0000
0010
0000
0001
0010
0001
0000
,
0010
0000
1000
0000
0010
0100
0010
0000
,
0001
0000
1000
0000
0001
0010
0100
0000
,
1000
0000
0010
0000
0100
0001
0100
0000
,
0010
0000
1000
0000
0001
1000
0001
0000
,
1001
0000
1001
0000
0001
1000
0001
0000
,
0010
0000
0100
0000
0001
0010
0001
0000
,
1000
0000
0001
0000
0010
1000
0010
0000
,
0100
0000
0010
0000
0001
1000
0100
0000
,
0010
0000
1000
0000
0001
0010
0001
0000
,
1000
0000
0100
0000
0010
0100
0010
0000
,
1000
0000
0001
0000
0010
0100
0010
0000
,
0001
0000
1000
0000
0010
1000
0010
0000
,
0100
0002
0000
2003
,
0000
3010
0010
0100
,
0001
0100
0001
0100
0001
0000
0020
0000
,
0000
1030
0200
0000
,
0000
0000
0301
0010
0001
0000
1000
0100
,
1000
0001
0010
0100
,
0010
0000
0001
0010
1000
0000
0001
1000
,
0001
0010
0200
0000
,
0010
0000
0310
0000
0001
0010
0001
0000
,
0010
0000
1000
0000
0100
1000
0100
0000
,
0010
0000
0100
0000
0001
0010
0001
0000
,
1000
0000
0010
0000
0100
0010
0100
0000
,
1000
0000
0100
0000
0001
0010
0001
0000
,
0010
0000
0100
0000
1000
0100
1000
0000
,
0010
0000
0001
0000
0010
0100
0010
0000
,
0001
0000
1000
0000
0001
1000
0001
0000
,
0010
0100
0000
0000
;

//--------------- dance-single - B. M'Rey ----------------
#NOTES:
     dance-single:
     B. M'Rey:
     Hard:
     11:
     0.403373,0.607886,0,0.071124,0.142247,397,397,0,10,0,0,0.403373,0.607886,0,0.071124,0.142247,397,397,0,10,0,0:
0000
0000
0000
0000
,
0000
0000
0000
0000
,
0000
0000
0000
0000
,
0000
0000
0000
0000
,
0000
2000
3002
0023
,
0031
0000
0001
0010
0100
0000
0010
1000
,
0100
0000
0001
0010
0001
0010
0100
0000
,
1000
0000
0010
0000
0100
0010
1000
0000
,
1001
0010
0100
0001
,
0010
0000
1000
0100
1000
0000
0010
0100
,
0001
0000
0001
0010
1000
0100
1001
0000
,
1001
0000
0010
0000
0100
0001
1000
0000
,
0101
0000
0000
0000
0010
1000
0100
0000
,
0010
0000
0000
1000
0000
0000
0000
0000
0001
0000
0100
0000
0010
0000
0000
0000
,
0001
0000
0000
1000
0000
0000
0000
0000
0010
0000
0100
0000
1000
0000
0000
0000
,
1001
0000
0000
1001
0000
0000
0000
0000
0010
0000
0100
0000
0001
0000
0000
0000
,
0101
0000
0000
0101
0000
0000
0000
0000
0010
0000
1000
0000
0100
0000
0000
0000
,
0010
0000
0000
0100
0000
0000
0000
0000
0001
0000
0010
0000
1000
0000
0000
0000
,
1000
0000
0000
0001
0000
0000
0000
0000
0010
0000
0100
0000
1000
0000
0000
0000
,
1010
0000
0000
0101
0000
0000
0000
0000
0001
0000
0010
0000
1000
0000
0000
0000
,
0110
0000
0000
1001
0000
0000
0000
0000
0001
0000
0010
0000
0100
0000
0000
0000
,
0001
0000
0000
1000
0000
0000
0001
0000
0010
0000
0100
0000
1000
0000
0000
0000
,
0010
0000
0000
0100
0000
0000
1000
0000
0001
0000
0010
0000
1000
0000
0000
0000
,
0100
0000
0000
1000
0000
0000
0001
0000
0010
0000
0100
0000
0010
0000
0000
0000
,
0001
0000
0000
1000
0000
0000
0100
0000
0010
0000
0100
0000
0010
0000
0100
0000
,
0010
0100
0001
0100
0001
0100
0010
0100
,
0010
0100
1000
0100
1000
0100
0010
0100
,
0010
0100
0001
0000
1000
0010
1000
0000
,
0100
0000
0000
0001
0020
0000
0000
0000
2030
0000
0000
0000
3020
0000
0000
0000
,
0230
0000
0301
0010
0100
0000
0001
0010
,
0100
0000
1000
0100
1000
0010
0100
0000
,
0010
0000
0001
0100
0010
0100
0010
0000
,
1001
0000
0010
0100
1000
0000
0010
0000
,
0100
0000
0001
0010
0100
0000
1000
0100
,
0010
0000
0001
0010
0100
0001
0100
0000
,
1001
0000
0010
0000
0100
0001
0010
0000
,
1001
0000
0000
0000
0010
0100
1000
0000
,
0010
0000
0000
0100
0000
0000
0000
0000
0001
0000
0010
0000
0100
0000
0000
0000
,
0001
0000
0000
1000
0000
0000
0000
0000
0010
0000
0100
0000
1000
0000
0000
0000
,
0010
0000
0000
0100
0000
0000
0000
0000
0001
0000
0010
0000
0001
0000
0000
0000
,
0101
0000
0000
0101
0000
0000
0000
0000
0010
0000
1000
0000
0100
0000
0000
0000
,
0010
0000
0000
0100
0000
0000
0000
0000
0001
0000
1000
0000
0001
0000
0000
0000
,
0010
0000
0000
0100
0000
0000
0000
0000
0100
0000
0001
0000
1000
0000
0000
0000
,
0100
0001
1000
0000
0010
0100
1000
0000
,
0010
0000
0000
0100
0000
0000
0000
0000
0001
0000
0010
0000
0001
0000
0010
0000
,
0001
0100
0010
0100
0010
0100
1000
0100
,
1000
0100
0010
0100
0010
0100
0010
0001
,
0010
0001
0010
0000
1000
0100
1001
0000
,
1001
0000
0000
1001
0000
0000
0000
0000
0001
0000
1000
0000
0001
0000
1000
0000
,
0010
1000
0010
1000
0100
1000
0100
1000
,
0010
1000
0010
1000
0010
0100
0010
0100
,
0010
0001
0010
0001
0010
0001
0110
0000
,
1001
0000
0001
0010
1000
0000
0010
0100
,
1000
0100
0010
0000
0100
0000
0001
0010
,
0100
0001
1000
0100
1000
0000
2002
0000
,
3003
0100
1000
0000
1001
0000
0202
0000
,
0303
0000
0001
1000
1010
0000
0100
0010
,
0101
0000
0010
0000
1000
0000
0010
0100
,
1000
0100
0010
0100
0001
1000
0010
0100
,
0001
0000
1000
0000
0001
1000
0001
1000
0001
1000
0001
1000
0001
1000
0001
0000
,
1000
0100
0001
0000
0001
0010
0001
0010
,
0001
0010
0100
0010
0100
0010
0100
1000
,
0100
1000
0100
1000
0010
0100
0010
0100
,
0010
0100
0001
0010
0001
0010
0001
0010
,
0001
0100
0010
0100
1000
0100
1000
0100
,
0010
0100
0010
0100
0001
0010
0001
0010
,
0001
0100
0010
0100
1000
0010
0100
0010
,
0001
0010
0100
0000
0001
1000
0100
0000
,
0010
0000
0000
0100
0000
0000
0000
0000
0000
0000
0000
0000
0000
0000
0000
0000
;
