#VERSION:0.83;
#TITLE:Dilemma;
#ARTIST:豚乙女;
#ARTISTTRANSLIT:Butaotome;
#GENRE:J-POP;
#CREDIT:B. M'Rey;
#MUSIC:dilemma.ogg;
#BANNER:Dilemma-bn.png;
#BACKGROUND:Dilemma-bg.png;
#CDTITLE:./CDTITLES/SOUND VOLTEX BOOTH.PNG;
#SAMPLESTART:46.915;
#SAMPLELENGTH:15;
#OFFSET:-0.077;
#BPMS:0=128;

//--------------- dance-single - B. M'Rey ----------------
#NOTEDATA:;
#STEPSTYPE:dance-single;
#DESCRIPTION:B. M'Rey;
#DIFFICULTY:Beginner;
#METER:4;
#RADARVALUES:0,0,0,0,0;
#CREDIT:B. M'Rey;
#NOTES:
0000
0000
0000
0000
,
0000
0000
0000
0000
,
0000
0000
0000
0000
,
0000
0000
0000
0000
,
0000
0000
0000
0000
,
0000
0000
0000
0000
,
0000
0000
0000
0000
,
0000
0000
0000
0000
,
0000
0000
0000
0000
,
1000
0000
0001
0000
,
0200
0000
0000
0000
,
0301
0000
1000
0000
,
0020
0000
0000
0000
,
0031
0000
0100
0000
,
2000
0000
0000
0000
,
3001
0000
0100
0000
,
0000
0000
0000
0000
,
0001
0000
1000
0000
,
0010
0000
0100
0000
,
0001
0000
1000
0000
,
0010
0000
0100
0000
,
0001
0000
1000
0000
,
0010
0000
0100
0000
,
0001
0000
1000
0000
,
0020
0000
0000
0000
,
0130
0000
0001
0000
,
1000
0000
0010
0000
,
0001
0000
1000
0000
,
0010
0000
0100
0000
,
0001
0000
1000
0000
,
0010
0000
0100
0000
,
0001
0000
1000
0000
,
0010
0001
1000
0000
,
0100
0001
1000
0000
,
0001
0010
0100
0000
,
1000
0001
0100
0000
,
0001
0001
0001
0000
,
1000
1000
1000
0000
,
0010
0100
0001
0000
,
0020
0000
0000
0000
,
2030
0000
3002
0000
,
0203
0000
0320
0000
,
0031
0000
1000
0000
,
0010
0000
0100
0000
,
0001
1000
0000
0000
,
0100
0010
0000
0000
,
0010
0001
1000
0000
,
0100
0010
0000
0000
,
0001
0010
0000
0000
,
1000
0100
0000
0000
,
0010
0000
0001
0000
,
1000
0000
0010
0000
,
0100
0000
1000
0000
;

//--------------- dance-single - B. M'Rey ----------------
#NOTEDATA:;
#STEPSTYPE:dance-single;
#DESCRIPTION:B. M'Rey;
#DIFFICULTY:Easy;
#METER:5;
#RADARVALUES:0,0,0,0,0;
#CREDIT:B. M'Rey;
#NOTES:
0000
0000
0000
0000
,
0000
0000
0000
0000
,
0000
0000
0000
0000
,
0000
0000
0000
0000
,
0000
0000
0000
0000
,
1000
0000
0000
0000
,
0010
0000
0000
0000
,
0001
0000
0000
0000
,
1000
0000
0000
0000
,
0010
0010
0010
0000
,
1000
0000
0001
0001
,
0001
0000
0100
0000
,
0010
0010
0010
0000
,
1000
0000
0001
0001
,
0001
0000
0010
0000
,
0100
0100
0100
0000
,
0020
0000
0000
0030
,
0001
0000
1000
0010
,
0001
0000
0100
0000
,
0001
1000
0010
0100
,
0000
0000
0000
0000
,
0001
1000
0010
0100
,
0001
0000
0100
0000
,
0001
0010
0001
1000
,
0020
0000
0000
0000
,
1030
0001
0010
0100
,
1000
0010
0100
0001
,
0000
0010
1000
0001
,
0020
0000
0000
0000
,
0031
0000
0010
0100
,
0001
0010
1000
0000
,
0110
0000
0000
0000
,
0001
1000
0010
0100
,
0001
0010
1000
0000
,
0001
0010
0100
1000
,
0010
0100
0001
0000
,
0200
0010
0310
0000
,
0002
0010
0013
0000
,
0100
1000
0001
0010
,
0200
0000
0000
0000
,
0302
0000
2003
0000
,
3020
0000
0130
0000
,
0001
1000
0010
0100
,
0001
0000
1000
0100
,
0001
0001
0001
0000
,
0100
0100
0100
0000
,
0001
0100
0001
0100
,
0001
0100
0001
0000
,
1000
1000
1000
0000
,
0010
0010
0010
0000
,
1000
0010
1000
0020
,
0000
2030
0000
3002
,
0000
0000
2003
0000
0000
3000
0000
0000
;

//--------------- dance-single - B. M'Rey ----------------
#NOTEDATA:;
#STEPSTYPE:dance-single;
#DESCRIPTION:B. M'Rey;
#DIFFICULTY:Medium;
#METER:7;
#RADARVALUES:0,0,0,0,0;
#CREDIT:B. M'Rey;
#NOTES:
0000
0000
0000
0000
,
0000
0000
0000
0000
,
0000
0000
0000
0000
,
0000
0000
0000
0000
,
0000
0000
0000
0000
,
1000
0001
0100
0000
,
0010
0001
1000
0000
,
0010
0000
0100
0000
0001
0000
1000
0001
,
1000
0000
0001
0000
0000
1000
0000
0000
0002
0000
0000
0000
0000
0000
1003
0000
,
0100
0000
0010
0000
0001
0000
1000
0100
,
0010
0000
0100
0000
0001
0010
1000
0000
,
0100
0001
0010
1000
,
0100
0010
0001
0010
,
1000
0100
0001
0010
,
0100
1000
0010
0100
,
0001
0010
1000
0001
,
0020
0000
0000
0030
0000
0000
0000
0000
,
1000
0001
0010
0100
,
1000
0001
0010
0000
0100
1000
0010
0000
,
0100
0001
0010
1000
,
0100
1000
0010
0000
,
0000
0001
0010
0100
,
0010
1000
0001
0010
,
1000
0001
0100
0000
0001
0010
1000
0000
,
0200
0000
0320
0000
,
0031
0000
1000
0001
0010
0000
0100
0000
,
0001
1000
0010
0000
0100
0000
1000
0000
,
0000
0000
0001
0010
0100
0000
1000
0000
,
0002
0000
2003
0000
,
3100
0001
0010
1000
,
0100
0010
0001
0000
0010
1000
0100
0000
,
0002
0000
0000
0000
,
1003
0100
1000
0100
1000
0100
1000
0100
,
1000
0100
0000
0010
0000
0000
0000
0001
,
1000
0001
1000
0001
1000
0001
1000
0001
,
1000
0001
0000
0100
0000
0000
0000
0001
,
0010
0100
1000
0100
0000
0010
0000
1000
,
0100
0010
0001
0010
0000
1000
0000
0100
,
0001
0000
0100
0010
0001
0000
1000
0010
,
0200
0000
0002
0000
0000
0000
0000
0303
,
0010
0000
1000
0100
,
0001
0000
0100
0000
,
0010
1000
0001
0000
0010
0100
0001
0100
,
1000
0000
0001
1000
,
0200
0010
0010
0310
,
0002
0010
0010
0013
,
2000
0100
0100
3100
,
0020
0100
0100
0130
,
0002
0010
0010
0013
,
2000
0001
0001
3001
,
0020
0100
0100
0130
,
0100
0001
1000
0010
,
0100
0000
0000
0000
0001
0000
0000
1000
0000
0000
0000
0000
0000
0000
0000
0000
;

//--------------- dance-single - B. M'Rey ----------------
#NOTEDATA:;
#STEPSTYPE:dance-single;
#DESCRIPTION:B. M'Rey;
#DIFFICULTY:Hard;
#METER:11;
#RADARVALUES:0,0,0,0,0;
#CREDIT:B. M'Rey;
#NOTES:
0000
0000
0000
0000
,
0000
0000
0000
0000
,
0000
0000
0000
0000
,
0000
0000
0000
0000
,
0000
0000
0000
0000
,
1000
0000
0001
0000
0010
0000
0100
0000
0000
0000
1000
0000
0000
0000
0001
1000
,
0001
0010
0100
1000
0000
0001
0000
0000
,
1000
0000
0001
0000
0010
0000
0100
1000
0000
0000
0000
0010
0100
0000
0010
0001
,
0000
0000
1001
0000
0000
0110
0000
0000
0011
0000
0000
0000
0000
0000
0000
0000
,
1000
0100
0001
1000
0100
0000
0010
0000
,
0001
0010
0100
1000
0100
0000
0001
0000
,
0010
0100
1000
0010
0100
0000
0001
0000
,
0010
0100
1000
0010
0100
0000
0001
0000
,
0010
1000
0100
0010
0001
0000
1000
0000
,
0010
0100
0010
0001
1000
0000
0010
0100
,
0001
0100
1000
0010
0100
0001
0010
1000
,
0000
0000
0110
0000
0000
0101
0000
0000
1001
0000
0000
0000
0220
0000
0000
0000
,
0330
0001
1000
0010
0100
0010
0001
0010
,
1000
0001
0100
0010
,
1000
0001
0010
0000
0100
1000
0010
0000
,
0001
0010
0100
1000
0010
0000
0100
0000
,
0001
0010
1000
0100
0001
0010
0100
1000
,
0100
0001
0000
0010
0000
1000
0000
0100
,
0001
0010
1000
0000
1000
0001
0100
0000
,
0010
0000
0100
0000
0001
0000
1000
0000
0001
1000
0001
1000
0001
1000
0001
1000
,
0001
0000
1000
0001
0010
0100
0010
1000
,
0001
0010
0100
0010
0000
1000
0000
0001
,
0000
0010
0100
0010
1000
0001
0100
0001
,
0110
0000
0000
0011
0000
0000
1010
0000
1010
0000
0000
0110
0000
0000
0101
0000
,
0101
0000
1000
0000
0010
0100
0010
1000
,
0100
0000
0001
0000
0010
0000
0100
0020
0000
0000
0000
0000
0000
0000
0031
0000
,
2000
0000
0000
3020
0000
0000
0230
0000
0302
0000
0000
0000
0000
0000
0000
0000
,
1003
0010
1000
0100
0001
0010
0100
1000
,
0010
0100
0010
0001
0010
1000
0010
0100
,
0001
0010
0100
1000
0001
0010
0001
0100
,
0010
1000
0010
0100
0001
0010
0100
1000
,
0010
0100
0010
0100
0001
0010
0100
0010
,
1000
0100
0010
1000
0001
0100
0001
0100
,
0010
1000
0001
0010
0001
0100
0010
1000
,
0010
0100
0010
0001
0100
0000
1000
0000
,
0002
0000
0013
0100
0020
0000
1030
0100
,
0002
0000
1003
0010
2000
0000
3010
0100
,
0010
1000
0001
0100
0010
1000
0001
0010
,
0100
0010
0100
1000
0010
0001
0010
0100
,
1000
0001
0010
0100
0000
1000
0000
0001
,
1000
0010
0100
0010
0000
0001
0000
0010
,
1000
0001
0010
0001
0100
0010
0000
0001
,
0010
1000
0100
0001
0010
0100
1000
0000
,
0100
0000
0001
0000
0010
0000
1000
0000
0000
0000
0010
0000
0001
0000
0100
0010
,
0001
1000
0001
0100
0000
0010
0000
1000
,
0001
0000
0010
0000
0100
0000
1000
0000
0000
0000
0000
0000
0100
0001
0000
0100
,
0010
0000
0000
1000
0100
0000
0001
0010
0000
0000
0000
0100
1000
0000
0001
0010
,
0000
0000
0000
0100
1000
0000
0010
0001
0000
0000
0000
0000
0000
0000
0000
0000
;
