#VERSION:0.83;
#TITLE:DRAGONLADY;
#ARTIST:Nankumo;
#GENRE:HAPPY;
#CREDIT:B. M'Rey;
#MUSIC:DRAGONLADY.ogg;
#BANNER:DRAGONLADY.png;
#BACKGROUND:DRAGONLADY-bg.png;
#CDTITLE:./CDTITLES/maimai GreeN PLUS.PNG;
#SAMPLESTART:51.24;
#SAMPLELENGTH:15;
#OFFSET:-0.029;
#BPMS:0=150;
#STOPS:180=0.400,181=0.400;
#BGCHANGES:0.000=DRAGONLADY.avi=1.000=0=0=1;

//--------------- dance-single - B. M'Rey ----------------
#NOTEDATA:;
#STEPSTYPE:dance-single;
#DESCRIPTION:B. M'Rey;
#CREDIT:B. M'Rey;
#DIFFICULTY:Beginner;
#METER:4;
#RADARVALUES:0,0,0,0,0;
#NOTES:
0000
0000
0000
0000
,
0000
0000
0000
0000
,
0000
0000
0000
0000
,
0000
0000
0000
0000
,
1000
0000
0001
0000
,
1000
0000
0001
0000
,
0100
0000
0010
0000
,
0100
0000
0000
0000
,
0001
0000
1000
0000
,
0010
0000
0100
0000
,
0001
0000
1000
0000
,
0010
0000
0100
0000
,
0001
0000
1000
0000
,
0010
0000
0100
0000
,
0010
0000
0001
0000
,
1000
0000
0010
0000
,
1000
0000
1000
1000
,
0000
0000
0001
0001
,
0000
0000
0100
0100
,
0010
0000
1000
0000
,
0001
0000
0100
0100
,
0000
0000
0010
0010
,
0000
0000
1000
1000
,
0001
0000
0000
0000
,
0110
0000
0000
0000
,
0101
0000
0000
0000
,
1010
0000
0000
0000
,
0110
0000
0000
0000
,
0101
0000
0000
0000
,
1010
0000
0000
0000
,
0110
0000
0001
0000
,
0100
0000
0010
0000
,
0000
1000
0000
0010
,
0000
0100
0000
0001
,
0000
0010
0000
0001
,
0000
0100
0000
0010
,
0000
1000
0000
0001
,
0000
0010
0000
0001
,
0000
0100
0000
0010
,
0000
1000
0000
0010
,
0000
0100
0000
0010
,
0000
0100
0000
0010
,
0000
1000
0000
0001
,
0000
0000
0000
0000
,
0000
0000
0000
0000
,
1010
1100
0001
0000
,
0100
0000
0110
0000
,
1000
0000
0001
0000
,
0010
0000
0001
0000
,
0100
0000
0010
0000
,
1000
0000
0010
0000
,
0100
0000
0001
0000
,
0010
0000
0001
0000
,
0100
0000
0010
0000
,
1000
0000
0000
0000
;

//--------------- dance-single - B. M'Rey ----------------
#NOTEDATA:;
#STEPSTYPE:dance-single;
#DESCRIPTION:B. M'Rey;
#CREDIT:B. M'Rey;
#DIFFICULTY:Easy;
#METER:7;
#RADARVALUES:0,0,0,0,0;
#NOTES:
0000
0000
0000
0000
,
0000
0000
0000
0000
,
1000
0000
0010
0000
,
0100
0000
0001
0000
,
0001
0100
0001
0010
,
0001
0010
0001
1000
,
0100
1000
0100
0010
,
0100
0010
0000
0000
,
0001
0100
0001
0100
,
0010
0100
0010
1000
,
0010
1000
0100
1000
,
0100
0010
0001
0100
,
0001
1000
0001
1000
,
0100
0010
0001
0010
,
0001
0010
0100
1000
,
0100
1000
0100
0000
,
0001
0100
0010
0100
,
0001
0100
0001
1000
,
1001
0000
0010
1000
,
0110
0000
0011
1001
,
0001
0000
0001
0010
,
0001
0010
0100
0010
,
1100
1100
0200
0301
,
2002
0000
0000
0000
0000
0000
0000
3003
,
1001
0000
0100
0010
,
0100
0000
0010
1000
,
0010
0000
0100
0010
,
0100
0000
0100
1000
,
0010
0000
0010
1000
,
0100
0000
0001
0010
,
0001
0000
0110
0000
,
0101
0000
1100
0000
,
0011
0010
0001
0100
,
0001
1000
0010
1000
,
0010
1000
0001
0010
,
0001
0010
0001
0100
,
0110
0100
0010
1000
,
0010
0100
0001
0100
,
0001
0100
0010
1000
,
0010
1000
0010
0100
,
0001
1001
0000
1001
,
0000
1001
0000
0110
,
0000
0110
0000
1001
,
0000
0000
0000
0000
,
0000
0000
0000
0000
,
0110
0110
0011
1010
,
0022
0033
0100
1000
,
0100
1000
0001
0100
,
0001
0100
0001
1000
,
0100
0010
0100
1000
,
0010
1000
0010
1000
,
0100
0010
0100
0010
,
0100
1000
0001
1000
,
0001
1000
0010
0100
,
0001
1000
0000
0000
;

//--------------- dance-single - B. M'Rey ----------------
#NOTEDATA:;
#STEPSTYPE:dance-single;
#DESCRIPTION:B. M'Rey;
#CREDIT:B. M'Rey;
#DIFFICULTY:Medium;
#METER:10;
#RADARVALUES:0,0,0,0,0;
#NOTES:
0000
0000
0000
0000
,
0000
0000
0000
0000
,
1010
0000
0101
0000
,
1001
0000
0110
0000
,
0010
1000
0100
0000
0001
1000
0001
0000
,
0001
0010
0100
0000
0100
1000
0100
0000
,
0001
1000
0001
0000
0001
0100
0010
0000
,
0010
0000
1000
0000
0010
0000
0000
0000
1001
0000
0000
1001
0000
0000
0110
0000
,
0100
0010
0100
0000
0001
1000
0001
0000
,
0001
0100
0010
0000
0010
1000
0010
0000
,
0001
0100
0001
0000
0001
0010
0100
0000
,
0001
1000
0001
0000
0001
0100
0010
0000
,
0010
0100
0001
0000
0001
0010
0001
0000
,
0010
1000
0001
0000
0001
1000
0001
0000
,
0100
0010
0100
0000
0001
1000
0001
0000
,
0001
0000
0100
0000
0010
0000
0000
0000
1010
0000
0000
1010
0000
0000
1010
0000
,
0100
0000
0010
0000
0010
0100
0010
0000
,
0001
0000
0001
0000
0010
0100
0010
0000
,
0010
0000
0100
1000
0100
0000
0101
0000
,
0101
0110
1010
1010
,
0100
0000
0001
0000
0001
0100
0001
0000
,
0100
0000
0100
0010
0001
0000
0100
0000
,
1010
0000
0110
0000
0010
0100
0001
0000
,
0020
0000
0031
0000
0010
0100
0001
0100
,
0001
1000
0001
1000
,
0001
0010
0100
0010
,
0100
0010
0001
1000
,
0100
1000
0001
1000
,
0001
0100
0001
0100
,
0010
0100
0010
1000
,
0010
1000
0001
0010
,
0001
0010
0001
0100
,
0110
0000
0001
1000
0100
0000
0100
1000
,
0010
0000
0010
0100
0001
0000
0010
1000
,
0010
0000
0010
1000
0001
0000
0001
1000
,
0010
0000
0010
1000
0100
0000
0010
0000
,
1100
0000
0010
1000
0010
0000
0100
0010
,
0001
0000
0001
0010
0100
0000
0100
1000
,
0100
0000
0001
1000
0010
0000
0010
1000
,
0100
0000
0001
0010
0001
0000
0100
1000
,
1001
1001
0000
0011
,
0000
0110
0000
1100
,
0000
0000
0101
0000
0001
0000
0010
1000
,
0200
0000
0000
0000
,
0000
0000
0000
0000
,
0311
0110
1001
1001
,
0001
0010
0100
1000
0101
0000
0010
0100
,
0010
0000
0001
1000
0001
0000
0001
0100
,
0010
0000
0001
0100
0001
0000
0001
1000
,
0010
0000
0010
1000
0010
0000
0001
0100
,
0001
0000
0010
1000
0010
0000
0010
0100
,
0001
0000
0001
0100
0010
0000
0010
1000
,
0010
0000
0001
0100
0001
0000
0010
1000
,
0010
0000
0010
0100
0001
0000
0001
0100
,
0110
0000
0000
0110
0000
0000
0110
0000
0000
0000
0000
0000
0000
0000
0000
0000
;

//--------------- dance-single - B. M'Rey ----------------
#NOTEDATA:;
#STEPSTYPE:dance-single;
#DESCRIPTION:B. M'Rey;
#CREDIT:B. M'Rey;
#DIFFICULTY:Hard;
#METER:13;
#RADARVALUES:0,0,0,0,0;
#NOTES:
0000
0000
0000
0000
,
0000
0000
0000
0000
,
0011
0001
1100
1000
,
0110
0100
0101
0001
,
0001
1000
0001
1000
0001
0010
0100
0010
,
0001
0010
0001
1000
0010
1000
0010
1000
,
0001
0100
0001
0100
0001
1000
0100
1000
,
0100
0000
1000
0000
0010
0000
1000
0000
0000
0010
0000
0000
0001
0000
1000
0000
,
0010
1000
0010
1000
0001
0100
0001
0100
,
0001
1000
0100
1000
0100
1000
0001
0100
,
0001
1000
0001
1000
0010
1000
0010
0100
,
0010
0100
0001
0100
0010
1000
0001
1000
,
0001
1000
0010
0100
0010
0100
0010
1000
,
0001
0010
0100
1000
0100
0010
0100
1000
,
0001
0100
0001
0010
0001
0010
0100
0010
,
0100
0000
1000
0000
0100
0000
1000
0000
0001
0000
0000
1000
0000
0000
0010
0000
,
0001
1000
0001
0100
0010
1000
1100
0000
,
0101
0100
0001
1000
0011
0000
0110
0010
,
0011
0110
0010
1000
0001
0010
1100
0000
,
0101
0000
1010
0000
0010
0100
1010
0000
,
0001
0100
0010
1000
0001
0010
1100
0000
,
0101
0100
0010
1000
0100
0010
0100
1000
,
0110
0000
0011
0000
0100
1000
1100
0000
,
0001
0000
0100
0010
0100
1000
0001
0010
,
1100
0000
0010
1000
0001
0000
1001
0000
,
0100
0010
0001
1000
0100
0000
1001
0000
,
0100
0010
0001
1000
0010
0000
0101
0000
,
0001
0010
0100
0010
0100
0000
0110
0000
,
0001
0010
0001
1000
0010
0000
1010
0000
,
0100
0010
0100
1000
0010
0000
1010
0000
,
0001
0010
0001
1000
0010
0100
0001
1000
,
0010
0100
0001
0100
0010
0100
0010
1000
,
1100
0000
0001
0010
0001
0010
0001
1000
,
0100
1000
0100
1000
0001
0100
0001
0100
,
0001
1000
0100
1000
0100
1000
0010
0100
,
0010
0100
0001
0100
0001
0000
0010
0000
,
0110
0000
0100
1000
0100
1000
0001
1000
,
0001
0010
0001
0010
0100
0010
0001
1000
,
0001
1000
0001
0010
0100
1000
0100
1000
,
0100
0010
0001
0010
0001
0010
0100
1000
,
1001
0000
0010
0100
1001
0000
0100
0010
,
0101
0000
0010
1000
0011
0000
0100
1000
,
0011
0000
0100
1000
0110
0000
0100
1000
,
0010
0100
0001
0100
,
0010
0100
0010
1000
,
0101
0100
0101
0010
1100
1000
0101
0100
,
1000
0001
1000
0001
1000
0001
1000
0001
0100
0000
1000
0000
0100
0000
1000
0000
,
0100
0010
0001
0010
0001
0010
0100
1000
,
0100
1000
0001
1000
0001
0010
0001
0100
,
0010
0100
0010
0100
0001
1000
0001
1000
,
0001
0010
0100
0010
0100
0010
0001
0100
,
0001
0100
0001
1000
0100
1000
0100
1000
,
0010
0100
0010
0100
0010
1000
0001
1000
,
0100
1000
0100
0010
0100
0010
0001
0010
,
0001
0000
0000
0100
0000
0000
1000
0000
0000
0000
0000
0000
0000
0000
0000
0000
;

//--------------- dance-single - B. M'Rey ----------------
#NOTEDATA:;
#STEPSTYPE:dance-single;
#DESCRIPTION:B. M'Rey;
#CREDIT:B. M'Rey;
#DIFFICULTY:Challenge;
#METER:16;
#RADARVALUES:0,0,0,0,0;
#NOTES:
0000
0000
0000
0000
,
0000
0000
0000
0000
,
0001
1000
0001
0000
0100
0010
0100
0000
,
0100
0000
1000
0000
0001
0000
0000
0000
0001
0000
1000
0000
0001
1000
0001
1000
,
0100
0000
0001
0000
0100
1000
0100
1000
0001
0000
1000
0000
0001
0100
0010
0100
,
0010
0000
1000
0000
0100
1000
0100
0010
0100
0000
0001
0000
0001
0100
0001
0100
,
0010
0000
1000
0000
0010
0100
0001
1000
0001
0000
1000
0000
0010
0100
0010
0100
,
0001
0000
1000
0000
0001
0100
1000
0001
0000
0000
1001
0000
0000
0110
0000
0000
,
0010
0100
0010
0100
0010
0000
0100
0000
0100
0010
0100
1000
0001
0000
0010
0000
,
0100
0010
0001
1000
0001
0000
0100
0000
0001
0100
0010
0100
0010
0000
0100
0000
,
0010
1000
0001
0010
0001
0000
0010
0000
0100
1000
0001
0010
0001
0000
0001
0000
,
0100
0010
0001
0100
0010
0000
0100
0000
0100
1000
0010
0100
0010
0000
0001
0000
,
0001
0010
0001
0010
0100
0000
0001
0000
0100
1000
0010
0100
0001
0000
1000
0000
,
0001
0010
0100
1000
0001
0000
0100
0000
0001
0010
0001
1000
0010
0000
0100
0000
,
0010
0100
0001
0010
0100
0000
0010
0000
0001
0010
0100
1000
0010
0000
0100
0000
,
0001
1000
0010
0100
0001
0000
0100
0000
0001
0010
0000
0010
0100
0000
0001
0100
,
0010
0000
0100
0010
0100
0000
0001
0010
0001
0010
1000
0000
0010
0000
0100
0000
,
0110
0000
0001
0010
0100
1000
0010
1000
0001
0000
0001
1000
1001
0000
0100
0000
,
0110
0000
0110
0000
0100
1000
0100
0010
0100
0000
0001
1000
0010
0000
0001
0000
,
1001
0000
0110
0000
0101
0100
1010
0000
,
0010
1000
0100
1000
0100
0000
0001
0000
0001
0100
0010
1000
0001
0000
0010
0000
,
1001
0000
0010
0100
0010
0100
0001
0100
0001
0000
0010
0100
0001
0000
0001
0010
,
1001
0000
0000
0000
1010
0000
0000
0000
0001
0100
0001
1000
0100
0000
0100
0000
,
0001
0000
1000
0000
0001
1000
0001
1000
0100
1000
0100
1000
0100
1000
0100
0010
,
0001
0000
0010
0000
0100
0000
1000
0000
0100
0000
1000
0100
1000
0000
0000
0000
,
0001
0000
0010
0000
0100
0000
0010
0000
0001
0000
0100
0001
0100
0000
0000
0000
,
0100
0000
1000
0000
0010
0000
0100
0000
0010
0000
0100
0010
0100
0000
0000
0000
,
0100
0000
0010
0000
0100
0000
0010
0000
0100
0000
1000
0010
1000
0000
0000
0000
,
0010
0000
0100
0000
0010
0000
1000
0000
0100
0000
1000
0100
1000
0000
0000
0000
,
0001
0000
0100
0000
0001
0000
0100
0000
0001
0000
1000
0001
1000
0000
0000
0000
,
0011
0010
0100
0010
0110
1000
0001
0100
,
1001
1000
0110
0100
1001
1000
1100
1000
,
1001
0000
0000
0000
0001
0010
0100
1000
0001
0000
0010
0000
0010
0100
0001
0010
,
0001
0000
0001
0000
0010
1000
0001
1000
0001
0000
0100
0000
0001
1000
0001
0100
,
0001
0000
0100
0000
0001
0010
0100
1000
0010
0000
0010
0000
0010
1000
0001
0100
,
0001
0000
0010
0000
0001
1000
0100
0010
1000
0000
0100
0000
0001
0000
0010
0000
,
0010
0100
0001
0010
0100
0000
0100
0000
0001
1000
0010
0100
0001
0000
0010
0000
,
0001
0100
0001
0010
0001
0000
0010
0000
0001
0010
0100
0010
0100
0000
0010
0000
,
0100
0010
0100
1000
0010
0000
0010
0000
0100
1000
0001
0100
0001
0000
0010
0000
,
0001
0010
0100
1000
0010
0000
0100
0000
0010
1000
0100
0010
0001
1000
0001
1000
,
0001
0000
0000
0000
0110
0000
0000
0011
0000
0000
0000
0000
1100
0000
0000
0011
,
0000
0000
0000
0000
0110
0000
0000
1001
0000
0000
0000
0000
0110
0000
0000
1001
,
0000
0000
0000
0000
0110
0000
0000
1100
0000
0000
0000
0000
0101
0000
0000
2020
,
0000
0000
0000
0000
,
0000
0000
0000
0000
0000
0000
0000
3030
,
1001
0010
0110
0100
0010
1000
0100
1000
,
1000
0001
1000
0001
1000
0001
1000
0001
1000
0000
0100
0000
0100
0010
0100
1000
,
0001
0000
0010
0000
0100
0010
0001
1000
0001
0000
0100
0000
0001
0100
0010
0100
,
0010
0000
0100
0000
0010
1000
0001
0010
0001
0000
0010
0000
0100
1000
0001
0010
,
0001
0000
0001
0000
0100
0010
0001
0100
0010
0000
0100
0000
0100
1000
0010
0100
,
0010
0000
0001
0000
0001
0010
0001
0010
0100
0000
0001
0000
0100
1000
0010
0100
,
0001
0000
1000
0000
0001
0010
0100
1000
0001
0000
0100
0000
0001
0010
0001
1000
,
0010
0000
0100
0000
0010
0100
0001
0010
0100
0000
0010
0000
0001
0010
0100
1000
,
0010
0000
0100
0000
0001
1000
0010
0100
0001
0000
0100
0000
0001
0010
0000
0010
,
0100
0000
0001
0100
0010
0000
0100
0010
0100
0000
0000
0000
0000
0000
0000
0000
;
