#VERSION:0.83;
#TITLE:Crossroads;
#ARTIST:GFRIEND;
#GENRE:K-POP;
#CREDIT:Maidzuki;
#MUSIC:Crossroards.ogg;
#BANNER:Crossroads-bn.png;
#BACKGROUND:Crossroads-bg.png;
#CDTITLE:./CDTITLES/Dance Dance Revolution SPACE.PNG;
#SAMPLESTART:53.609;
#SAMPLELENGTH:15;
#OFFSET:-0.100;
#BPMS:0=85.120,12=170.240,262=85.120;
#BGCHANGES:0.000=crossroads.avi=1.000=0=0=0=StretchNoLoop====,;

//--------------- dance-single - Maidzuki ----------------
#NOTEDATA:;
#STEPSTYPE:dance-single;
#DESCRIPTION:Maidzuki;
#DIFFICULTY:Beginner;
#METER:4;
#CREDIT:Maidzuki;
#RADARVALUES:0.216397,0.265344,0.041218,0.206092,0,147,143,4,20,0,0,0.216397,0.265344,0.041218,0.206092,0,147,143,4,20,0,0;
#NOTES:
0000
0000
0000
0000
,
0000
0000
0000
0000
,
0000
0000
0000
0000
,
1000
0000
0001
0000
,
1000
0000
0001
0000
,
0100
0000
1000
0000
,
0001
0000
0200
0000
,
1300
0010
0001
0000
,
0100
1000
0020
0000
,
1030
0000
0010
0000
,
0100
0000
1000
0000
,
0001
0000
1000
0000
,
0010
0000
1000
0010
,
0001
0000
0100
0000
,
1000
0100
0001
0100
,
1000
0000
0001
0000
,
0100
2000
0000
0000
,
3001
0000
1000
0000
,
0001
0100
0020
0000
,
0030
1000
0000
0001
,
0000
0100
0000
1000
,
0000
0001
0000
0100
,
0000
1000
0000
0001
,
0100
0000
0000
2000
0000
0000
3200
0000
,
0000
0300
0001
0000
0100
0000
1000
0000
,
0002
0000
0000
0000
,
2003
0000
0000
3001
,
0000
1000
0010
0100
,
0001
0000
0010
0100
,
1000
0000
0000
0010
0000
1000
0100
0000
,
0001
0100
0000
0000
,
1000
0000
0001
0100
,
1000
0010
0100
0000
,
2000
0000
0000
0000
,
3002
0000
0003
0000
,
1010
0110
0000
1000
,
0000
0001
1000
0200
,
0000
0000
0000
0000
0000
1300
0001
0000
,
2000
0000
0000
0000
,
3000
0001
0000
1000
0000
0000
0000
0100
,
0000
0000
0000
0001
0000
0000
0000
0001
,
0000
1000
0000
0002
0000
0000
0000
0000
,
0003
1000
0000
0002
0000
0000
0000
0000
,
1003
0001
0000
1000
,
0000
0001
0100
1000
,
0001
0000
0000
0000
0100
1000
0001
0000
,
2000
0000
3001
1000
,
0000
0100
0000
0000
0002
0000
0000
0000
,
0000
1003
0000
0000
0001
0000
0000
0000
,
0010
0200
0000
0000
0000
0000
0000
0310
,
2000
0000
0000
0000
,
3000
0001
0000
0000
1000
0000
0000
0000
,
0001
1000
0001
0000
,
0100
0000
0000
1000
0000
0000
0000
0001
,
0000
1000
0000
0001
0000
0000
0000
0000
,
0100
0000
0000
1000
0000
0000
0000
0001
,
0000
0100
0000
1000
0000
0000
0000
0000
,
0001
0000
0000
0010
0000
0000
0000
1000
,
0000
0100
0000
0001
0000
0000
0000
0000
,
1001
0000
0110
0000
,
1000
0000
0001
0000
,
0200
0000
0300
0000
,
1000
0100
0010
0002
,
0000
0000
0000
0000
,
0000
0000
0000
0003
0000
0000
0000
0000
;

//--------------- dance-single - Maidzuki ----------------
#NOTEDATA:;
#STEPSTYPE:dance-single;
#DESCRIPTION:Maidzuki;
#DIFFICULTY:Easy;
#METER:8;
#CREDIT:Maidzuki;
#RADARVALUES:0.279696,0.364139,0.082437,0.257615,0,190,182,8,25,0,0,0.279696,0.364139,0.082437,0.257615,0,190,182,8,25,0,0;
#NOTES:
0000
0000
0000
0000
,
0000
0000
0000
0000
,
0000
0000
0000
0000
,
1000
0000
0000
0001
0000
0000
0100
0000
,
1000
0000
0000
0100
0000
0000
0001
0000
,
0100
0000
0000
1000
0000
0000
0010
0000
,
0100
0000
0000
1000
0000
0000
0000
0000
,
0002
0000
0000
1003
0000
0000
0100
0000
,
2000
0000
0000
3001
0000
0000
0100
1000
,
0100
0000
0000
0001
0000
0000
0100
0000
,
1000
0000
0000
0010
0000
0000
0000
0000
,
1001
0100
0000
0010
,
1000
0001
0100
0010
,
0000
1001
0000
0100
0010
0000
0001
0000
,
1000
0000
0000
0000
0000
0000
0010
1000
,
0001
0000
0100
1000
0000
0001
0000
0100
,
0000
0001
0000
0000
0000
0000
0000
0100
,
1000
0000
0100
0000
0010
0000
1000
0001
,
0000
0100
1000
0001
0000
0110
0000
0000
,
0000
0100
0001
1000
0000
1000
0000
0010
,
0000
0100
0000
0010
0000
0000
0000
0000
,
0100
0010
0001
1000
0000
0100
0000
1000
,
0000
0001
0000
0100
0000
0000
0000
0000
,
2000
0000
0000
3200
0000
0000
0320
0000
,
0000
0030
0001
1000
0001
0000
0100
0000
,
2000
0000
0000
0000
3000
0100
0010
1000
,
0000
0000
0000
0000
0000
1001
0000
0000
,
0000
0100
0000
0010
0000
1000
0000
0001
,
0000
0100
0000
1000
0100
0000
0001
0000
,
1000
0000
0000
0001
0000
0100
0000
2000
,
0000
0000
0000
3200
0000
0000
0000
0300
,
1000
0001
0100
1000
,
0010
0200
0000
0300
,
1000
0001
1000
0002
,
0000
0000
0000
0000
,
1003
0000
0110
0000
1000
0001
0000
0100
,
0000
1000
0000
0001
0000
0100
0000
2000
,
0000
0000
0000
0000
3000
0001
0000
2000
,
0000
0000
0000
0000
0000
0000
0000
3000
,
0010
0000
1001
0000
0100
0010
0000
0100
,
0000
1000
0000
0001
0000
0100
0000
0020
,
0000
0000
0000
0000
,
0000
0000
0000
0000
0000
0030
0000
0000
,
1000
0000
0110
0000
1000
0001
0000
0100
,
0000
0010
0000
1000
0000
0001
0000
0010
,
0000
0000
0000
0100
0000
1000
0000
0001
,
0000
0100
0010
0000
0000
0000
0000
0000
,
2000
0000
0000
3001
0000
0000
0000
0000
,
0200
0000
0000
1300
0000
0000
0000
0100
,
0020
0000
0000
0000
0000
0000
1030
0200
,
0000
0000
0000
0000
0000
0300
0000
0000
,
1000
0001
0000
0100
0000
1000
0000
0001
,
0000
0100
0000
2000
0000
0000
3000
0000
,
0001
0100
0000
1000
0000
0001
0000
0100
,
0000
0010
0000
1000
0000
0000
0000
0000
,
0010
0100
0000
1000
0000
0001
0000
0100
,
0000
0010
0000
1000
0000
0000
0000
0000
,
0010
0100
0000
0001
0000
1000
0000
0001
,
0000
0100
0000
0010
0000
0000
0000
2000
,
0000
0000
0000
3020
0000
0000
0000
0032
,
0000
0000
0000
0203
0000
0000
0300
2002
,
0000
0000
0000
0000
3003
0000
0000
0100
,
0000
0010
0100
2000
,
0000
0000
0000
0000
,
0000
3000
0000
0000
;

//--------------- dance-single - Maidzuki ----------------
#NOTEDATA:;
#STEPSTYPE:dance-single;
#DESCRIPTION:Maidzuki;
#DIFFICULTY:Medium;
#METER:9;
#CREDIT:Maidzuki;
#RADARVALUES:0.344468,0.39647,0.092741,0.257615,0,234,225,9,25,0,0,0.344468,0.39647,0.092741,0.257615,0,234,225,9,25,0,0;
#NOTES:
0000
0000
0000
0000
,
0000
0000
0000
0000
,
0000
0000
0000
0000
,
1000
0100
1000
0010
,
0100
0001
0010
0100
,
1000
0001
0010
0100
,
0001
1000
0010
0100
,
0001
0100
1000
0010
0000
0100
1000
0000
,
0001
0100
0010
2000
0000
0000
0000
0000
,
3100
0001
0100
1000
,
0001
0010
1000
0010
,
0100
0000
1000
0001
0000
0100
0000
1000
,
0000
0001
0000
0100
0000
1000
0000
0000
,
0100
0000
0010
1000
0000
0001
0000
0100
,
0000
4000
0000
0000
0000
3000
0001
0100
,
1000
0000
0010
0001
0000
1000
0000
0010
,
0000
0100
0000
0000
0000
0000
0000
0100
,
1000
0000
0001
0100
0000
0010
0000
1000
,
0000
0001
0100
1000
0000
0100
0000
0000
,
1000
1000
0100
0010
0000
0001
0100
0010
,
0000
1000
0000
0100
0000
0100
1000
0000
,
0001
0100
0010
1000
0000
0100
0010
1000
,
0000
0001
0000
0100
0000
1000
0001
0000
,
0200
0000
0000
2300
0000
0000
3002
0000
,
0000
0003
0100
0000
1000
0000
0010
0000
,
2002
0000
0000
0000
3003
0100
0010
0200
,
0000
0000
0000
0000
0300
1001
0000
0000
,
0100
1000
0001
0100
,
0010
0000
0000
1000
0010
0000
0100
0000
,
2000
0000
3001
0000
0100
0010
0000
0004
,
0000
0000
2003
0000
0000
0000
0000
3000
,
0100
0000
0000
1000
0000
0001
0000
0100
,
0000
0010
0000
1001
0000
0100
0010
0000
,
0002
0000
0000
0000
0003
1000
0100
0020
,
0000
0000
0000
0030
,
1001
0000
0110
0000
1000
0100
0001
0000
,
0100
0010
1000
0010
,
0200
0000
0000
0000
0000
0300
1000
0001
,
0100
0000
1001
0000
,
0100
0000
0010
0000
1000
0100
0001
0000
,
0100
0010
1000
0001
,
0200
0000
0000
0000
0000
0000
0000
0300
,
1000
0002
0000
0003
,
1000
0000
0010
0000
0100
0001
0000
1000
,
0000
0100
0000
1000
0000
0001
0000
0020
,
0000
0030
0000
0100
1000
0100
0001
0000
,
0100
0000
0010
2000
0000
0000
3000
0000
,
0000
1001
0000
0000
0100
0000
0001
0000
,
1000
0000
0000
0100
0000
1000
0001
0000
,
0100
2000
0000
0000
0000
0000
3100
0020
,
0000
0000
0000
0030
,
1000
0100
0000
0001
0000
1000
0000
0100
,
0000
0001
0000
0100
0000
1000
0010
0000
,
0100
1000
0000
0010
0000
0100
0000
0001
,
0000
1000
0000
0100
0000
0001
1000
0000
,
0100
0010
0000
1000
0000
0001
0000
0100
,
0000
0010
0000
1000
0000
0010
0100
0000
,
0001
0100
0000
1000
0000
0010
0000
0100
,
0000
0001
0000
2000
0000
0000
0000
3000
,
1001
0000
0000
0100
0000
1000
0100
0010
,
0000
0001
1000
0000
0100
0000
0000
2002
,
0000
0000
0000
0000
3003
0000
0000
0200
,
0000
0320
0230
2300
,
0000
0000
0000
0000
,
0000
3000
0000
0000
0000
0000
0000
0000
;

//--------------- dance-single - Maidzuki ----------------
#NOTEDATA:;
#STEPSTYPE:dance-single;
#DESCRIPTION:Maidzuki;
#DIFFICULTY:Hard;
#METER:10;
#CREDIT:Maidzuki;
#RADARVALUES:0.4166,0.530687,0.082437,0.185483,0.010305,283,275,8,18,3,0,0.4166,0.530687,0.082437,0.185483,0.010305,283,275,8,18,3,0;
#NOTES:
0000
0000
0000
0000
,
0000
0000
0000
0000
,
0000
0000
0000
0000
,
1000
0100
1000
0001
0100
0010
1000
0000
,
0001
0100
0010
1000
0010
0100
0001
0000
,
1000
0001
0100
0010
0001
1000
0100
0010
,
1000
0001
0100
2000
0000
0000
0000
0000
,
3100
0010
1000
0001
0000
0100
0010
1000
,
0001
0100
1000
0001
0000
0000
0100
0010
,
0001
0000
0100
1000
0000
0100
0010
0001
,
1000
0000
0100
0020
0000
0000
0000
0030
,
1001
0000
0100
0010
0000
1000
0000
0001
,
0000
0100
1000
0001
0100
0010
0000
0000
,
0100
0000
1000
0100
0000
0010
0000
0001
,
0000
0100
1000
0001
0100
1000
0010
0100
,
0001
0000
0100
0010
0000
1000
0000
0001
,
0000
0100
1000
0000
0000
0000
0000
0001
,
0100
0000
0010
1000
0000
0100
0000
0010
,
0000
1001
0100
0010
0000
1001
0000
0000
,
0100
1000
0001
0100
0000
1000
0100
0010
,
0000
0100
0000
0010
0000
1000
0001
0000
,
0100
0010
1000
0001
0000
0100
1000
0010
,
0000
0100
0000
1000
0001
0100
0000
0000
,
2000
0000
0000
3200
0000
0000
0320
0000
,
0000
0030
0100
0000
1000
0000
0010
0000
,
0200
0000
0000
0300
0000
1000
0001
0020
,
0000
0000
0000
0000
0000
MM3M
0000
0000
,
0000
0000
0010
1000
0100
0010
0001
1000
,
0000
0000
0000
0000
0000
0000
0100
0010
0000
0000
0000
1000
0000
0000
0001
0000
,
0000
0000
0100
0000
1000
0100
0000
0001
,
0000
0200
0000
0000
0000
0000
0300
0000
,
2000
0000
3000
0100
0000
0010
0000
1000
,
0000
0001
0000
0100
0000
1000
0010
0100
,
4000
0000
0000
0000
0000
3100
0010
1000
,
0001
0100
1000
0000
0001
0000
0100
0000
,
1000
0000
0110
0000
0001
1000
0100
0010
,
0000
1000
0000
0010
0000
0001
0010
4000
,
0000
0000
0000
0000
3000
0010
0001
0200
,
0000
0000
0000
0300
1000
0000
0000
0000
,
1000
0000
0001
0000
0100
1000
0010
0100
,
0001
0100
1000
0010
,
0400
0000
0000
0300
,
1000
0010
0004
0000
0000
0000
0003
0100
,
1000
0000
0001
0000
0010
1000
0000
0100
,
0000
0001
0000
1000
0000
0100
0000
1001
,
0000
0010
0100
1000
0100
0001
0000
1100
,
0000
0010
0100
1001
0000
1001
0000
0000
,
0100
0010
0100
1000
0001
0100
0010
0000
,
1000
0010
0100
0001
0001
1000
0100
0000
,
0001
0040
0000
0000
0000
0030
1000
0400
,
0000
0000
0000
0000
,
1300
0010
0000
0100
0000
1000
0010
0001
,
0000
1000
0010
0100
0000
1000
0001
0000
,
0100
0010
0000
1000
0000
0001
0100
1000
,
0000
0001
0100
0010
0000
1000
0010
0000
,
0001
0100
0000
0010
0000
1000
0000
0100
,
0010
1000
0001
0100
0000
1000
0010
0000
,
0100
0010
0000
1000
0000
0001
0000
0100
,
0000
1000
0001
0200
0000
0000
0000
0000
,
0302
0000
0000
0203
0000
0301
1000
0100
,
0000
0001
0100
0010
0000
1000
0100
0020
,
0000
0000
0000
0000
0030
0000
0000
2000
,
0000
3200
0320
0032
,
0000
0000
0000
0000
,
0000
0000
0000
0003
0000
0000
0000
0000
;
