#TITLE:Coastral;
#ARTIST:Sound Souler;
#GENRE:JAZZ FUSION;
#CREDIT:B. M'Rey;
#MUSIC:Coastral.ogg;
#BANNER:Coastral-bn.png;
#BACKGROUND:Coastral-bg.png;
#CDTITLE:./CDTITLES/Dance Dance Revolution SPACE.PNG;
#SAMPLESTART:15.98;
#SAMPLELENGTH:15;
#OFFSET:-0.100;
#BPMS:0=136;

//--------------- dance-single - B. M'Rey ----------------
#NOTES:
     dance-single:
     B. M'Rey:
     Beginner:
     4:
     0,0,0,0,0:
0000
0000
0000
0000
,
0000
0000
0000
0000
,
0000
0000
0000
0000
,
0000
0000
0000
0000
,
0000
0000
0000
0000
,
1000
0000
1000
0000
,
0001
0000
0001
0000
,
0010
0000
0100
0000
,
0001
0010
1000
0000
,
0001
0000
1000
0000
,
0010
0100
1000
0000
,
0001
0000
0010
0000
,
0001
0010
1000
0000
,
0100
0000
1000
0000
,
0001
0000
0010
0001
,
1000
0000
0000
0000
0000
0001
0010
0000
,
0100
0100
1000
1000
,
0001
1000
0000
0000
0001
1000
0000
0000
,
0001
1000
0000
0000
0010
0000
0100
0000
,
1000
0001
0000
0000
1000
0001
0000
0000
,
1000
0001
0000
0000
0010
0000
0100
0000
,
0010
0100
0000
0000
0010
0100
0000
0000
,
0010
0000
0100
0000
0010
0100
0000
0000
,
0110
0000
0000
0000
1000
0100
0000
0001
,
0010
0000
0000
0000
,
1000
0001
0010
0001
,
0100
1000
0100
1000
,
0001
0000
0010
0000
,
0100
0000
0001
0010
,
1000
0000
0001
0000
,
0100
0000
0010
1000
,
0100
0000
0001
0000
,
1000
0000
0001
0010
,
0100
0000
0001
0000
,
1000
0000
0010
0100
,
1000
0000
0001
0000
,
0010
0100
0001
0000
,
1000
0000
0010
0100
,
0001
0000
0000
0000
,
1000
0000
0010
0100
,
1000
0000
0000
0000
,
1001
0000
0000
0000
,
0000
0000
0000
0000
0000
0100
0000
0000
,
0100
0000
0000
0000
,
0000
0000
0000
0010
,
0010
0000
0000
0000
,
0000
0000
0000
0000
0000
0001
0000
0000
,
0001
0000
0000
0000
,
1001
1001
1001
1001
,
0010
0000
0000
0000
,
0100
0000
0000
0000
,
0001
0000
0000
0000
,
1000
0000
0000
0000
,
0010
0000
0000
0000
,
0100
0000
0000
0000
,
0001
0000
0000
0000
,
1000
0000
0000
0000
,
0010
0000
0000
0000
,
0000
0000
0000
0000
,
0001
0000
0000
0000
,
1000
0000
0000
0000
,
0100
0000
0000
0000
,
0010
0000
0000
0000
,
0001
0000
0000
0000
,
1000
0000
0000
0000
,
0001
0000
1000
0000
,
0010
0000
0100
0000
,
0001
0000
1000
0000
,
0010
0100
0001
0000
,
1000
0000
0010
0000
,
0100
0000
0000
0000
,
0001
0000
1000
0000
,
0010
0000
0000
0000
,
0001
0000
1000
0000
,
0010
0000
0100
0000
,
0001
0000
1000
0000
,
0010
0000
0100
0000
,
1000
0000
0001
0000
,
0100
0000
0010
0000
,
0001
0000
1000
0000
,
0010
0000
0100
0000
,
0000
0010
0000
0000
;

//--------------- dance-single - B. M'Rey ----------------
#NOTES:
     dance-single:
     B. M'Rey:
     Easy:
     7:
     0,0,0,0,0:
0000
0000
0000
0000
,
0000
0000
0000
0000
,
0000
0000
0000
0000
,
0000
0000
0000
0000
,
0000
0000
0000
0000
,
0000
2000
0000
3020
,
0000
0032
0000
0203
,
0000
0310
0001
0010
,
0100
0010
0100
1000
,
0001
1000
0010
0000
0010
0100
0010
0000
,
0001
0001
1000
0100
,
0100
1000
0100
0000
0001
1000
0001
0000
,
0001
0000
0010
0100
0010
0000
0010
0000
,
0100
0100
0010
0001
,
1000
0000
0001
0000
0100
0000
0100
1000
,
0100
0000
0001
0000
0100
0000
0001
1000
,
0002
0023
0230
2300
,
3010
0000
0000
1000
0010
0100
0000
0100
,
0001
0100
0000
1000
0010
1000
0010
0000
,
0001
0000
0000
0000
0010
1000
0010
1000
,
0010
0000
0001
0000
0001
0100
0010
1000
,
0100
0000
0001
0000
0001
0000
0000
1000
,
0010
0000
0010
0001
0100
0000
0000
1000
,
0001
0000
0100
1000
0100
0010
0100
0010
,
0001
1000
0001
0100
,
0001
1000
0010
0000
0010
0100
0010
0000
,
0001
0000
0001
0000
1000
0001
0100
0000
,
0100
0000
1000
0000
0001
1000
0001
0000
,
0001
0000
0010
0000
0010
0100
0010
0000
,
0100
0000
0100
0001
0010
0000
0001
0100
,
1000
0000
0001
0000
0100
0000
0100
1000
,
0200
0000
0000
0002
0000
0000
0000
0000
,
0303
0010
0100
1000
,
0001
1000
0010
0000
0010
1000
0001
0000
,
0001
1000
0001
0000
0010
0000
0100
0000
,
1000
0000
0000
0010
0000
0000
0010
0000
0000
0001
0000
0000
0001
0000
0010
0000
,
0001
0000
0000
0010
0000
0000
0010
0000
0100
0000
0000
0000
0100
0000
1000
0000
,
0010
0000
0010
0000
0100
1000
0001
0010
,
0200
0000
0000
0000
,
0310
0000
0001
0000
0010
0100
0010
1000
,
0001
1000
0001
1000
,
0001
0000
0000
0000
,
0000
0000
0000
0000
0000
0000
0000
0000
0000
0000
1000
0000
0000
0010
0000
0000
,
0001
0000
0000
0000
,
0000
0000
0000
0000
0000
0000
0000
0000
0000
0000
0001
0000
0000
0010
0000
0000
,
1000
0000
0000
0000
,
0000
0000
0000
0000
0000
0000
0000
0000
0000
0000
0100
0000
0000
0010
0000
0000
,
1001
0100
0001
0010
,
1001
1001
1001
1001
,
0002
0000
0000
0000
,
0203
0000
0000
0000
,
0320
0000
0000
0000
,
2030
0000
0000
0000
,
3002
0000
0023
0000
,
2030
0000
3200
0000
,
0310
0001
0010
0100
,
0010
0100
1000
0000
,
0002
0000
0000
0000
,
0003
0000
0000
0100
,
0020
0000
0000
1030
,
0002
0000
0103
1000
,
0200
0000
0000
0000
0000
0000
0301
0100
,
0000
0010
0000
0001
0000
1000
0000
0001
,
0020
0000
0000
0000
0000
0000
0000
0032
,
0000
0000
0000
0000
0000
0000
0000
0000
0000
0000
2000
0000
0000
0000
0000
3003
,
0001
1000
0010
0000
0010
1000
0001
0000
,
0001
1000
0001
0000
0010
0000
0100
0000
,
1000
0000
0000
0010
0000
0000
0010
0000
0000
0001
0000
0000
0001
0000
0010
0000
,
0001
0000
0000
0010
0000
0000
0010
0000
0100
0000
0000
0000
0100
0000
1000
0000
,
0010
0000
0010
0000
0100
1000
0001
0010
,
0200
0000
0000
0000
,
0310
0000
0001
0000
0010
0100
0010
1000
,
0001
1000
0001
1000
,
0001
0000
0001
1000
,
0001
1000
0001
0010
,
0100
0000
0100
0010
,
0100
0010
0001
1000
,
0100
0000
0100
1000
,
0001
0010
0001
0010
,
0001
0000
0010
1000
,
0010
0100
0010
0100
,
0000
0220
0000
0000
,
0000
0000
0000
0330
;

//--------------- dance-single - B. M'Rey ----------------
#NOTES:
     dance-single:
     B. M'Rey:
     Medium:
     11:
     0,0,0,0,0:
0000
0000
0000
0000
,
0000
0000
0000
0000
,
0000
0000
0000
0000
,
0000
0000
0000
0000
,
0000
0000
0000
0000
,
1000
0000
0000
0000
0001
0000
0000
0100
0000
0000
0000
0000
0100
0000
0000
0010
,
0000
0000
0000
0000
0001
0000
0000
1000
0000
0000
0000
0000
0010
0000
0000
1000
,
0000
0010
1000
0001
,
0100
0001
0100
0000
,
1000
0001
0010
0000
1000
0001
0100
0000
,
0100
0010
0100
0001
1000
0000
1000
0000
,
1000
0010
0100
0000
0100
0001
0100
0010
,
1000
0100
1000
0100
1000
0000
0100
0010
,
0100
0000
1000
0001
1000
0000
1000
0010
,
0100
0000
1000
0100
1000
0000
1000
0010
,
0100
0000
0010
0000
0100
0001
1000
0100
,
1000
1000
0100
0100
,
1000
0001
1000
0000
1000
0100
0010
0000
,
0010
0100
1000
0000
1000
0010
1000
0001
,
0010
0000
0010
0000
1000
0010
1000
0010
,
1000
0000
0010
0000
0010
0001
1000
0010
,
1000
0000
1000
0100
0010
0000
0010
0100
,
1000
0000
0000
0001
0000
0000
0001
0000
1000
0000
0000
0000
0100
0000
0010
0000
,
0100
0000
1000
0001
0010
0001
1000
0001
,
0010
0100
0010
0100
,
0001
1000
0001
0000
0100
1000
0001
0000
,
0001
0010
0001
0100
0010
0000
0010
0000
,
0001
0000
0000
1000
0000
0000
0001
0000
1000
0000
0100
0000
0010
0000
1000
0000
,
0010
0000
0000
1000
0000
0000
0010
0000
0001
0000
0100
0000
0001
0000
0100
0000
,
0010
0000
0010
1000
0001
0000
0001
0100
,
0001
0000
0100
0010
0100
0010
0001
1000
,
0002
0203
0000
0300
,
0100
0000
0001
0010
0001
0010
0001
1000
,
0010
1000
0010
0000
0001
0010
0001
0000
,
0001
1000
0010
1000
0010
0000
0010
0000
,
0001
0000
0000
0100
0000
0000
1000
0000
0000
0100
0000
0000
0001
0000
0010
0000
,
0001
0000
0000
1000
0000
0000
0001
0000
0010
0000
0000
0000
0010
0000
0100
0000
,
0010
0000
0000
0100
0000
0000
0001
0000
0100
0000
1000
0000
0001
0000
0100
0000
,
0001
1000
0001
1000
0001
1000
0001
1000
0001
1000
0001
1000
0001
0000
0010
0000
,
0001
1000
0100
0010
0100
0010
0100
1000
,
0001
0000
0100
0000
0000
0010
0000
0000
0010
0000
0000
0100
0000
0000
0001
0000
,
0100
1000
0001
1000
,
0010
0000
0000
0000
1000
0000
0000
0000
0100
0000
0010
0000
0000
0100
0000
0000
,
0010
0001
0100
1000
,
0010
0000
0000
0000
0100
0000
0000
0000
0010
0000
0100
0000
0000
0001
0000
0000
,
0010
0100
0001
1000
,
0001
0000
0000
0000
1000
0000
0000
0000
0100
0000
1000
0000
0000
0100
0000
0000
,
0001
0000
0000
0001
1000
0000
1000
0010
0000
0100
0010
0000
,
1001
0110
0011
1010
,
1000
0001
0010
0000
1000
0001
0100
0000
,
0100
0000
0100
0000
1000
0001
1000
0000
,
1000
0010
0100
0000
0100
0000
0100
0000
,
1000
0100
1000
0000
1000
0000
0100
0010
,
1000
0000
0000
0000
0001
0000
0000
0100
0000
0000
0000
0000
0100
0000
0000
0010
,
0000
0000
0000
0000
0001
0000
0000
1000
0000
0000
0000
0000
0010
0000
0000
1000
,
0000
0010
1000
0001
,
0100
0001
0200
0000
,
1300
0001
1000
0001
,
1000
0000
0000
0000
0000
0000
0010
0100
,
0010
0000
0000
0000
0000
0000
0100
1000
,
0100
0000
0000
1000
0001
0010
0001
0010
,
0001
0000
0000
0000
0000
0000
1000
0100
,
0000
1000
0000
0100
0000
1000
0001
0010
,
0000
0000
0000
0000
0000
0000
0000
0200
,
0000
0000
0000
0000
2000
0000
0000
3300
,
0010
1000
0010
0000
0001
0010
0001
0000
,
0001
1000
0010
1000
0010
0000
0010
0000
,
0001
0000
0000
0100
0000
0000
1000
0000
0000
0100
0000
0000
0001
0000
0010
0000
,
0001
0000
0000
1000
0000
0000
0001
0000
0010
0000
0000
0000
0010
0000
0100
0000
,
0010
0000
0000
0100
0000
0000
0001
0000
0100
0000
1000
0000
0001
0000
0100
0000
,
0001
1000
0001
1000
0001
1000
0001
1000
0001
1000
0001
1000
0001
0000
0010
0000
,
0001
1000
0100
0010
0100
0010
0100
1000
,
0001
0000
0100
0000
0000
0010
0000
0000
0010
0000
0000
0100
0000
0000
1000
0000
,
0001
0000
0001
0000
0001
0010
0100
0010
,
0100
0010
0001
1000
0001
1000
0001
0010
,
0100
0000
0100
0000
0001
1000
0001
1000
,
0001
0100
0010
0100
0010
0100
0001
1000
,
0001
0000
0001
0000
0010
0100
0010
0100
,
0001
0010
0100
0010
0100
0010
0001
1000
,
0010
0000
0010
0000
0001
0010
0100
0010
,
0100
0010
0001
0100
0001
0100
0001
0010
,
0000
0002
0000
0000
,
0000
0000
0000
0003
;

//--------------- dance-single - B. M'Rey ----------------
#NOTES:
     dance-single:
     B. M'Rey:
     Hard:
     16:
     0.666,0.973,0.105,0.335,0.621:
0000
0000
0000
0000
,
0000
0000
0000
0000
,
0000
0000
0000
0000
,
0000
0000
0000
0000
,
0000
0000
0000
0000
,
0001
0000
0000
0000
0010
1000
0000
0010
0000
0000
0000
0000
0100
1000
0000
0100
,
0000
0000
0010
0000
0001
0100
0000
0010
0000
0000
1000
0000
0010
0100
0000
1000
,
0001
0100
0001
0100
0001
0010
0100
1000
0100
1000
0010
1000
0010
0100
0010
0100
,
0001
0000
0001
0000
0010
1000
0000
0010
0000
0000
0100
0000
0002
0000
0003
0000
,
0001
0000
0010
0100
0000
0000
1000
0000
0010
0000
0100
0001
0000
0000
1000
0000
,
0100
0010
0100
0010
0100
0000
0001
1000
0100
0010
0000
0100
0001
1000
0010
0000
,
0001
0000
0100
0001
0000
0000
0100
0000
0010
0000
0100
0000
0010
0000
1000
0000
,
0010
0000
1000
0000
0001
0100
0000
0001
0000
0000
0100
0000
0010
1000
0000
0001
,
0000
0000
0010
0000
0001
0010
0000
0001
0000
0000
1000
0000
0010
1000
0000
0010
,
0000
0000
0100
0000
0001
0100
0000
0010
0000
0000
0100
0000
0001
0000
1000
0000
,
0001
0000
0000
0000
0001
0000
0000
0000
0100
0000
0010
0100
0010
0100
0010
0100
,
0001
0010
0010
0001
,
0100
0010
0001
0000
0000
0000
0010
0000
0100
1000
0100
0000
0000
0000
1000
0000
,
0001
0010
0001
0000
0000
0000
0100
0000
0001
0100
0010
0000
0001
0000
1000
0000
,
0100
0000
1000
0010
0000
0000
0000
0000
0001
0000
0010
0000
0100
0000
1000
0000
,
0100
0000
1000
0001
0000
0000
0010
0000
0100
0000
1000
0000
0001
0000
0010
0000
,
0100
0000
0000
0001
0000
0000
0010
0001
1000
0000
0000
0000
0000
0100
0010
0100
,
0010
0000
0000
1000
0000
0000
1000
0001
0100
0000
0000
0000
0000
0000
0100
0001
,
0010
0000
0000
0010
0100
1000
0001
0010
,
0100
0000
0100
0000
0100
0010
0001
0010
,
0100
0000
1000
0100
0000
0000
1000
0000
0001
0000
0010
0001
0000
0000
0010
0000
,
0100
1000
0010
0000
0001
0000
0010
0000
0001
0000
1000
0000
0001
0000
0010
0000
,
0100
0000
0000
0001
0000
0000
0010
0000
0100
0000
1000
0000
0010
0000
1000
0000
,
0100
0000
0010
0100
0000
0000
0010
0000
0100
0000
1000
0000
0001
0000
0010
0000
,
0100
0000
0000
0000
0010
1000
0000
0010
0100
0000
0000
0000
0001
0100
0000
0001
,
0100
0000
0010
1000
0010
0100
0001
1000
,
0020
0000
0000
0230
0000
0000
0300
1000
,
0100
0000
0001
0010
0001
0010
0001
1000
,
0010
0000
1000
0010
0000
0000
0100
0000
0001
0000
1000
0010
0000
0000
0100
0000
,
0001
0000
0010
0100
0010
0000
0100
0000
0010
0001
1000
0000
0010
1000
0100
0000
,
0001
0000
0000
1000
0000
0000
0010
0000
0000
0001
0000
0000
0010
0100
1000
0010
,
0100
0000
0010
0100
0000
0010
0000
0100
0000
0000
1000
0000
0001
0000
0100
0010
,
1000
0000
1000
0010
0000
0100
0000
0010
0000
0000
0100
0000
0001
0000
0010
0000
,
0001
0010
0001
0010
0001
0010
0001
0010
0001
0010
0001
0010
0001
0010
0001
0010
0001
0010
0100
0000
0000
1000
0000
0000
,
0010
0000
0100
1000
0000
0010
0000
0001
0010
1000
0100
0010
0001
0100
1000
0001
,
0010
0100
0010
1000
0010
1000
0100
0010
,
0001
1000
0001
0010
,
0001
0000
0000
0000
0010
0000
0000
0000
0100
0000
0010
0000
0000
0100
0000
0000
,
0100
0000
0000
0010
0100
0000
0100
0010
0000
0001
1000
0000
,
1000
0000
0000
0000
0100
0000
0000
0000
0000
0000
0000
0000
0100
0000
0000
0000
0010
0000
0000
0000
0000
0000
0000
0000
0001
0000
0000
0000
0000
0000
0010
0000
0000
0000
0000
0000
0000
0000
0000
0100
0000
0000
0000
0000
0000
0000
0000
0000
,
0100
0000
0000
0000
0001
1000
0001
1000
0001
0100
0010
0100
0010
0100
0001
1000
,
0001
1000
0010
1000
0001
0100
0001
0100
0001
0000
0010
0000
0000
0010
0000
0000
,
0001
0000
0000
0001
1000
0001
1000
0010
1000
0010
0100
0010
,
0001
1001
1001
1001
,
0100
0000
0001
0010
0000
0000
0001
0000
0100
0000
0001
0100
0000
0000
0010
0000
,
0100
0010
1000
0100
0001
0000
0010
0000
1000
0000
0100
0000
1000
0000
0100
0000
,
0010
0000
0100
0010
0000
0000
0001
0000
0100
0000
0001
0000
0100
0000
0001
0000
,
1000
0000
0100
1000
0000
0000
0100
0000
1000
0000
0010
0000
0100
0000
0010
0000
,
0001
0000
0000
0000
0010
1000
0000
0010
0000
0000
0000
0000
0100
1000
0000
0100
,
0000
0000
0010
0000
0001
0100
0000
0010
0000
0000
1000
0000
0010
0100
0000
1000
,
0001
0100
0001
0100
0001
0010
0100
1000
0100
1000
0010
1000
0010
0100
0010
0100
,
0001
0000
0001
0000
0010
1000
0000
0010
0000
0000
0100
0000
0002
0000
0000
0000
,
1003
0001
1000
0001
,
1000
0000
0000
0000
0000
0000
0100
0010
,
0100
0000
0000
0000
0000
0000
0010
1000
,
0010
0000
0000
1000
0001
0100
0001
0100
,
0001
0000
0000
0000
0000
0000
1000
0010
,
0000
1000
0000
0010
0000
1000
0001
0100
,
0000
0000
0000
0000
0000
0000
0000
0000
0000
0000
0000
0000
0000
0000
0010
1000
,
0010
0000
1000
0010
,
0010
0000
0001
0010
0000
0000
0100
0000
1000
0000
0001
0010
0000
0000
0100
0000
,
1000
0000
0010
0100
0010
0000
0100
0000
0010
1000
0001
0000
0010
0001
0100
0000
,
1000
0000
0000
0001
0000
0000
0010
0000
0000
1000
0000
0000
0010
0100
0001
0010
,
0100
0000
0010
0100
0000
0010
0000
0100
0000
0000
0001
0000
1000
0000
0100
0010
,
0001
0000
0001
0010
0000
0100
0000
0010
0000
0000
0100
0000
1000
0000
0010
0000
,
1000
0010
1000
0010
1000
0010
1000
0010
1000
0010
1000
0010
1000
0010
1000
0010
1000
0010
0100
0000
0000
0001
0000
0000
,
0010
0000
0100
0001
0000
0010
0000
1000
0010
0001
0100
0010
1000
0100
0001
1000
,
0010
0000
0000
0000
0000
0000
0000
0000
0000
0000
0000
0000
0000
0000
0000
0000
0000
0000
0000
0000
0000
0000
0000
0000
0100
0000
0000
0000
0000
0000
0000
0000
0000
0000
0000
0000
0000
0000
0000
0000
0000
0000
0000
0000
0000
0000
0000
0000
0010
0000
0000
0000
0000
0000
0000
0000
0000
0000
0000
0000
0000
0000
0000
0000
0000
0000
0000
0000
0000
0000
0000
0000
0001
0000
0000
0000
0000
0000
0000
0000
0000
0000
0000
0000
0000
0000
0000
0000
0000
0000
0000
0000
0000
0000
0000
0000
0010
0000
0000
0000
0000
0000
0000
0000
0000
0000
0000
0000
0000
0000
0000
0000
0000
0000
0000
0000
0000
0000
0000
0000
0001
0000
0000
0000
0000
0000
0000
0000
0000
0000
0000
0000
0000
0000
0000
0000
0000
0000
0000
0000
0000
0000
0000
0000
0100
0000
0000
0000
0000
0000
0000
0000
0000
0000
0000
0000
0000
0000
0000
0000
0000
0000
0000
0000
0000
0000
0000
0000
0010
0000
0000
0000
0000
0000
0000
0000
0000
0000
0000
0000
0000
0000
0000
0000
0000
0000
0000
0000
0000
0000
0000
1000
,
1000
0000
1000
0000
1000
0100
0010
0100
,
0010
0100
1000
0001
1000
0001
1000
0100
,
0010
0000
0010
0000
1000
0001
1000
0001
,
1000
0010
0100
0010
0100
0010
1000
0001
,
1000
0000
1000
0000
0100
0010
0100
0010
,
1000
0100
0010
0100
0010
0100
1000
0001
,
0100
0000
0100
0000
1000
0100
0010
0100
,
0010
0100
1000
0010
1000
0010
1000
0100
,
0000
2000
0000
0000
,
0000
0000
0000
3000
;
