#VERSION:0.83;
#TITLE:Chaos;
#ARTIST:Astrix;
#GENRE:PSY-TRANCE;
#CREDIT:B. M'Rey & JMR;
#MUSIC:Chaos.ogg;
#BANNER:Chaos-bn.png;
#BACKGROUND:Chaos-bg.png;
#CDTITLE:./CDTITLES/Dance Dance Revolution SPACE.PNG;
#SAMPLESTART:16.917;
#SAMPLELENGTH:15;
#OFFSET:-0.252;
#BPMS:0.000=144.016;

//--------------- dance-single - B. M'Rey & JMR ----------------
#NOTEDATA:;
#STEPSTYPE:dance-single;
#DESCRIPTION:B. M'Rey & JMR;
#DIFFICULTY:Beginner;
#METER:4;
#RADARVALUES:0,0,0,0,0;
#CREDIT:B. M'Rey & JMR;
#NOTES:
0000
0000
0000
0000
,
0000
0000
0000
0000
,
1000
0000
0010
0000
,
0100
0000
0000
0000
,
0001
0000
1000
0000
,
0010
0000
0000
0000
,
0100
0000
1000
0000
,
0010
0000
0000
0000
,
0001
0000
0100
0000
,
0010
0000
0000
0000
,
1000
0000
0001
0000
,
1000
0000
0010
0010
,
0100
0000
0001
0000
,
0010
0000
0001
0001
,
0001
0000
1000
0000
,
0010
0000
0100
0100
,
0100
0000
1000
0000
,
0010
0000
0001
0001
,
0001
0000
0100
0000
,
0010
0000
1000
1000
,
1000
0000
0100
0000
,
0010
0000
1000
1000
,
1000
0000
0100
0000
,
0010
0000
0001
0001
,
0001
0000
0100
0000
,
0010
0000
0100
0100
,
0100
0000
0010
0000
,
1000
0000
0010
0010
,
0010
0000
0001
0000
,
0100
0000
0001
0100
,
0100
0000
1000
0000
,
0010
0000
0100
0100
,
0100
0000
0010
0000
,
0001
0000
0000
0000
,
1000
0000
0000
0010
,
0100
0000
0000
0010
,
0001
0000
0000
0100
,
1000
0000
0000
0010
,
0100
0000
0000
0001
,
0010
0000
0000
0000
,
1000
0000
0100
0000
,
1000
0000
0010
0000
,
0100
0000
0000
0000
,
0001
0000
0000
0000
,
0010
0000
0000
0000
,
1000
0000
0000
0000
,
0001
0000
0001
0000
,
1000
0000
1000
0000
,
0100
0000
0010
0000
,
0010
0010
0000
0100
,
0010
0010
0000
0001
,
1000
0001
0000
0100
,
0010
0100
0000
0001
,
1000
0010
0000
0100
,
0010
0001
0000
1000
,
0100
1000
0000
0010
,
0100
0001
0000
1000
,
0010
0000
0100
0000
,
0001
0000
0000
1000
,
0001
0000
0000
0100
,
0010
0000
0000
1000
,
0100
0000
0000
0001
,
0010
0000
0000
0100
,
0010
0000
0000
1000
,
0100
0000
0000
0001
,
0010
0000
0000
1001
,
0010
0000
0000
0100
,
0010
0000
0000
0001
,
0010
0000
0000
1000
,
0100
0000
0000
0010
,
0100
0000
0000
0001
,
0010
0000
0000
1000
,
0200
0000
0000
0000
,
0000
0000
0000
0000
,
0310
0000
0000
0000
;

//--------------- dance-single - B. M'Rey & JMR ----------------
#NOTEDATA:;
#STEPSTYPE:dance-single;
#DESCRIPTION:B. M'Rey & JMR;
#DIFFICULTY:Easy;
#METER:7;
#RADARVALUES:0,0,0,0,0;
#CREDIT:B. M'Rey & JMR;
#NOTES:
0000
0000
0000
0000
,
0000
0000
0000
0000
,
0001
0100
0010
1000
,
0001
0010
0001
0100
,
0010
1000
0010
1000
,
0100
1000
0010
0100
,
0010
1000
0100
0010
,
0001
0100
0010
1000
,
0100
0010
0100
0010
,
0100
0000
0000
0000
,
0001
1000
0010
0100
,
0001
0100
0010
0100
,
0001
0010
0100
1000
,
0010
0100
0001
0100
,
0010
0100
0001
0010
,
0100
1000
0001
0100
,
0001
0100
0001
1000
,
0100
0010
0001
0100
,
0010
1000
0100
1000
,
0100
0010
0001
0100
,
0010
1000
0100
0010
,
0001
1000
0010
0100
,
0001
0010
0100
1000
,
0010
0100
0001
0100
,
0010
1000
0100
1000
,
0001
0010
0001
0100
,
0010
1000
0100
1000
,
0010
1000
0001
0100
,
0010
0100
0001
0010
,
0100
1000
0010
1000
,
0100
0010
0001
1000
,
0010
0100
0010
1000
,
0001
1000
0010
0100
,
0001
0000
0010
0000
,
0001
0100
0010
1000
,
0001
0010
0100
1000
,
0010
0100
0001
1000
,
0010
1000
0100
1000
,
0010
0100
0010
0100
,
0010
1000
0001
0010
,
0100
0000
0001
0000
,
0010
0000
0100
0000
,
0001
0000
0001
0000
,
0001
0000
0100
0010
,
0000
1000
0000
0010
,
0000
0100
0001
0100
,
0000
1000
0000
1000
,
0000
0010
0001
0010
,
0000
0010
0000
0100
,
0010
0000
0100
0010
,
0001
0100
0010
1000
,
0001
0100
0001
0110
,
0100
1000
0100
0010
,
0100
1000
0001
1010
,
0100
1000
0010
1000
,
0100
1000
0001
0110
,
0010
1000
0100
0010
,
1001
0000
0101
0000
,
0001
0010
0100
0010
,
0001
1000
0100
1000
,
0010
0100
0001
1000
,
0100
1000
0001
0100
,
0010
1000
0100
0010
,
0001
0100
0001
0100
,
0001
1000
0100
1000
,
0010
1000
0200
0000
,
0310
1000
0001
0010
,
0000
1000
0010
0100
,
0000
1000
0100
0010
,
0000
1000
0100
1000
,
0000
0100
0001
0010
,
0000
1000
0010
0100
,
0000
1000
0010
0100
,
0000
0010
0001
0100
,
0110
0000
0000
0000
;

//--------------- dance-single - B. M'Rey & JMR ----------------
#NOTEDATA:;
#STEPSTYPE:dance-single;
#DESCRIPTION:B. M'Rey & JMR;
#DIFFICULTY:Medium;
#METER:10;
#RADARVALUES:0,0,0,0,0;
#CREDIT:B. M'Rey & JMR;
#NOTES:
0000
0000
0000
0000
,
0000
0000
0000
0000
,
0001
0010
0001
0010
,
0001
1000
0010
1000
,
0100
1000
0010
0100
,
0001
1000
0001
1000
,
0001
0010
0100
0010
,
0001
0100
0010
0100
,
0001
0010
0001
0100
,
1000
0000
0001
0000
,
1000
0010
1000
0000
0100
0000
0001
0010
,
0001
0000
0010
0001
0000
1001
0000
0110
,
0000
0100
1000
0000
0010
0000
0100
0010
,
0100
0000
0001
0010
0000
0011
0000
1001
,
0000
0010
0100
0000
1000
0000
0010
0100
,
0010
0000
0001
0010
0000
1001
0000
0110
,
0000
0001
0010
0000
0001
0000
1000
0010
,
0100
0000
0010
1000
0000
1010
0000
0101
,
0000
0010
1000
0000
0100
0000
0010
1000
,
0010
0000
0100
0010
0000
0101
0000
1010
,
0000
0010
0100
0000
0001
0000
0010
1000
,
0100
0000
0010
1000
0000
0101
0000
1010
,
0000
0010
0100
0000
1000
0000
0100
0010
,
0100
0000
1000
0100
0000
0101
0000
1010
,
0000
0010
0100
0000
1000
0000
0001
0010
,
0100
0000
0001
0010
0000
1001
0000
1000
,
0010
0100
1000
0000
0010
0000
0100
0001
,
0010
0000
0001
1000
0000
1001
0000
0110
,
0000
0001
0010
0000
0001
0000
1000
0010
,
0100
0000
0001
1000
0000
0110
0000
1001
,
0000
0010
0100
0000
1000
0000
0100
0010
,
1000
0000
0100
0010
0000
0101
0000
1010
,
0000
0010
0100
0000
1000
0000
0001
0100
,
0010
0100
1000
0100
,
0010
0100
1000
0000
0100
0000
0010
0000
,
0001
0010
0100
0000
1000
0000
0100
0000
,
0010
0100
1000
0000
0100
0000
0010
0000
,
0001
0010
0100
0000
1000
0000
0100
0000
,
1000
0100
0010
0000
0001
0000
0010
0000
,
0001
0010
0100
0000
1000
0000
0100
0000
,
0010
0100
0010
0000
1000
0000
0100
0000
,
1000
0100
0010
0000
0001
0000
0010
0000
,
0001
0010
0100
0000
1000
0000
0100
0000
,
0010
0100
1000
0000
0100
0000
0010
0000
,
0001
0010
0001
0000
1000
0000
0010
0000
,
0100
1000
0100
0000
0010
0000
0100
0000
,
0001
0010
0001
0000
1000
0000
0010
0000
,
0100
0010
0100
0000
1000
0100
1000
0000
,
0001
0010
0100
0000
0001
0010
1000
0000
,
1001
0110
0101
1010
,
0010
1000
0010
0000
0100
0010
0100
0000
,
0001
0010
0001
0000
0010
0100
0010
0000
,
1000
0100
1000
0000
0010
0100
0010
0000
,
0001
0010
0001
0000
0010
0100
0010
0000
,
1000
0001
1000
0000
0001
1000
0001
0000
,
0010
1000
0010
0000
0100
0001
0100
0000
,
0010
1000
0010
0000
0100
0001
0100
0000
,
0010
1000
0100
0010
,
0001
0010
0001
0010
0001
0010
0001
0010
,
0000
1000
0100
1000
0100
1000
0100
1000
,
0000
0010
0100
0010
0100
0010
0100
0010
,
0000
0001
0010
0001
0010
0001
0010
0001
,
0000
1000
0100
1000
0100
1000
0100
1000
,
0000
0010
0100
0010
0100
0010
0100
0010
,
0000
0001
0010
0001
0010
0001
0010
0001
,
0000
1000
0010
0100
0010
0000
1001
0000
,
0010
0000
0100
0000
0001
0010
1000
0000
,
0100
0000
1000
0000
0100
0000
1000
0100
,
0010
0000
0001
0000
0010
0000
0001
0010
,
0100
0000
1000
0000
0100
0000
1000
0100
,
0010
0000
0001
0000
0010
0001
0010
0000
,
0100
0000
1000
0000
0100
0010
0100
0000
,
0001
0010
1000
0100
,
0010
0001
0010
1000
,
1001
0000
0000
0000
;

//--------------- dance-single - B. M'Rey & JMR ----------------
#NOTEDATA:;
#STEPSTYPE:dance-single;
#DESCRIPTION:B. M'Rey & JMR;
#DIFFICULTY:Hard;
#METER:13;
#RADARVALUES:0,0,0,0,0;
#CREDIT:B. M'Rey & JMR;
#NOTES:
0000
0000
0000
0000
,
0000
0000
0000
0000
,
0001
0100
0001
0100
,
0001
0010
0100
0010
,
0100
0010
0001
1000
,
0001
0010
0001
0010
,
0100
0010
0100
1000
,
0001
1000
0001
1000
,
0010
0100
0010
1000
,
0010
0000
0001
0010
0000
0100
0000
0010
,
0001
1000
0001
1000
0001
0100
0010
0100
,
0010
0100
0001
1000
0001
1000
0001
0010
,
0100
0010
0100
0010
0001
0100
0001
1000
,
0001
0100
0010
0100
0010
0100
0001
1000
,
0001
1000
0001
0100
0010
0100
0010
0100
,
0001
1000
0001
1000
0010
1000
0010
0100
,
0010
0100
0001
0100
0001
0010
0001
0010
,
0100
0010
0100
1000
0100
1000
0001
0100
,
0001
1000
0001
1000
0010
1000
0010
0100
,
0010
1000
0100
1000
0001
1000
0010
0100
,
0010
0100
0010
1000
0001
1000
0001
1000
,
0100
0010
0100
0010
0100
1000
0001
1000
,
0001
1000
0100
0010
0001
0010
0100
0010
,
0100
1000
0100
1000
0001
0100
0001
0010
,
0001
0010
0100
0010
0100
1000
0100
1000
,
0001
1000
0001
0010
0001
1000
0100
1000
,
0100
1000
0001
0100
0001
0010
0001
0010
,
0100
0010
0100
1000
0100
1000
0001
1000
,
0010
0100
0010
0100
0010
1000
0001
1000
,
0001
1000
0100
0010
0100
1000
0010
1000
,
0010
0100
0010
0100
0001
0100
0001
1000
,
0001
1000
0010
1000
0010
0100
0010
0100
,
0001
0100
0010
1000
0010
1000
0010
0100
,
0001
0000
0000
0010
0000
0000
0100
0000
0001
0000
0000
0000
1000
0000
0000
0000
,
0001
0100
0001
0100
0001
0010
0100
0010
,
0100
0010
0001
1000
0001
0100
0001
0010
,
0100
0010
0100
0010
0001
0100
0001
0100
,
0001
0010
0100
0010
0001
0010
0001
0100
,
0001
0010
0100
0010
0100
0010
0001
1000
,
0001
1000
0001
0010
0100
0010
0100
0010
,
0001
1000
0001
1000
0001
0100
0010
0100
,
0010
0100
0001
1000
0001
0100
0001
0010
,
1000
0000
0001
0000
0100
0000
0000
0010
0000
0100
0000
0000
0001
0000
0000
0000
,
0010
0000
1000
0000
0100
0000
0000
1000
0000
0000
1000
0000
0100
0000
0000
0000
,
1000
0000
0001
0000
1000
0000
0000
0001
0000
1000
0000
0000
0010
0000
0100
0000
,
0001
0000
0010
0000
0001
0000
0000
1000
0000
0001
1000
0000
0001
0000
0000
0000
,
0010
0000
0100
0000
0001
0000
0000
1000
0000
0010
0000
0000
0100
0000
1000
0000
,
0100
0000
1000
0000
0010
0000
0000
0100
0000
0010
0100
0000
0001
0000
0000
0000
,
0010
0000
0100
0000
0010
0000
0000
0001
0000
0100
0000
0000
0010
0000
0000
0000
,
1001
0000
1001
0000
1001
0000
0000
0110
0000
0000
0000
0000
0110
0000
0000
0000
,
0001
0000
1000
0000
0010
1000
0010
0000
0010
0000
1000
0000
0010
0000
0100
0000
,
0010
0000
0100
0000
0001
0000
0100
0001
0000
0001
0100
0000
0001
0000
0000
0000
,
0010
0000
1000
0000
0100
0000
1000
0100
1000
0000
1000
0000
0010
0000
0100
0000
,
0010
0000
0100
0000
0001
0000
0010
0100
0000
0100
0001
0000
0100
0000
0000
0000
,
0010
0000
1000
0000
0100
0000
1000
0000
0100
1000
0100
0000
0010
0000
0100
0000
,
0010
0000
0100
0000
0010
0000
0100
0001
0000
0010
0001
0000
1000
0000
0000
0000
,
0010
0000
1000
0000
0100
0000
0010
1000
0010
0000
0100
0000
1000
0000
0010
0000
,
0100
0000
0001
0000
1000
0000
0000
0010
0000
0100
0001
0000
0100
0000
0000
0000
,
0001
1000
0001
1000
0001
0010
0100
0010
,
0100
0010
0001
0100
0001
0100
0001
1000
,
0100
1000
0100
0010
0100
0010
0001
0010
,
0001
1000
0001
1000
0100
1000
0100
0010
,
0001
0010
0001
0010
0100
1000
0100
1000
,
0100
0010
0001
0010
0001
0010
0100
1000
,
0100
1000
0100
0010
0001
0010
0001
0010
,
0100
0000
1000
0000
0100
0000
1000
0000
0100
0000
0010
0000
0001
1000
0001
1000
,
0001
1000
0001
1000
0100
0010
0100
0000
,
0100
1000
0010
1000
0010
1000
0001
0000
,
0001
0010
0001
1000
0010
1000
0010
0000
,
0100
0010
0001
0010
0001
0010
0100
0000
,
0100
1000
0100
0010
0001
0010
0001
0000
,
0100
1000
0001
1000
0001
0010
0100
0000
,
0001
1000
0001
1000
,
0100
1000
0100
0010
,
0100
0000
0000
0000
;

//--------------- dance-single - B. M'Rey & JMR ----------------
#NOTEDATA:;
#STEPSTYPE:dance-single;
#DESCRIPTION:B. M'Rey & JMR;
#DIFFICULTY:Challenge;
#METER:18;
#RADARVALUES:0,0,0,0,0;
#CREDIT:B. M'Rey & JMR;
#NOTES:
0000
0000
0000
0000
,
0000
0000
0000
0000
,
0001
0010
0001
0000
0100
0000
0010
1000
,
0100
0000
0001
0010
0000
0001
0000
0100
,
0000
0010
1000
0000
0100
0000
1000
0100
,
1000
0000
0010
0100
0000
0001
0000
0010
,
0000
0001
0100
0000
0010
0000
1000
0100
,
1000
0000
0001
0010
0000
0100
0000
0010
,
0000
0001
0010
0000
1000
0000
0100
1000
,
1100
0000
0001
0010
0000
0100
0000
0010
,
0001
1000
0001
1000
0001
0010
0100
0010
0100
0010
0001
0100
0001
0100
0001
1000
,
0100
1000
0001
1000
0001
0010
0001
0010
0100
0010
0100
1000
0100
1000
0010
1000
,
0010
0100
0010
1000
0100
1000
0100
1000
0010
0100
0010
0100
0010
1000
0001
1000
,
0001
0010
0001
0010
0100
1000
0100
1000
0100
0010
0001
0010
0001
0010
0100
1000
,
0010
1000
0010
1000
0001
0010
0001
0010
0001
1000
0010
1000
0100
1000
0100
0010
,
0100
0010
0001
0010
0001
1000
0001
1000
0100
1000
0010
0100
0010
0100
0010
1000
,
0001
1000
0010
0100
0010
0100
0001
0100
0001
0010
0100
0010
0100
0010
0001
1000
,
0001
1000
0001
0010
0100
0010
0001
0010
0001
0100
0001
0100
0010
0100
0010
1000
,
0010
1000
0100
1000
0100
0010
0100
0010
0001
0010
0001
1000
0001
0010
0100
1000
,
0100
1000
0100
0010
0001
0010
0001
0010
0100
1000
0100
1000
0100
0010
0001
0010
,
0001
0010
0100
1000
0100
0010
0001
0010
0001
0100
0001
0100
0010
0100
0010
1000
,
0010
1000
0100
1000
0001
0100
0001
0100
0001
1000
0100
1000
0100
1000
0001
0100
,
0001
0100
0001
1000
0010
1000
0001
0100
0001
0010
0001
0010
0100
0010
0100
1000
,
0100
1000
0010
1000
0010
0100
0001
0100
0001
0100
0010
1000
0010
1000
0010
0100
,
0001
0100
0001
0100
0010
1000
0010
1000
0010
0100
0001
0010
0001
0010
0001
1000
,
0010
0100
0010
0100
0010
1000
0001
1000
0001
0100
0001
0100
0010
0100
0010
1000
,
0010
1000
0100
1000
0100
0010
0100
0010
0001
0100
0010
0100
0010
1000
0010
1000
,
0100
1000
0001
0010
0001
0010
0001
0100
0010
0100
0010
0100
0001
0010
0001
0010
,
0001
1000
0100
1000
0100
1000
0001
0010
0001
0010
0001
1000
0010
0100
0001
1000
,
0001
1000
0001
0010
0100
0010
0100
0010
0001
1000
0100
1000
0100
1000
0001
0010
,
0001
0010
0001
0100
0010
0100
0010
0100
0001
1000
0001
1000
0010
1000
0010
0100
,
0010
0100
0001
1000
0001
1000
0001
0100
0010
0100
0010
0100
0001
0010
0001
0010
,
0001
1000
0010
1000
0010
1000
0001
0100
0010
0100
0010
0100
0001
0010
0001
1000
,
0001
0000
0000
0010
0000
0000
0100
0000
0010
0100
0010
0000
0100
0000
0001
0000
,
0001
1000
0001
0010
0001
0010
0100
0010
0100
1000
0100
1000
0001
0000
1000
0000
,
0010
0100
0010
0100
0001
0010
0001
0010
0001
0100
0010
0100
0001
0000
1000
0000
,
0010
0100
0010
0100
0010
1000
0100
1000
0100
1000
0001
0100
0001
0000
0100
0000
,
0010
1000
0010
1000
0001
0010
0001
0010
0001
1000
0010
1000
0010
0000
0100
0000
,
0001
1000
0001
1000
0100
1000
0100
0010
0100
1000
0010
0100
0010
0000
1000
0000
,
0001
1000
0100
0010
0100
0010
0001
0010
0001
0100
0001
0010
0100
0000
0010
0000
,
0100
0010
0001
0100
0001
0100
0001
0010
0100
0010
0100
0010
0001
0000
1000
0000
,
0001
0010
0100
1000
0010
0100
0010
0100
0010
1000
0100
0010
0100
0000
0010
0000
,
1000
0100
0010
0100
0010
1000
0001
1000
,
0001
1000
0100
0010
0100
0010
0100
1000
,
0001
0010
0100
0010
0100
0010
0001
1000
,
0001
0010
0001
0100
0010
1000
0010
1000
,
0010
0000
0100
0000
0001
0000
0010
0100
0000
0010
0100
0000
0010
0000
1000
0000
,
0010
0000
1000
0000
0010
0000
0100
0001
0000
0001
0100
0000
0002
0000
0000
0000
,
0013
0000
1000
0000
0001
0000
1000
0001
0000
0001
1000
0000
0010
0000
0100
0000
,
1000
0000
0001
0000
0010
0000
0001
0010
0000
0001
0100
0000
0220
0000
0000
0000
,
0331
1000
0001
1000
0001
0100
0010
0100
0010
0100
0001
1000
0010
1000
0010
1000
,
0001
0010
0100
0010
0100
0010
0001
1000
0001
1000
0001
0100
0010
1000
0010
0100
,
0010
0100
0001
0100
0010
1000
0010
1000
0010
0100
0001
0100
0001
0100
0010
1000
,
0010
1000
0010
0100
0001
0100
0001
0100
0010
1000
0001
1000
0001
1000
0010
0100
,
0010
0100
0010
1000
0001
1000
0001
1000
0010
0100
0010
0100
0001
0100
0001
0010
,
0001
0010
0100
0010
0100
1000
0010
1000
0010
0100
0010
0100
0001
0100
0001
0010
,
0001
0010
0100
0010
0001
1000
0001
1000
0001
0100
0010
0100
0010
0100
0001
1000
,
0010
0000
0100
0000
0001
0000
1000
0010
0000
1000
0010
0000
0200
0000
0000
0000
,
0301
1000
0001
1000
0001
0100
0010
0100
0010
0100
0001
0000
0010
0000
0100
0000
,
0010
1000
0001
0100
0001
1000
0001
0100
0010
0000
0100
0000
0001
0000
1000
0000
,
0001
0100
0010
0100
0001
0010
0001
0010
0001
0000
0010
0000
0100
0000
1000
0000
,
0001
1000
0001
0010
0100
0010
0100
0010
0001
0000
0100
0000
0001
0000
0100
0000
,
0001
0010
0001
0100
0001
0100
0010
0100
0010
0000
0001
0000
0100
0000
0001
0000
,
0100
0010
0100
0010
0001
1000
0001
1000
0001
0000
0010
0000
1000
0000
0001
0000
,
0001
0010
0001
0100
0010
0100
0001
0100
0010
0000
0001
0000
0100
0000
0010
0000
,
0001
1000
0001
1000
0010
1000
0001
0100
0001
0100
0001
1000
0100
1000
0100
1000
,
0010
0000
0100
0000
0010
0100
0000
0010
0001
0100
0010
1000
0100
0000
0010
0000
,
0001
0000
0010
0000
0010
1000
0000
0100
0001
0100
0001
0100
0010
0000
0100
0000
,
0010
0000
0001
0000
0100
1000
0000
0010
0001
0010
0001
0010
0100
0000
1000
0000
,
0100
0000
0001
0000
0001
1000
0000
0010
0100
0010
0001
1000
0010
0000
0100
0000
,
0001
0000
1000
0000
0001
0100
0000
1000
0010
1000
0010
0100
0001
0000
1000
0000
,
0010
0000
0100
0000
0010
0100
0000
0100
0001
1000
0001
1000
0100
0000
0010
0000
,
0001
0000
0010
0000
0100
1000
0000
1000
0001
0010
0001
0010
0001
0000
0010
0000
,
1000
0000
0010
0000
0001
1000
0000
1000
0001
0100
0010
0100
0010
0000
0100
0000
,
0001
0000
0000
0000
;
