#VERSION:0.83;
#TITLE:Catch Me If You Can (Japaneses Ver.);
#ARTIST:Girls' Generation;
#GENRE:J-POP;
#CREDIT:B. M'Rey;
#MUSIC:Catch Me If You Can (Japaneses Ver.).ogg;
#BANNER:Catch Me If You Can (Japaneses Ver.)-bn.png;
#BACKGROUND:Catch Me If You Can (Japaneses Ver.)-bg.png;
#CDTITLE:./CDTITLES/Dance Dance Revolution SPACE.png;
#SAMPLESTART:106.115;
#SAMPLELENGTH:15;
#OFFSET:-0.045;
#BPMS:0=134;
#BGCHANGES:0.000=Catch Me If You Can (Japaneses Ver.).avi=1.000=0=0=1;

//--------------- dance-single - B. M'Rey ----------------
#NOTEDATA:;
#STEPSTYPE:dance-single;
#DESCRIPTION:B. M'Rey;
#DIFFICULTY:Beginner;
#METER:4;
#RADARVALUES:0.130733,0.162779,0.016197,0.145773,0,113,111,2,18,0,0,0.130733,0.162779,0.016197,0.145773,0,113,111,2,18,0,0;
#CREDIT:B. M'Rey;
#NOTES:
0000
0000
0000
0000
,
0000
0000
0000
0000
,
0000
0000
0000
0000
,
1000
0000
0000
0000
,
0100
0000
0001
0000
,
0100
0000
0010
0000
,
1000
0000
0001
0000
,
0010
0000
0000
0000
,
0001
0000
1000
0000
,
0010
0000
0100
0000
,
0001
0000
0100
0000
,
0010
0000
0000
0000
,
0001
0000
1000
0000
,
0010
0000
0100
0000
,
0001
0000
0010
0000
,
1000
0000
0000
0000
,
0100
0000
0000
0000
,
0001
0000
0000
0000
,
0010
0000
0000
0000
,
1000
0000
0001
0010
,
0010
0000
0000
0001
,
0001
0000
0000
1000
,
1000
0000
0000
0100
,
0010
0000
0100
0010
,
0010
0000
0000
0001
,
0001
0000
0000
0100
,
0100
0000
0000
0000
,
1001
0000
0000
0000
,
2000
0000
3002
0000
,
0023
0000
0230
0000
,
0320
0000
0032
0000
,
2003
0000
3020
0000
,
0130
0000
0100
0000
,
0010
0000
0010
0000
,
0100
0000
0001
0000
,
0100
0000
0100
0000
,
0010
0000
1000
0000
,
0001
1000
0010
0000
,
0100
0000
0001
0000
,
1000
0000
0000
0000
,
0100
0000
0001
0000
,
1000
0010
0100
0000
,
0001
0000
0010
0000
,
0001
0000
0000
0000
,
0020
0000
0000
0000
,
0000
0000
0000
0000
,
0030
0000
0000
0000
,
0001
0000
1000
0000
,
0002
0000
0000
0000
,
0000
0000
0000
0000
,
0000
0000
0000
0000
,
1003
0000
0010
0001
,
0001
0000
0000
0100
,
0100
0000
0000
0010
,
0010
0000
0000
1000
,
1000
0000
0000
0001
,
0001
0000
0000
0100
,
0100
0000
0000
0010
,
0010
0000
0000
0000
,
1001
0000
0000
0000
,
2000
0000
3002
0000
,
0023
0000
0230
0000
,
0320
0000
0032
0000
,
2003
0000
3020
0000
,
0130
0000
0100
0000
,
0010
0000
0010
0000
,
0100
0000
0001
0000
,
0100
0000
0000
0000
;

//--------------- dance-single - B. M'Rey ----------------
#NOTEDATA:;
#STEPSTYPE:dance-single;
#DESCRIPTION:B. M'Rey;
#DIFFICULTY:Easy;
#METER:6;
#RADARVALUES:0.234856,0.379819,0.113379,0.170068,0,203,189,14,21,0,0,0.234856,0.379819,0.113379,0.170068,0,203,189,14,21,0,0;
#CREDIT:B. M'Rey;
#NOTES:
0000
0000
0000
0000
,
0000
0000
0000
0000
,
0000
0000
0000
0000
,
2000
0000
0000
0000
,
3001
0000
1000
0001
,
0100
0000
0001
1000
,
0010
0000
0001
1000
,
0200
0000
0000
0000
,
0301
1000
0010
0100
,
0001
1000
0010
0000
,
0100
0010
1000
0010
,
0002
0000
0000
0000
,
0103
0010
1000
0100
,
0001
0010
0100
0000
,
1000
0001
0100
0010
,
2000
0000
0000
0000
,
3001
0000
0000
0000
,
0100
0000
0000
0000
,
0010
0000
0000
0000
,
0001
0000
1000
0000
,
0010
0010
0010
0010
,
0001
0001
0001
0001
,
1000
1000
1000
1000
,
0100
0100
0100
0100
,
0010
0010
0010
0010
,
0001
0001
0001
0001
,
1000
0001
1000
0001
,
1000
0000
0000
0000
,
0002
1003
2000
3001
,
0002
1003
0020
0130
,
0200
0310
0020
0130
,
0200
0310
0001
1000
,
0010
0011
0010
0110
,
0100
0110
0100
1100
,
0100
0110
0010
0011
,
0001
0011
0010
0110
,
0100
1000
0001
0100
,
0010
0001
0000
0000
,
0010
1000
0100
0001
,
0010
0000
0100
0000
,
0001
1000
0010
0100
,
0001
1000
0010
0000
,
0100
1000
0010
0100
,
0001
0000
0100
0000
,
0020
0000
0000
0000
,
0000
0000
0000
0000
,
0000
0000
0000
0000
,
0032
0000
0000
0000
,
2003
0000
0000
0000
,
0000
0000
0000
0000
,
0000
0000
0000
0000
,
3001
0000
0100
0000
,
0010
0010
0010
0010
,
0001
0001
0001
0001
,
1000
1000
1000
1000
,
0100
0100
0100
0100
,
0010
0010
0010
0010
,
0001
0001
0001
0001
,
1000
1000
1000
1000
,
1000
0000
0000
0000
,
0002
1003
2000
3001
,
0002
1003
0020
0130
,
0200
0310
0020
0130
,
0200
0310
0001
1000
,
0010
0011
0010
0110
,
0100
0110
0100
1100
,
0100
0110
0010
0011
,
0001
0000
0000
0000
;

//--------------- dance-single - B. M'Rey ----------------
#NOTEDATA:;
#STEPSTYPE:dance-single;
#DESCRIPTION:B. M'Rey;
#DIFFICULTY:Medium;
#METER:9;
#RADARVALUES:0.314684,0.379819,0.137674,0.429219,0,272,255,17,53,0,0,0.314684,0.379819,0.137674,0.429219,0,272,255,17,53,0,0;
#CREDIT:B. M'Rey;
#NOTES:
0000
0000
0000
0000
,
0000
0000
0000
0000
,
0000
0000
0000
0000
,
2000
3020
0230
0302
,
1003
0010
0000
0001
1000
0000
0010
0001
,
0010
1000
0000
0100
0010
0000
0001
0010
,
1000
0100
0000
0001
0010
0000
1000
0100
,
0002
0023
0230
2300
,
3001
1000
0010
0100
,
0001
0000
1000
0010
0100
0000
0000
0000
,
0001
1000
0010
0100
,
0002
2003
3020
0230
,
0301
1000
0010
0100
,
0001
0000
0010
0100
1000
0000
0010
0000
,
0001
1000
0010
0100
,
0002
2003
3020
0230
,
0302
0000
0000
0000
,
2003
0000
0000
0000
,
3020
0000
0000
0000
,
0130
0001
1000
0010
,
0200
0010
0010
0010
,
0302
1000
1000
1000
,
0203
0010
0010
0010
,
0302
1000
1000
1000
,
0023
0100
0100
0100
,
0230
0001
0001
0001
,
0301
1000
0001
1000
0001
1000
0001
1000
,
0000
0000
0000
0000
,
1001
1000
1001
0001
,
1001
1000
1001
0001
,
0110
0100
0110
0010
,
0110
0100
0110
0010
,
1000
0100
0001
0000
0010
1000
0100
0000
,
0010
0001
0010
0000
1000
0010
0100
0000
,
0001
0010
1000
0000
0001
0010
0001
0000
,
1000
0010
0100
0000
0001
0010
0001
0000
,
2000
3020
0230
0302
,
2003
3200
0320
0032
,
1003
0001
1000
0001
1000
0000
1000
0000
,
2000
3001
0020
0130
,
0002
2003
3020
0230
,
0302
2003
3020
0230
,
0301
0010
0001
0010
0001
0010
0001
0010
,
0002
1003
0200
0310
,
0002
0000
0000
0000
,
0000
0000
0000
0000
,
0000
0000
0000
0000
,
2003
0000
0000
0000
,
0001
0000
0001
0000
,
0001
0000
0001
0000
,
0001
0000
0001
0000
,
3100
0001
1000
0010
,
0200
0010
0010
0010
,
0302
1000
1000
1000
,
0203
0010
0010
0010
,
0302
1000
1000
1000
,
0023
0100
0100
0100
,
0230
0001
0001
0001
,
0301
1000
0001
1000
0001
1000
0001
1000
,
0000
0000
0000
0000
,
1001
1000
1001
0001
,
1001
1000
1001
0001
,
0110
0100
0110
0010
,
0110
0100
0110
0010
,
1000
0100
0001
0000
0010
1000
0100
0000
,
0010
0001
0010
0000
1000
0010
0100
0000
,
0001
0010
1000
0000
0001
0010
0001
0000
,
1001
0000
0000
0000
;

//--------------- dance-single - B. M'Rey ----------------
#NOTEDATA:;
#STEPSTYPE:dance-single;
#DESCRIPTION:B. M'Rey;
#DIFFICULTY:Hard;
#METER:14;
#RADARVALUES:0.511361,0.79851,0.380628,0.356333,0.121477,442,395,47,44,0,1,0.511361,0.79851,0.380628,0.356333,0.121477,442,395,47,44,0,1;
#CREDIT:B. M'Rey;
#NOTES:
0000
0000
0000
0000
,
0000
0000
0000
0000
,
0000
0000
0000
0000
,
0110
1001
1100
0011
,
1000
0001
0000
0010
0100
0001
1000
0010
,
0001
0000
0010
1000
0001
0010
0001
0100
,
0010
1000
0000
0001
0010
0001
1000
0010
,
0101
1010
0011
1100
,
0001
0010
0001
1000
0100
0010
1000
0001
,
0100
0010
0001
1000
0020
0000
0000
0031
,
1000
0001
0100
0001
0010
1000
0100
0001
,
0110
1001
0110
1001
,
1000
0001
0010
0100
0001
1000
0010
0100
,
0001
0010
1000
0100
0001
0000
0000
0010
,
1000
0001
0010
0001
1000
0010
0100
0001
,
0011
1100
0011
1100
,
0001
1000
0001
2000
0000
0000
0000
0000
,
3010
0100
1000
0200
0000
0000
0000
0000
,
0301
0010
1000
0200
0000
0000
0000
0010
,
0301
0010
1000
0100
0010
0001
1000
0010
,
0100
0000
0000
0001
0010
0000
1000
0000
0001
0000
0100
0010
0000
0000
0001
0000
,
1000
0000
0100
0001
0000
0000
0001
0000
0010
0000
1000
0100
0000
0000
0010
0000
,
0001
0000
0010
0100
0000
0000
1000
0000
0001
0000
0010
0001
0000
0000
1000
0000
,
0001
0010
0100
1000
0001
0100
0010
1000
,
0110
0001
1100
0010
0110
0001
1010
0001
,
0101
0010
1100
0001
0011
0100
0011
1000
,
0010
0100
0010
0100
0010
0001
0010
0001
0010
1000
0100
1000
0100
0001
0100
0001
,
0100
0000
0000
0000
,
2000
0000
0001
0010
3200
0000
0001
1000
,
0320
0000
1000
0001
0230
0000
0010
1000
,
0302
0000
0010
0100
2003
0000
0010
0100
,
3020
0000
0100
0001
2030
0000
0001
0010
,
3100
0001
0010
1000
0100
0001
0010
0001
,
0010
1000
0100
0001
0010
1000
0010
0100
,
0001
0010
0100
0001
1000
0010
0100
0001
,
0010
0001
0100
0010
1000
0010
0001
0100
,
2002
3003
0220
0330
0202
0303
2020
3030
,
0101
0000
0000
0110
0000
0000
1100
0000
0000
0000
0000
0000
0000
0000
0000
0000
,
0001
1000
0010
0100
0001
0010
1000
0010
,
0200
0302
2003
3020
,
0131
1010
0101
0110
,
1001
0000
0000
0101
0000
0000
1010
0000
0000
0000
0000
0000
0000
0000
0000
0000
,
1000
0001
0010
0100
0001
1000
0010
0100
,
0002
2003
3020
0230
,
0302
0000
0000
0000
,
0000
0000
0000
0000
,
2003
0000
0000
0000
,
0010
0000
0010
0000
,
3002
1000
1000
1000
,
0203
0010
0010
0010
,
0302
1000
1000
1000
,
2003
0010
0010
0010
,
3010
0000
0000
0001
0010
0000
1000
0000
0001
0000
0100
0010
0000
0000
0001
0000
,
1000
0000
0100
0001
0000
0000
0001
0000
0010
0000
1000
0100
0000
0000
0010
0000
,
0001
0000
0010
0100
0000
0000
1000
0000
0001
0000
0010
0001
0000
0000
1000
0000
,
0001
0010
0100
1000
0001
0100
0010
1000
,
0110
0001
1100
0010
0110
0001
1010
0001
,
0101
0010
1100
0001
0011
0100
0011
1000
,
0010
0100
0010
0100
0010
0001
0010
0001
0010
1000
0100
1000
0100
0001
0100
0001
,
0100
0000
0000
0000
,
2000
0000
0001
0010
3200
0000
0001
1000
,
0320
0000
1000
0001
0230
0000
0010
1000
,
0302
0000
0010
0100
2003
0000
0010
0100
,
3020
0000
0100
0001
2030
0000
0001
0010
,
3100
0001
0010
1000
0100
0001
0010
0001
,
0010
1000
0100
0001
0010
1000
0010
0100
,
0001
0010
0100
0001
1000
0010
0100
0010
,
2002
0000
0000
0000
,
3003
0000
0000
0000
;
