#TITLE:CENSORED!!;
#ARTIST:t+pazolite;
#GENRE:HAPPY HARDCORE;
#CREDIT:B. M'Rey;
#BANNER:CENSORED!!.png;
#BACKGROUND:CENSORED!!-bg.png;
#JACKET:CENSORED!!-jacket.png;
#CDTITLE:./CDTITLES/SOUND VOLTEX III GRAVITY WARS.PNG;
#MUSIC:CENSORED!!.ogg;
#OFFSET:-0.119;
#SAMPLESTART:20.427;
#SAMPLELENGTH:15;
#BPMS:0=195;

//--------------- dance-single - B. M'Rey ----------------
#NOTES:
     dance-single:
     B. M'Rey:
     Beginner:
     7:
     0,0,0,0,0:
0000
0000
0000
0000
,
0000
0000
0000
0000
,
0000
0000
0000
0000
,
0000
0000
0000
0000
,
0000
0000
0000
0000
,
0000
0000
0000
0000
,
0000
0000
0000
0000
,
0000
0000
0000
0000
,
0000
0000
2002
0000
,
0000
0000
0000
0000
,
0000
0000
0000
0000
,
0000
0000
0000
0000
,
3003
0000
0100
0000
,
0000
1000
0001
0000
,
0000
0100
0010
0000
,
0000
0100
0001
0000
,
0000
0000
0100
0010
,
0001
0100
0010
1000
,
0100
0010
0100
1000
,
0001
1000
0100
0010
,
0001
0100
0001
0010
,
0100
1000
0001
0100
,
0001
1000
0010
0100
,
0001
1000
0001
0000
,
0000
0000
1000
0010
,
1000
0100
0010
0100
,
0010
0001
0000
0001
,
1000
0010
0100
0001
,
0010
0100
0000
0001
,
0100
0010
0000
0001
,
0100
0010
2002
3003
,
1000
0000
0100
0001
,
0010
0001
0100
0000
,
0010
0000
1000
0000
,
1000
0000
1000
0000
,
0010
0000
1000
0010
,
1000
0000
0010
0000
,
1000
0000
0001
0000
,
0100
0000
0001
0000
,
0010
0000
0200
0000
,
0000
0000
1300
0000
,
1000
0000
0010
0000
,
0010
0000
1000
0000
,
1000
0000
0001
0000
,
0001
0000
0100
0000
,
0100
0000
0001
0000
,
0010
0000
0100
0000
,
1000
0000
0001
0000
,
0000
0000
0010
0001
,
0010
0001
1000
0100
,
0010
0100
0010
0000
,
0010
0000
1000
0000
,
1000
0000
1000
0001
,
0100
0001
0100
0001
,
1000
0010
0100
0000
,
0100
0000
0010
0000
,
0000
0000
1000
0010
,
1000
0001
1000
0000
,
0100
0000
0100
0010
,
0100
0010
1000
0010
,
0100
0000
0100
0010
,
0100
0000
1000
0010
,
1000
0000
1000
0001
,
0100
0001
0100
0000
,
0000
0010
0002
0000
,
0000
0000
0103
0000
,
1000
0000
0200
0000
,
0000
0000
0310
0000
,
0001
0000
0100
0000
,
0000
1000
0001
0000
,
0000
0100
0010
0000
,
0000
0100
0001
0000
,
0000
0000
0100
0010
,
0001
0100
0010
1000
,
0100
0010
0100
1000
,
0001
1000
0100
0010
,
0001
0100
0001
0010
,
0100
1000
0001
0100
,
0001
1000
0010
0100
,
0001
1000
0002
0000
,
0000
0000
1003
0010
,
1000
0100
0010
0100
,
0010
0001
0000
0001
,
1000
0010
0100
0001
,
0010
0100
0000
0001
,
0100
0010
0000
0001
,
0100
0010
2002
0000
,
0000
0000
3003
0000
,
0000
0000
0010
0000
,
1000
0000
0001
0000
,
0100
0000
0001
0000
,
0010
0000
0100
0000
,
0001
0000
0000
0000
;

//--------------- dance-single - B. M'Rey ----------------
#NOTES:
     dance-single:
     B. M'Rey:
     Easy:
     9:
     0,0,0,0,0:
0000
0000
0000
0000
,
0000
0000
0000
0000
,
0000
0000
0000
0000
,
0000
0000
0000
0000
,
0000
0000
0001
1000
,
0001
0000
0100
1000
,
0100
0000
0100
0010
,
0001
0000
0001
0000
,
0001
1000
0020
0000
,
0000
0000
0000
0000
,
0000
0000
0000
0000
,
0000
0000
0000
0000
,
0000
0000
0000
0000
0031
0000
0000
0100
,
0000
0000
0000
0000
1000
0000
0000
0010
,
0000
0000
0000
0000
0100
0000
0000
0001
,
0000
0000
0010
0000
,
0000
0000
0010
1000
,
0010
1000
0010
0100
,
0001
0100
0001
0100
,
0010
0000
1000
0000
0010
0010
0010
0000
,
0100
0100
0100
0000
0001
0000
1000
0000
,
0001
1000
0001
0100
,
0010
0100
0010
0100
,
0001
0010
0001
0000
,
0001
0000
0001
1000
,
0001
1000
0001
0010
,
0100
0001
0010
0000
0100
0000
0010
0000
,
0001
1000
0001
1000
,
0001
1000
0010
0000
0100
0000
0010
0000
,
0100
0001
0010
0000
0001
0000
0100
0000
,
0010
1000
0100
0000
0010
0000
0000
0000
,
0001
0000
0001
0010
,
0001
0000
0100
0000
0001
1000
0000
1000
,
0001
0000
0000
0000
0010
0100
0000
0010
,
0001
0000
0000
0000
0100
1000
0000
1000
,
0010
0001
0200
0000
,
0000
0000
0000
0000
0310
0000
0000
0100
,
0000
0000
0010
0000
0100
0000
0000
0010
,
0000
0000
1000
0000
0001
0000
0000
1000
,
0000
0010
0200
0000
,
0000
0000
0310
0100
,
0001
1000
0100
0010
,
0100
0010
0100
1000
,
0010
0100
0010
1000
,
0100
0000
0001
0100
,
0010
1000
0010
1000
,
0100
0010
0100
0010
,
0100
1000
0010
0000
,
0000
0000
0010
0100
,
0001
0010
0100
0000
0010
0000
1000
0000
,
0001
1000
0100
0000
0001
0000
1000
0000
,
0010
0100
0010
1000
,
0001
0100
0001
0010
,
0100
0001
1000
0000
0010
0000
0100
0000
,
0001
0100
1000
0000
0001
0000
0010
0000
,
0100
0010
0002
0000
,
0003
0000
0010
0100
,
0001
0010
0001
0100
,
0010
0000
0001
0100
,
0010
1000
0100
1000
,
0010
0000
0000
0000
0001
0000
0100
0010
,
0010
0000
1000
0000
0100
0000
0010
0100
,
0100
1000
0010
1000
,
0100
1000
0002
0000
,
0003
0000
0010
0000
0100
0000
0000
0010
,
0000
0100
0010
0001
,
0010
0000
0100
0000
0010
0000
0000
1000
,
0000
0010
0100
0010
,
0100
0000
0001
0000
0001
0000
0000
0100
,
0000
0000
0000
0000
1000
0000
0000
0010
,
0000
0000
0000
0000
0100
0000
0000
0001
,
0000
0000
0010
0000
,
0000
0000
0010
1000
,
0010
1000
0010
0100
,
0001
0100
0001
0100
,
0010
0000
1000
0000
0010
0010
0010
0000
,
0100
0100
0100
0000
0001
0000
1000
0000
,
0001
1000
0001
0100
,
0010
0100
0010
0100
,
0001
0010
1001
1001
,
1001
0010
0001
1000
,
0001
1000
0001
0010
,
0100
0001
0010
0000
0100
0000
0010
0000
,
0001
1000
0001
1000
,
0001
1000
0010
0000
0100
0000
0010
0000
,
0100
0001
0010
0000
0001
0000
0100
0000
,
0010
1000
0100
0000
0020
0000
0000
0000
,
0000
0000
0031
0000
,
0100
0000
0000
0000
0010
0000
0000
0100
,
0000
0000
0010
0000
0100
0000
0000
0010
,
0000
0000
1000
0000
0001
0000
0000
1000
,
0000
0010
0200
0000
,
0301
0000
0000
0000
;

//--------------- dance-single - B. M'Rey ----------------
#NOTES:
     dance-single:
     B. M'Rey:
     Medium:
     13:
     0,0,0,0,0:
0000
0000
0000
0000
,
0000
0000
0000
0000
,
0000
0000
0000
0000
,
0000
0000
0000
0000
,
0000
0000
0001
0010
,
0100
0010
0001
1000
,
0010
0100
0010
1000
,
0010
0100
0001
0100
,
0010
0100
2002
0000
,
0000
0000
0000
0000
,
0000
0000
0000
0000
,
0000
0000
0000
0000
,
0000
0000
0000
0000
0000
0000
0000
0000
3013
0000
0000
0100
0000
0000
0001
0000
,
0000
0010
0000
0000
0010
0000
0000
0000
0100
0000
0000
0010
0000
0000
0001
0000
,
0000
1000
0000
0000
0100
0000
0000
0000
0100
0000
0000
0010
0000
0000
0001
0000
,
0000
1000
0000
0000
0010
0000
0000
0000
0020
0000
0000
0000
0000
0000
0000
0000
,
0000
0000
0000
0000
0031
0100
0010
0000
,
0001
0100
0001
0000
0010
0100
0001
0000
,
0001
0010
0001
0000
0010
1000
0100
0000
,
0001
1000
0010
0000
0100
1000
0001
0010
,
0001
0010
0100
1000
0001
1000
0010
0000
,
0010
1000
0001
0000
0100
0010
0001
0000
,
0001
0100
0010
0000
0100
0010
0100
1000
,
0010
1000
0001
0010
0100
0000
0010
0000
,
0100
0000
0020
0000
0130
0010
0001
0000
,
0010
1000
0000
0010
0000
0100
0001
0000
,
0100
1000
0100
0000
0001
0010
0100
0000
,
0100
0000
0001
0100
0000
0100
0001
0000
,
0100
1000
0001
0000
0100
0010
0001
0000
,
0001
0010
0100
0000
0001
0010
0100
0000
,
0100
0010
0001
0000
0002
0000
0000
0000
,
0103
0000
0000
0010
0001
0000
0100
1000
,
0001
0000
0001
0000
0100
1000
0000
1000
,
0100
0000
0011
0000
0001
0010
0000
1000
,
0100
0000
1010
0000
0010
0100
0000
0100
,
0001
0000
0011
0000
0001
1000
0100
1000
,
0200
0000
0000
0000
0000
0000
0000
0000
0301
0000
0000
1000
0000
0000
0001
0000
,
0000
0100
0000
0000
0100
0000
0000
0000
0001
0000
0000
0100
0000
0000
0010
0000
,
0000
0100
0000
0000
0100
0000
0000
0000
0010
0000
0000
0000
1000
0000
0000
0000
,
0010
1000
0200
0000
,
0000
0000
0301
1000
,
0001
1000
0100
1000
,
0001
0100
0001
0100
,
0001
0010
0100
0010
,
0100
0000
0001
1000
,
0001
1000
0001
0010
,
0100
1000
0100
0010
,
0100
0010
1001
0000
,
0000
0000
0000
0000
0001
0010
0001
0000
,
0001
0100
0010
0000
0010
0100
0010
0000
,
0001
0100
0001
0000
0001
1100
0000
1100
,
0000
0110
0000
1010
0000
1010
0000
1100
,
0000
0011
0000
1000
0001
1000
0001
0000
,
0010
0100
0010
0000
0001
1000
0001
0000
,
0001
0100
0010
0000
0010
1010
0000
0110
,
0000
0101
0000
0101
0002
0000
0000
0000
,
0023
0000
0000
0000
0031
1000
0001
0000
,
0001
0000
0010
0000
0010
0100
0001
0010
,
0001
0000
0000
0000
0001
1000
0001
1000
,
0001
0010
0100
0010
0100
0000
0001
0000
,
0010
0000
0010
0100
0001
0000
0001
1000
,
0001
0100
0010
0100
0010
0000
0001
1000
,
0001
0000
0001
0000
0100
0010
0100
1000
,
0100
1000
0010
1000
0020
0000
0000
0000
,
0032
0000
0000
0000
0000
0000
0000
0000
1003
0000
0000
0001
0000
0000
1000
0000
,
0000
0001
0000
0000
0100
0000
0010
0000
0100
0000
0000
0001
0000
0000
0100
0000
,
0001
0000
0100
0000
0001
0000
1000
0000
0010
0000
0000
0010
0000
0000
1000
0000
,
0000
0010
0000
0000
0100
0000
0010
0000
0100
0000
0000
0001
0000
0000
1000
0000
,
0010
0000
1000
0000
0010
0000
0100
0000
0010
0000
0000
0100
0000
0000
0001
0000
,
0000
0010
0000
0000
0010
0000
0000
0000
0100
0000
0000
0010
0000
0000
0001
0000
,
0000
1000
0000
0000
0100
0000
0000
0000
0100
0000
0000
0010
0000
0000
0001
0000
,
0000
1000
0000
0000
0010
0000
0000
0000
0010
0000
0000
0000
0000
0000
0000
0000
,
0000
0000
0000
0000
0001
0100
0010
0000
,
0001
0100
0001
0000
0010
0100
0001
0000
,
0001
0010
0001
0000
0010
1000
0100
0000
,
0001
1000
0010
0000
0100
1000
0001
0010
,
0001
0010
0100
1000
0001
1000
0010
0000
,
0010
1000
0001
0000
0100
0010
0001
0000
,
0001
0100
0010
0000
0100
0010
0100
1000
,
0010
1000
0001
0010
0100
0000
0010
0000
,
0100
0000
0010
0000
0100
0010
0001
0000
,
0010
1000
0000
0010
0000
0100
0001
0000
,
0100
1000
0100
0000
0001
0010
0100
0000
,
0100
0000
0001
0100
0000
0100
0001
0000
,
0100
1000
0001
0000
0100
0010
0001
0000
,
0001
0010
0100
0000
0001
0010
0100
0000
,
0100
0010
0001
0000
0001
0000
1000
0000
,
0001
1000
0001
0010
,
0100
0000
0000
0000
0010
0000
0000
0000
0001
0000
0000
1000
0000
0000
0001
0000
,
0000
0100
0000
0000
0100
0000
0000
0000
0001
0000
0000
0100
0000
0000
0010
0000
,
0000
0100
0000
0000
0100
0000
0000
0000
0010
0000
0000
0000
1000
0000
0000
0000
,
0010
1000
0200
0000
,
0301
0000
0000
0000
;

//--------------- dance-single - B. M'Rey ----------------
#NOTES:
     dance-single:
     B. M'Rey:
     Hard:
     16:
     0,0,0,0,0,0,0,0,0,0,0,0,0,0,0,0,0,0,0,0,0,0:
0000
0000
0000
0000
,
0000
0000
0000
0000
,
0000
0000
0000
0000
,
0000
0000
0000
0000
,
0000
0000
1000
0001
,
0100
0000
0010
1000
,
0100
0000
0001
0010
,
0100
0000
1000
0100
,
0010
0000
0000
0000
0000
0000
0000
0000
0002
0000
0000
2003
0000
0000
3200
0000
,
0000
0320
0000
0000
0031
0000
0010
0000
0002
0000
0000
0203
0000
0000
0320
0000
,
0000
2030
0000
0000
3100
0000
0001
0000
0200
0000
0000
0320
0000
0000
2030
0000
,
0000
3020
0000
0000
0031
0000
0010
0000
0200
0000
0000
2300
0000
0000
3002
0000
,
0003
0200
0000
0000
0310
0000
1000
0000
1010
0000
0000
0110
0000
0000
0110
0000
,
0000
1100
0000
0000
0001
0000
0010
0000
0001
0000
0000
1010
0000
0000
1100
0000
,
0000
1001
0000
0000
1000
0000
0001
0000
0010
0000
0000
0101
0000
0000
1100
0000
,
0000
1100
0000
0000
1000
0000
0010
1000
0001
1000
0001
0000
1000
0000
0001
0000
,
1000
0000
0110
0000
0001
1000
0001
1000
,
0001
0100
0010
0100
0010
0100
0001
1000
,
0001
1000
0001
0010
0100
1000
0100
1000
,
0010
0000
0100
0000
0001
0000
0100
0000
0010
1000
0100
0000
0010
0000
1000
0000
,
0010
1000
0100
1000
0001
0010
0001
0010
,
0001
1000
0100
1000
0100
1000
0010
0100
,
0001
1000
0001
1000
0001
0001
0001
1000
,
1000
0000
1000
0000
0100
0010
0100
0000
0100
0000
0000
0000
0001
0000
0000
0000
,
0010
0000
2002
0000
3013
1000
0001
1000
,
0001
0100
0010
0100
0000
0100
0001
1000
,
0001
1000
0001
0000
0100
0010
0100
0000
,
0001
0000
0000
0001
0000
0000
1000
0000
0000
0000
0010
0000
0100
0000
0010
0000
,
0100
0010
1001
0000
0001
1000
0001
0010
,
0100
1000
0100
0000
0100
0010
0001
0010
,
0001
0010
0100
0000
0220
0000
0330
0010
,
0001
0000
0001
1000
0001
1000
0100
1000
,
0100
0010
0100
0000
0001
0010
0001
0100
,
0001
0010
1100
0000
0100
1000
0100
0010
,
0001
0010
1001
0000
0001
1000
0010
0100
,
0110
0100
0010
1000
1001
1001
1001
0000
,
0100
0000
0000
0000
0100
0000
0000
0000
1001
0000
0000
0101
0000
0000
1010
0000
,
0000
0110
0000
0000
0011
0000
0011
0000
0011
0000
0000
0110
0000
0000
1001
0000
,
0000
0100
0010
0100
0010
0000
0001
0000
0001
0000
0001
0000
1000
0001
1000
0000
,
0010
0000
0001
0000
0100
0010
0100
0000
0020
0000
0000
0000
0000
0000
0000
0000
,
0000
0000
0031
1000
,
0001
0010
0001
0010
,
0100
0010
0100
1000
,
0010
1000
0010
1000
,
0001
0000
0100
0000
0001
1000
0001
1000
,
0001
0010
0100
0010
0100
0010
0001
0100
,
0001
0100
0001
1000
0100
1000
0100
1000
,
0010
0100
0010
1000
0011
0000
1001
0000
,
0110
0000
0101
0000
0001
1000
0001
0010
,
0001
0010
0100
0000
0100
1000
0010
1000
,
0010
1000
0001
0000
0001
0101
0000
1010
,
0000
1010
0000
1001
0000
0110
0000
0110
,
0000
0100
0001
0000
0100
0010
0100
0010
,
0001
1000
0001
0000
0010
0100
0010
0100
,
0001
1000
0001
0000
0100
1100
0000
0110
,
0000
1001
0000
0100
0002
0000
0000
0000
,
0020
0000
0000
0000
0133
1000
0010
1000
,
0010
0000
0001
0000
0001
1000
0001
1000
,
0100
0000
1001
0000
0001
1000
0001
1000
,
0001
0000
0100
0000
0010
0100
0010
0000
0100
0000
1000
0000
0010
0000
0100
0000
,
0001
0000
0001
0100
0001
0100
0010
1000
,
0100
0000
0001
0000
0010
0000
0001
0100
0010
0000
1000
0000
0100
0000
0001
0000
,
0010
0000
0001
0000
0010
0100
0010
0100
,
0010
0100
0010
0100
0010
0000
0000
0000
0002
0000
0000
0000
0000
0000
0000
0000
,
0200
0000
0000
0000
0000
0000
0000
0000
0323
0000
0000
2030
0000
0000
3002
0000
,
0000
0023
0000
0000
0032
0000
0103
0000
0010
0000
0000
1100
0000
0000
0110
0000
,
0110
0000
0000
0010
0100
0000
0010
0000
0002
0000
0000
0203
0000
0000
0320
0000
,
0000
2030
0000
0000
3001
0000
0100
0000
0110
0000
0000
1010
0000
0000
1010
0000
,
0110
0000
1000
0000
0001
0000
0010
0000
1010
0000
0000
0110
0000
0000
0110
0000
,
0000
1100
0000
0000
0001
0000
0010
0000
0001
0000
0000
1010
0000
0000
1100
0000
,
0000
1001
0000
0000
1000
0000
0001
0000
0010
0000
0000
0101
0000
0000
1100
0000
,
0000
1100
0000
0000
1000
0000
0010
1000
0001
1000
0001
0000
1000
0000
0001
0000
,
1000
0000
0110
0000
0001
1000
0001
1000
,
0001
0100
0010
0100
0010
0100
0001
1000
,
0001
1000
0001
0010
0100
1000
0100
1000
,
0010
0000
0100
0000
0001
0000
0100
0000
0010
1000
0100
0000
0010
0000
1000
0000
,
0010
1000
0100
1000
0001
0010
0001
0010
,
0001
1000
0100
1000
0100
1000
0010
0100
,
0001
1000
0001
1000
0001
1000
0001
1000
,
0010
1000
0100
0010
0M02
0000
20M3
0000
,
3M02
0000
20M3
0000
3010
1000
0001
1000
,
0001
0100
0010
0100
0000
0100
0001
1000
,
0001
1000
0001
0000
0100
0010
0100
0000
,
0001
0000
0000
0001
0000
0000
1000
0000
0000
0000
0010
0000
0100
0000
0010
0000
,
0100
0010
0001
0000
0001
1000
0001
0010
,
0100
1000
0100
0000
0100
0010
0001
0010
,
0001
0010
0100
0000
0100
0010
0100
0010
,
0100
0010
0100
0010
0100
0000
1000
0000
,
0100
0000
0000
0000
1000
0000
0000
0000
1001
0000
0000
0101
0000
0000
1010
0000
,
0000
0110
0000
0000
0011
0000
0011
0000
0011
0000
0000
0110
0000
0000
1001
0000
,
0000
0100
0010
0100
0010
0000
0001
0000
0001
0000
0001
0000
1000
0001
1000
0000
,
0010
0000
0001
0000
0100
0010
0100
0000
0010
0000
0000
0000
0000
0000
0001
0010
,
0200
0000
0300
0000
;

//--------------- dance-single - B. M'Rey ----------------
#NOTES:
     dance-single:
     B. M'Rey:
     Challenge:
     19:
     0,0,0,0,0:
0000
0000
0000
0000
,
0000
0000
0000
0000
,
0000
0000
0000
0000
,
0000
0000
0000
0000
,
0000
0000
0000
0000
0000
0000
0100
1000
0100
0000
0001
0000
0010
0000
0010
0000
,
0100
0000
0001
0000
0010
0000
0010
1000
0001
0000
0010
0000
0100
0000
0001
0000
,
0001
0000
0000
0000
0101
0000
0010
1000
0100
0000
0001
0000
0010
0000
0010
0000
,
0001
0000
0001
0000
0001
0000
0010
1000
0010
0000
0010
0000
0001
0000
0100
0000
,
0001
0000
0000
0000
1001
0000
0000
0000
0020
0000
0000
2030
0000
0000
3200
0000
,
0000
2300
0000
0000
3002
0000
0203
0000
0320
0000
0000
2030
0000
0000
3020
0000
,
0000
0230
0000
0000
0302
0000
0203
0000
0320
0000
0000
2030
0000
0000
3200
0000
,
0000
0302
0000
0000
0203
0000
0320
0000
0230
0000
0000
0320
0000
0000
0230
0000
,
0000
0302
0000
0000
0023
0000
2030
0000
3011
0000
0000
1100
0000
0000
0011
0000
,
0000
0110
0000
0000
0011
0000
1001
0000
0110
0000
0000
0110
0000
0000
1001
0000
,
0000
0110
0000
0000
1001
0000
0110
0000
0110
0000
0000
1001
0000
0000
0110
0000
,
0000
1001
0000
0000
0011
0000
0110
0000
1000
0001
1000
0010
0100
0000
0001
0010
,
0001
0000
0100
0000
0010
0000
0000
0000
0100
1000
0001
1000
0100
0000
0100
0010
,
0100
0000
0001
1000
0100
0000
0001
0000
0010
0100
0010
0000
0001
0000
0100
0010
,
0100
0000
0001
0100
0010
0000
0010
0000
0010
0100
0001
0100
0001
0000
0001
1000
,
0010
0000
0010
1000
0010
0000
0001
0100
0001
0000
0010
1000
0010
1000
0010
0100
,
0001
0100
0001
0100
0010
1000
0010
0100
0010
0100
0001
0100
0010
0000
0010
1000
,
0010
0000
0001
0010
0100
0000
0100
0010
0001
0000
0001
0000
0010
1000
0010
0000
,
0010
0000
0001
0100
0001
0000
0001
0000
0100
0010
0001
0010
0001
1000
0001
1000
,
0100
1000
0100
0010
0100
0010
0001
0010
0001
0000
0100
0000
0001
0000
0100
0000
,
0001
0000
1000
0000
0220
0000
0000
0000
0331
0000
1000
0010
0100
0000
0010
0000
,
0001
0000
0100
0001
0010
0000
1000
0000
0100
0000
0010
1000
0001
0000
0011
0000
,
1100
0000
0011
0000
1100
0000
0000
0000
0001
0000
1000
0000
0010
0001
1000
0000
,
0110
0000
0000
0110
0000
0000
1001
0000
0001
0000
1000
0100
0010
0000
0100
0000
,
0001
0000
1000
0000
0110
0000
0000
0000
0001
0010
1000
0001
0100
0000
0010
0000
,
0001
0000
0100
0000
0001
0000
0000
0000
0010
0100
1000
0001
0100
0000
0010
0000
,
0001
0000
0100
0000
0001
0000
0000
0000
2002
0000
0000
0000
3003
0000
0000
0010
,
0100
0000
0100
0010
0100
0010
0100
1000
,
0011
0000
1100
0000
0001
1000
0001
1000
0001
0000
0001
1000
0001
1000
0001
0000
,
0100
1000
0100
1000
0100
0000
0001
0000
0001
0010
0100
1000
0100
0000
0100
0010
,
0001
0010
0001
0010
0100
0000
0100
0000
0100
0010
0001
0010
0001
0000
0010
0100
,
0001
0100
0001
1000
0001
0000
0100
0000
1001
0000
1001
0000
0101
0000
0110
0000
,
0110
0000
0000
0000
2002
0000
0000
0000
3113
0000
0000
1010
0000
0000
0110
0000
,
0000
0011
0000
0000
0002
0000
2003
0000
3110
0000
0000
0110
0000
0000
0011
0000
,
0000
1000
0100
1000
0200
0000
0320
0000
0031
0000
0001
0000
1000
0001
1000
0000
,
1000
0010
0100
0000
0001
0010
0001
0000
0210
0000
0000
0000
0001
0000
0000
0000
,
0010
0000
0001
0000
0310
0100
0001
0100
,
0010
0000
0100
0000
0010
0000
1000
0000
2200
3300
0000
0000
0022
0033
0000
0000
,
0220
0330
0000
0000
0202
0303
0000
0000
0010
0000
1000
0000
0100
0000
1000
0000
,
0010
0000
0100
0000
0001
0000
0100
0000
0022
0033
0000
0000
0202
0303
0000
0000
,
0220
0330
0000
0000
0001
0000
0010
0001
0100
0000
1000
0000
0001
0000
1000
0000
,
0100
0000
0010
0000
0001
0000
0100
1000
0001
0000
0010
0000
0001
0000
0010
0000
,
0100
1000
0010
1000
0100
0010
0100
0010
,
0001
0010
0001
0100
1001
0000
0110
0000
,
1001
0000
0000
0000
0110
0000
0000
0000
0100
1000
0100
1000
0100
0000
0001
0000
,
0001
1000
0001
0010
0100
0000
0100
0000
0001
1000
0001
1000
0001
0000
0100
0000
,
0100
0010
0100
0010
0001
0000
0001
0000
0001
0000
0100
0010
0000
0000
0001
1000
,
0000
0000
0010
0100
0000
0000
0100
0010
0000
0000
0100
0010
0000
0000
0001
0010
,
0000
0000
0100
0010
0000
0000
0100
1000
0010
1000
0001
0010
0001
0010
0001
0100
,
0010
0000
0010
0000
0001
0000
0001
0000
0001
0100
0010
1000
0010
0100
0010
0100
,
0001
0000
0010
0000
0010
1000
0010
0000
0001
0000
0001
0100
0000
0000
0010
1000
,
0000
0000
0001
0010
0000
0000
0001
1000
0022
0000
0000
0000
0000
0000
0000
0000
,
0030
0000
0000
0000
0103
1000
0100
0010
,
0100
0010
0001
1000
1001
1001
1001
0110
,
0110
0000
0200
0000
0301
0010
0001
0010
,
0100
0000
0010
0000
0100
0010
1000
0001
0100
0000
1000
0000
0010
0000
1000
0000
,
0001
0000
0010
0000
0001
0000
0010
0000
0001
1000
0100
0000
0010
0001
1000
0000
,
0010
0000
1000
0100
0010
0000
0100
0000
0001
0010
0100
0000
0001
1000
0100
0000
,
0010
1000
0010
1000
0010
0100
0001
0010
,
0100
1000
0100
1000
0100
0010
0001
0010
0002
0000
0000
0000
1000
0000
0000
0000
,
2000
0000
0000
0000
0010
0000
0000
0000
3203
0000
0000
2300
0000
0000
3200
0000
,
0000
2300
0000
0000
3002
0000
0203
0000
0311
0000
0000
1100
0000
0000
0110
0000
,
0110
0000
0011
0000
0011
0000
1100
0000
0020
0000
0000
2030
0000
0000
3200
0000
,
0000
0302
0000
0000
2003
0000
3020
0000
0131
0000
0000
1010
0000
0000
0110
0000
,
1001
0000
0110
0000
0110
0000
1001
0000
0011
0000
0000
1100
0000
0000
0011
0000
,
0000
0110
0000
0000
0011
0000
1001
0000
0110
0000
0000
0110
0000
0000
1001
0000
,
0000
0110
0000
0000
1001
0000
0110
0000
0110
0000
0000
1001
0000
0000
0110
0000
,
0000
1001
0000
0000
0011
0000
0110
0000
1000
0001
1000
0010
0100
0000
0001
0010
,
0001
0000
0100
0000
0020
0000
0000
0000
0130
1000
0001
1000
0100
0000
0100
0010
,
0100
0000
0001
1000
0100
0000
0001
0000
0010
0100
0010
0000
0001
0000
0100
0010
,
0100
0000
0001
0100
0010
0000
0010
0000
0010
0100
0001
0100
0001
0000
0001
1000
,
0010
0000
0010
1000
0010
0000
0001
0100
0001
0000
0010
1000
0010
1000
0010
0100
,
0001
0100
0001
0100
0010
1000
0010
0100
0010
0100
0001
0100
0010
0000
0010
1000
,
0010
0000
0001
0010
0100
0000
0100
0010
0001
0000
0001
0000
0010
1000
0010
0000
,
0010
0000
0001
0100
0001
0000
0001
0000
0100
0010
0001
0010
0001
1000
0001
1000
,
0100
1000
0100
0010
0100
0010
0001
0010
0002
0000
0203
0000
0302
0000
0203
0000
,
0302
0000
0023
0000
0200
0000
0000
0000
0331
0000
1000
0010
0100
0000
0010
0000
,
0001
0000
0100
0001
0010
0000
1000
0000
0100
0000
0010
1000
0001
0000
0011
0000
,
1100
0000
0011
0000
1100
0000
0000
0000
0001
0000
1000
0000
0010
0001
1000
0000
,
0110
0000
0000
0110
0000
0000
1001
0000
0001
0000
1000
0100
0010
0000
0100
0000
,
0001
0000
1000
0000
0110
0000
0000
0000
0001
0010
1000
0001
0100
0000
0010
0000
,
0001
0000
0100
0000
0001
0000
0000
0000
0010
0100
1000
0001
0100
0000
0010
0000
,
0001
0100
0001
0000
0002
2003
3002
0023
,
0032
0023
0230
0320
0130
0010
0100
1000
,
0011
0000
1100
0000
0001
0000
0000
0000
0110
0000
0000
1010
0000
0000
0110
0000
,
0000
0011
0000
0000
0001
0000
1000
0000
0110
0000
0000
0110
0000
0000
0011
0000
,
0000
1000
0100
1000
0100
0000
0010
0000
0001
0000
0001
0000
1000
0001
1000
0000
,
1000
0010
0100
0000
0001
0010
0001
0000
2200
0000
0000
0000
0000
0000
3000
0001
,
0020
0000
0330
0000
;
