#TITLE:Boys Will Be Boys (Cahill Remix);
#ARTIST:Paulina Rubio;
#GENRE:POP;
#CREDIT:B. M'Rey;
#MUSIC:Boys Will Be Boys (Cahill Remix).ogg;
#BANNER:Boys Will Be Boys (Cahill Remix).png;
#BACKGROUND:Boys Will Be Boys (Cahill Remix)-bg.png;
#CDTITLE:./CDTITLES/Dance Dance Revolution SPACE.PNG;
#SAMPLESTART:54.666;
#SAMPLELENGTH:15;
#OFFSET:-0.253;
#BPMS:0=130;

//--------------- dance-single - B. M'Rey ----------------
#NOTES:
     dance-single:
     B. M'Rey:
     Beginner:
     3:
     0.108909,0.259509,0.061261,0.013614,0,112,103,9,2,0,0,0.108909,0.259509,0.061261,0.013614,0,112,103,9,2,0,0:
0000
0000
0000
0000
,
0000
0000
0000
0000
,
0000
0000
0000
0000
,
0000
0000
0000
0000
,
0000
0000
0000
0100
,
0000
0000
0001
0010
,
0000
0000
0000
1000
,
0100
0000
0001
0010
,
0100
0000
0000
0010
,
0000
0000
0001
0010
,
0000
0000
1000
0100
,
0000
0000
0010
0001
,
0000
0000
0000
1001
,
0000
0000
0000
0000
,
0000
0010
0000
0001
,
0000
0100
0000
0000
,
0000
0010
0000
1000
,
0000
0100
0000
0000
,
0000
0010
0000
0100
,
0000
0001
0000
0000
,
0010
0000
1000
0000
,
0100
0000
0000
0000
,
0000
0001
0000
1000
,
0000
0001
0000
1000
,
0000
0010
0000
0000
,
0000
0100
0000
0100
,
0000
0001
0000
1000
,
0000
0001
0000
1000
,
0000
0010
0000
0000
,
0000
0100
0000
0000
,
0000
0001
0000
1000
,
0000
0010
0000
0100
,
0000
0001
0000
0010
,
0000
0001
0000
1000
,
0000
0100
0000
1000
,
0000
0010
0000
0100
,
0000
0001
0000
0010
,
0000
0001
0000
0100
,
0000
1000
0000
0000
,
0000
0001
0000
0000
,
0000
0100
0000
0000
,
0000
0010
0000
0000
,
0000
1000
0000
0000
,
0000
0000
0000
0000
,
0000
0000
0000
0000
,
0000
0000
0000
0000
,
0000
0001
0000
0000
,
0000
0100
0000
0000
,
0000
0010
0000
0000
,
0000
1000
0000
0000
,
0000
0100
0000
0000
,
0001
0010
0000
0000
,
0000
1000
0100
0000
,
0001
0010
0100
0000
,
0000
0010
0000
0000
,
0001
0010
0000
0000
,
1000
0100
0000
0000
,
0010
0001
0000
0000
,
0000
1001
0000
0000
,
0000
1001
0000
0000
,
0000
1001
0000
1001
,
0000
1001
0000
1001
,
0000
2002
0000
0000
,
0000
3003
0000
0000
,
0000
0100
0000
0000
,
0000
0010
0000
0000
,
0000
0001
0000
0000
,
0000
1000
0000
0000
,
0000
0100
0000
0000
,
0000
0010
0000
0000
,
0000
1000
0000
0000
,
0000
0001
0000
0000
,
0000
1000
0000
0001
,
0000
1000
0000
0001
,
0000
0100
0000
0000
,
0000
0010
0000
0000
,
0000
1001
0000
0000
;

//--------------- dance-single - B. M'Rey ----------------
#NOTES:
     dance-single:
     B. M'Rey:
     Easy:
     4:
     0.176004,0.311411,0.14975,0,0,181,159,22,0,0,0,0.176004,0.311411,0.14975,0,0,181,159,22,0,0,0:
0000
0000
0000
0000
,
0000
0000
0000
0000
,
0000
0000
0000
0000
,
0000
0000
0000
0000
,
0000
0000
0000
0100
,
0000
0010
0000
1001
,
0000
0001
0000
0010
,
0000
0100
0100
0100
,
0000
0100
0000
1001
,
0000
0010
0000
0001
,
0000
0100
0000
0010
,
0001
1000
0010
0100
,
0000
0001
0000
1001
,
0000
0000
0000
0000
,
0000
1000
0001
0010
,
0000
0100
0100
0100
,
0000
0001
1000
0010
,
0000
0001
0001
0001
,
0000
0001
1000
0010
,
0000
0010
0010
0010
,
0000
1000
0001
0100
,
0000
1010
1010
1010
,
0000
0001
0000
1000
,
0000
0001
0000
0010
,
0000
0100
0100
0100
,
0000
0010
0010
0010
,
0000
0001
0000
0001
,
0000
1000
0000
1000
,
0000
0010
0010
0010
,
0000
0100
0000
0000
,
0000
1001
0000
0010
,
0001
0100
0000
0010
,
0000
1000
0000
0001
,
0010
0001
0000
0100
,
0000
0010
0000
1000
,
0100
1000
0000
0001
,
0000
0010
0000
0001
,
0000
1000
0000
0010
,
0000
1001
0000
0010
,
0000
0100
0000
0001
,
0000
1000
0000
0010
,
0000
1000
0001
1000
,
0001
1001
0000
0000
,
0000
0000
0100
0000
,
0000
0010
0000
0000
,
0000
0001
0000
0000
,
0000
1000
0000
0000
,
0000
0001
0000
0000
,
0000
0100
0000
0000
,
0000
0010
0000
0000
,
0000
1001
0000
0001
,
0010
0001
0000
0100
,
0000
0010
0000
1000
,
0000
0001
0000
0001
,
1000
1001
0000
0010
,
1000
0010
0000
0100
,
0000
0001
0000
1000
,
0000
0001
0000
1000
,
0000
0001
1000
0001
,
1000
0001
1000
0001
,
1000
1001
0000
1001
,
0000
1001
0000
1001
,
0000
1001
1001
1001
,
1001
0000
0000
0000
,
0000
0010
0000
0100
,
0000
0001
0000
0010
,
0000
0001
0000
1000
,
0000
0010
0000
0100
,
0000
1000
0000
0001
,
0000
0010
0000
0001
,
0000
1000
0000
0010
,
0000
1000
0000
0001
,
0000
1001
0000
0010
,
0000
1001
0000
0100
,
0000
0001
0000
0010
,
0000
1000
0000
0001
,
0000
1001
0000
0000
;

//--------------- dance-single - B. M'Rey ----------------
#NOTES:
     dance-single:
     B. M'Rey:
     Medium:
     8:
     0.301444,0.467116,0.435635,0,0,310,246,64,0,0,0,0.301444,0.467116,0.435635,0,0,310,246,64,0,0,0:
0000
0000
0000
0000
,
0000
0000
0000
0000
,
0000
0000
0000
0000
,
0000
0000
0000
0000
,
0000
0000
0000
1001
,
0000
0010
0100
0010
,
0000
0001
0010
1000
,
0000
0100
1000
0010
,
0000
0001
1000
1001
,
0000
0001
0010
0100
,
0000
1000
0001
0010
,
0100
0001
1000
0010
,
0100
0001
1000
1001
,
0000
0000
0000
0000
,
0000
0010
1000
0100
,
1000
1001
1001
1001
,
0000
0010
0100
0001
,
0010
1001
1001
1001
,
0000
0010
1000
0100
,
1000
0110
0110
0110
,
0001
1000
0010
0100
,
0001
0110
0110
0110
,
0000
0001
1000
0010
,
0100
0001
1000
0010
,
0100
0000
0001
0000
1000
0000
0010
0001
,
1000
0100
0100
0100
,
0000
0001
1000
0010
,
0100
0001
1000
0010
,
0100
0000
0001
0000
1000
0000
0010
0001
,
1000
0100
1001
1001
,
1001
1001
0000
0010
,
0100
0001
0000
0010
,
1000
0100
1000
0010
,
0100
0001
1001
1001
,
1001
1001
0000
0010
,
0100
0001
0000
0010
,
0100
0001
1000
0010
,
0100
1000
1001
0110
,
1001
0110
0000
0001
,
1000
0010
0100
0001
,
0010
0001
1000
0100
,
1000
0010
0100
0001
,
1000
1001
0000
0000
,
0000
0000
0000
0000
,
0000
0000
0000
0000
,
0000
0000
0000
0000
,
0000
0010
0001
0010
,
0100
1000
0100
0010
,
0001
0010
0100
1000
,
0100
0010
0001
0010
,
0100
1001
0000
0010
,
0100
0001
0000
0001
,
1000
0010
0100
1000
,
0001
0010
1001
0110
,
1001
0110
0000
0001
,
0010
1000
0000
0100
,
1000
0010
0001
0010
,
0100
0001
1001
0110
,
1001
0110
1001
0110
,
1001
0110
1001
0110
,
1001
1001
0110
1001
,
0110
1001
0110
1001
,
0110
1001
1001
1001
,
1001
0000
0000
0000
,
0000
0100
1000
0010
,
0001
0010
0001
0100
,
1000
0100
1000
0010
,
0100
0001
0010
0001
,
1000
0100
1000
0010
,
0100
1000
0001
0010
,
0001
0100
1000
0100
,
1000
0010
1001
0110
,
1001
0110
0001
0010
,
0001
1000
0100
1000
,
0010
0100
0001
0010
,
1000
0100
1001
0110
,
1001
0110
0000
0000
;

//--------------- dance-single - B. M'Rey ----------------
#NOTES:
     dance-single:
     B. M'Rey:
     Hard:
     14:
     0.468697,0.752576,0.7011,0.027227,0.078278,482,379,103,4,0,2,0.468697,0.752576,0.7011,0.027227,0.078278,482,379,103,4,0,2:
0000
0000
0000
0000
,
0000
0000
0000
0000
,
0000
0000
0000
0000
,
0000
0000
0000
0000
,
0000
0000
0000
1001
,
0000
0001
0010
0001
0010
0001
0010
0000
,
0000
0000
0100
0000
1000
0000
0100
0000
0010
0000
1000
0000
0100
0000
0000
0001
,
0000
1000
0010
0100
0001
1000
0100
0000
,
0011
1100
0110
1001
,
0000
1000
0100
1000
0100
1000
0100
0000
,
0000
0000
0010
0000
0001
0000
0100
0000
0010
0000
1000
0000
0100
0000
0000
1000
,
0000
0010
0100
0010
1000
0100
1000
0000
,
1100
0011
0110
2002
,
0000
0000
0000
0000
,
0000
0000
3103
0010
0001
0010
0001
0010
,
0100
1000
0110
0000
0110
0000
0110
0000
,
0000
1000
1000
0100
1000
0100
1000
0010
,
0001
0010
1100
0000
1100
0000
1100
0000
,
0000
0000
0001
0010
0001
1000
0001
0010
,
0100
1000
0110
0000
0110
0000
0110
0000
,
0100
0001
1000
0100
1000
0100
1000
0010
,
0001
0100
0011
0000
0011
0000
0011
0000
,
0000
0000
0000
0000
1001
0000
0000
1001
0000
0000
0110
0000
0110
0000
0000
1100
,
0000
0000
1001
0000
0110
0000
0000
0011
0000
0000
1100
0000
0011
0000
0000
0000
,
0010
1000
0010
1000
0010
1000
0010
0001
,
0100
0001
0100
0000
0100
0000
0100
0000
,
0000
0000
0000
0000
1001
0000
0000
1001
0000
0000
0110
0000
0110
0000
0000
0101
,
0000
0000
1001
0000
0110
0000
0000
1010
0000
0000
0101
0000
1010
0000
0000
0000
,
0010
0001
0010
0001
0010
0001
0010
1000
,
0100
1000
0100
0000
0011
0000
1100
0000
,
0110
0000
1001
0000
0000
0001
0010
0001
,
0010
0001
0010
0000
0000
0100
1000
0100
,
0010
0000
1000
0000
0100
0000
0000
0001
0000
0000
1000
0000
0010
0000
0100
0000
,
0001
1000
0100
0000
1100
0000
0011
0000
,
0110
0000
1001
0000
0000
1000
0100
1000
,
0100
1000
0100
0000
0000
0010
0001
0100
,
0010
0000
1000
0000
0100
0000
0000
1000
0000
0000
0001
0000
0100
0000
0010
0000
,
1000
0100
1000
0000
1100
0000
0011
0000
,
0110
0000
1001
0000
0001
0000
1000
0010
,
1000
0010
1000
0000
0010
0000
0100
0001
,
0100
0001
0100
0000
0010
0000
1000
0001
,
1000
0001
1000
0000
1100
0000
0011
0000
,
0110
2002
0000
0000
,
0000
0000
0000
0000
,
0000
0000
0000
0000
,
0000
0000
0000
0000
,
0000
3103
0010
0001
,
0010
0100
1000
0100
,
0010
0001
0010
0100
,
1000
0100
0010
0001
,
0010
0000
1001
0000
0000
0001
0010
0001
,
0010
0001
0010
0000
0000
0100
1000
0100
,
0010
0000
1000
0000
0100
0000
0000
0001
0000
0000
1000
0000
0010
0000
0100
0000
,
0001
1000
0100
0000
1100
0000
0011
0000
,
0110
0000
1001
0000
0000
1000
0100
1000
,
0100
1000
0100
0000
0000
0010
0001
0100
,
0010
0000
1000
0000
0100
0000
0000
1000
0000
0000
0001
0000
0100
0000
0010
0000
,
1000
0100
1000
0000
1100
0000
0011
0000
,
0110
1001
0011
1100
,
0110
1001
0101
1010
,
0101
0000
1010
1010
1010
0000
0101
0101
,
0101
0000
1001
1001
1001
0000
0110
0110
,
0110
0000
0000
0000
0010
0100
0001
1000
0010
0100
0001
1000
0010
0100
0001
1000
,
0010
0100
0001
1000
0010
0000
0000
0000
0000
0000
0000
0000
0000
0000
0000
0000
,
0000
0000
0110
0000
0001
0000
1000
0010
,
1000
0010
1000
0000
0010
0000
0100
0001
,
0100
0001
0100
0000
0010
0000
1000
0001
,
1000
0001
1000
0000
0100
0010
1000
0001
,
0010
0100
0010
0000
0001
0000
1000
0010
,
1000
0010
1000
0000
0010
0000
0100
0001
,
0100
0001
0100
0000
0010
0000
1000
0001
,
1000
0001
1000
0000
1100
0000
0011
0000
,
0110
0000
0000
0000
1001
0000
0000
1001
0000
0000
0110
0000
0110
0000
0000
1100
,
0000
0000
1001
0000
0110
0000
0000
0011
0000
0000
1100
0000
0011
0000
0000
0000
,
0010
1000
0010
0000
0100
0000
0010
0001
,
0100
0001
0100
0000
1100
0000
0011
0000
,
0110
1001
0000
0000
;
