#VERSION:0.83;
#TITLE:BRAIN POWER;
#ARTIST:ノマ;
#ARTISTTRANSLIT:NOMA;
#GENRE:VARIETY;
#CREDIT:JMRDragonXVI & B. M'Rey;
#MUSIC:BRAIN POWER.ogg;
#BANNER:BRAIN POWER.png;
#BACKGROUND:BRAIN POWER-bg.png;
#CDTITLE:./CDTITLES/SOUND VOLTEX II -infinite infection-.PNG;
#SAMPLESTART:71.375;
#SAMPLELENGTH:15;
#OFFSET:-0.176;
#BPMS:0=170.012,164=170.072,168=170.21,172=170.347,176=170.49,180=170.63,184=170.85,188=171.151,192=171.58,196=172.151,200=172.74,204=173;
#DISPLAYBPM:170;

//--------------- dance-single - JMRDragonXVI & B. M'Rey ----------------
#NOTEDATA:;
#STEPSTYPE:dance-single;
#DESCRIPTION:JMRDragonXVI & B. M'Rey;
#DIFFICULTY:Beginner;
#METER:7;
#CREDIT:JMRDragonXVI & B. M'Rey;
#RADARVALUES:0,0,0,0,0;
#NOTES:
0000
0000
0000
0000
,
0000
0000
0000
0000
,
0000
0000
0000
0000
,
0000
0000
0000
0000
,
0000
0000
0000
0000
,
0000
0000
0010
0000
,
0100
0000
0010
0000
,
1000
0000
0001
0000
,
0010
0000
0001
0000
,
1000
0001
1000
0000
,
0010
0000
0100
0000
,
1000
0000
0010
0000
,
0100
0000
0010
0000
,
0001
0000
1001
0010
,
0000
0000
1001
0010
,
0000
0000
1001
0010
,
1001
0100
0010
0000
,
1000
0000
0001
0010
,
0100
0001
0000
0000
,
1000
0000
0010
0100
,
1000
0010
0000
0001
,
0000
0100
0010
1000
,
0000
0100
0000
0010
,
1000
0001
0010
0100
,
0000
0001
1000
0000
,
0001
1000
0010
0100
,
0000
0001
1000
0010
,
0000
0100
0001
1000
,
0100
0000
0010
0000
,
1000
0001
0010
0000
,
0100
0000
0010
0000
,
1000
0001
0010
0100
,
0010
0000
1000
0000
,
0001
1000
1001
0000
,
0010
0000
0100
0000
,
0001
0000
1000
0000
,
0010
0000
0100
0000
,
0001
0000
0110
0000
,
0001
0000
1000
0000
,
0010
0000
0100
0010
,
1000
0000
0001
0000
,
0100
0001
0010
1000
,
0000
0100
0000
0010
,
0001
1000
0010
0000
,
0100
0000
0010
0000
,
1000
0001
0010
0100
,
0000
0010
0000
0001
,
1000
0010
0100
1000
,
0000
0010
0000
0100
,
0001
1000
0010
0100
,
0001
1000
1001
0000
,
1001
0000
0010
0100
,
0010
0100
0010
1000
,
0001
1000
0001
1000
,
0100
0010
0100
0010
,
0100
1000
0001
1000
,
0001
1000
0100
0010
,
0100
0010
0100
1000
,
0001
0010
0001
1000
,
0010
1000
0010
1000
,
0100
0010
0100
0010
,
0100
1000
0010
1000
,
0010
1000
0100
0010
,
0100
0010
0100
1000
,
0001
1000
0001
0100
,
0001
0100
0010
0100
,
0010
1000
0010
1000
,
0001
0100
0010
0100
,
0001
0100
0001
1000
,
0001
1000
0010
1000
,
0010
0100
0001
0100
,
0001
0100
0010
1000
,
0001
1000
0100
1000
,
0100
0010
0100
1000
,
0001
1000
0001
0100
,
0001
0100
0010
0000
;

//--------------- dance-single - JMRDragonXVI & B. M'Rey ----------------
#NOTEDATA:;
#STEPSTYPE:dance-single;
#DESCRIPTION:JMRDragonXVI & B. M'Rey;
#DIFFICULTY:Easy;
#METER:10;
#CREDIT:JMRDragonXVI & B. M'Rey;
#RADARVALUES:0,0,0,0,0;
#NOTES:
0000
0000
0000
0000
,
0000
0000
0000
0000
,
0000
0000
0000
0000
,
0000
0000
0000
0000
,
0000
0000
0000
0000
,
0000
0000
0001
0001
,
0010
0010
0100
0100
,
1000
1000
0100
0100
,
0010
0010
0001
0001
,
0010
0000
0100
0100
,
1000
1000
0100
0100
,
0010
0010
1000
1000
,
0001
0001
0010
0010
,
0100
0100
1001
0010
,
0100
0010
1001
0010
,
0100
0010
1001
0100
,
1001
0100
0010
0000
,
1000
0000
0001
1000
,
0001
1000
0001
0010
,
0100
0010
0100
0010
,
0001
1000
0001
1000
,
0001
0100
0010
0100
,
0010
1000
0010
1000
,
0100
1000
0100
0010
,
0100
0000
0000
0010
0000
0000
1000
0000
0000
0001
1000
0001
,
1001
0101
0100
1000
,
0100
1000
0100
0010
,
0001
0010
0001
0010
,
0100
1000
0100
1000
,
0100
0010
0001
0010
,
0001
0010
0100
1000
,
0100
1000
0100
0010
,
0001
1000
0001
1000
,
2000
3200
0301
0000
,
0010
0000
0000
0000
0000
0000
1000
0000
0001
0000
0010
0000
,
0100
0000
0001
0000
,
1000
0001
1000
0000
0010
0000
0100
0000
,
0001
0000
1000
0000
,
0010
0000
0010
0000
0010
0000
0100
0000
0000
0000
0000
0000
,
0001
0000
0000
0000
1000
0000
0001
1000
,
0001
0000
0010
0000
,
0100
0001
0010
0100
,
0010
0100
0001
0100
,
0001
1000
0100
0010
,
0100
0010
0001
0010
,
0001
1000
0010
1000
,
0010
0100
0001
0010
,
0100
0010
0001
0100
,
0001
1000
0100
1000
,
0001
0010
0100
1000
,
0100
0010
0001
0000
,
0010
0000
0100
1000
,
0010
1000
0001
0010
1001
0000
1100
0000
,
0110
0000
0110
0000
0001
0000
0100
1000
,
0001
0010
0001
1000
0010
0000
1000
0000
,
0100
0000
0001
0000
0100
0000
0010
0100
,
0010
0100
0001
0010
0101
0000
0011
0000
,
1100
0000
1010
0000
0010
0000
0100
0010
,
0001
1000
0010
0100
0010
0000
0001
0000
,
0010
0100
0010
1000
0001
0000
0010
0000
,
0001
0010
0100
1000
0110
0000
0101
0000
,
0110
0000
1010
0000
0001
0000
0100
1000
,
0100
1000
0100
0010
0001
0000
0100
0000
,
0010
0000
0001
0000
0010
0000
1000
0010
,
0100
0010
0100
1000
1100
0000
0011
0000
,
1100
0000
1010
0000
0100
0000
0001
0100
,
0001
0010
0100
0010
0001
0000
0100
0000
,
0001
0010
0001
0100
0010
0000
0100
0000
,
0001
1000
0001
0100
0110
0000
0110
0000
,
0011
0000
0011
0000
0001
0000
0010
1000
,
0010
1000
0001
0100
0010
0000
0100
0000
,
0001
1000
0010
0100
1010
0000
0001
0010
,
0100
0000
0001
0100
1010
0000
0001
0010
,
0001
0000
0010
1000
0110
0000
0001
0010
,
0110
0000
0100
1000
0110
0000
0011
0000
,
1100
1010
2002
0000
,
0000
0000
0000
0000
,
3003
0000
0000
0000
;

//--------------- dance-single - JMRDragonXVI & B. M'Rey ----------------
#NOTEDATA:;
#STEPSTYPE:dance-single;
#DESCRIPTION:JMRDragonXVI & B. M'Rey;
#DIFFICULTY:Medium;
#METER:12;
#CREDIT:JMRDragonXVI & B. M'Rey;
#RADARVALUES:0,0,0,0,0;
#NOTES:
0000
0000
0000
0000
,
0000
0000
0000
0000
,
0000
0000
0000
0000
,
0000
0000
0000
0000
,
0000
0000
0000
0000
,
0000
0000
1000
0001
,
0010
0001
0100
0010
,
1000
0100
1000
0001
,
0010
0100
1000
0010
,
0100
0000
0001
0010
,
0001
1000
0100
1000
,
0010
0100
0001
1000
,
0010
0100
0001
1000
,
0001
1000
0010
0100
,
0010
1000
1001
0010
,
0100
0010
0101
1010
,
0101
0000
0000
0000
1010
0000
0000
0000
0010
0000
0000
0100
0000
0000
0001
0000
,
0000
0010
0000
0000
1000
0000
0010
0000
0100
0000
0001
0000
1000
0000
0010
0000
,
0100
0001
0010
0001
,
1000
0010
0100
0000
0001
1000
0010
0100
,
0010
1000
0100
1000
,
0010
0000
0001
0100
0010
0000
0001
1000
,
0010
0000
0100
0000
0010
0000
1000
0010
,
0100
0001
1000
0000
0010
0000
0100
0000
,
0001
0000
0000
1000
0000
0000
0020
0000
0000
0031
0001
1000
,
1000
1001
0010
0100
,
0001
0010
1000
0000
1000
0000
0010
0000
,
0100
0001
1000
0000
1001
0000
0110
0000
,
0101
0000
0010
0000
1000
0100
1000
0000
,
0010
0100
0001
1000
0010
0000
0100
0000
,
0010
0000
1000
0000
0100
1000
0100
0010
,
0100
0000
0001
0000
0010
1000
0001
1000
,
0001
0000
0010
0000
0100
0000
0010
1000
,
0001
0000
0000
1000
0001
1000
0001
0000
0000
0010
0000
0000
,
0100
0001
0100
0001
0000
0000
0100
0000
0010
0000
1000
0000
,
0010
0100
0010
0100
0000
0000
0001
0000
0000
0010
0000
0000
,
1000
0001
1000
0000
0010
0000
0100
0001
,
0001
0100
0001
0100
0000
0000
0010
0000
0000
1000
0000
0000
,
0010
0000
1000
0000
0001
0000
0010
0000
0000
0100
0000
0000
,
0001
0000
0100
0000
0001
0000
0100
0000
0000
0000
0000
0000
0010
0000
0000
0000
0000
0000
1000
0000
0000
0010
0000
0000
,
1000
0000
0000
0000
0000
0000
0010
0000
0000
0001
0000
0000
1000
0000
0000
0000
0000
0000
0010
0000
0100
0000
0010
0000
,
0100
0000
0010
1000
0001
0000
0010
0100
,
0001
0000
0010
1000
0010
0000
0100
0000
,
0001
0010
1000
0100
0010
0000
0100
1000
,
0100
0000
0010
0100
0001
0000
0010
1000
,
0010
1001
0101
0110
,
0001
1000
0010
0100
0010
0000
1000
0000
,
1010
0110
0101
0010
,
1000
0001
1000
0000
0010
0001
0100
0000
,
0001
1000
0010
0000
0100
0001
0010
1000
,
0100
0000
0001
0000
0010
0000
0100
0000
1001
0000
0000
0110
0000
0000
0101
0000
,
0000
0110
0000
0000
1001
0000
0001
0000
0010
0000
0100
0000
1000
0000
0100
0000
,
1000
0001
1000
0010
0100
0010
0100
0010
,
1000
0001
0010
0001
0010
0100
1000
0010
,
0100
0001
1000
0100
1000
0010
0100
0001
,
1000
0100
0010
0100
0010
0100
1000
0010
,
1000
0100
1000
0010
0100
0001
0100
0001
,
0100
0010
1000
0001
1000
0001
1000
0010
,
0100
0001
1000
0010
1000
0010
1000
0001
,
0010
0001
0010
0100
1000
0010
0100
0010
,
1000
0010
0100
0001
0100
0010
1000
0100
,
0010
0001
0100
0010
0100
0001
0100
0001
,
0010
0001
0100
0010
0100
0010
0100
0001
,
1000
0010
0100
0001
0100
0010
1000
0001
,
0100
0010
1000
0010
1000
0010
0100
0001
,
1000
0001
1000
0010
0100
0001
0010
0001
,
0010
0100
0010
0100
1000
0001
0100
0010
,
0100
0010
1000
0100
1000
0001
0010
0100
,
1000
0001
0010
0001
0010
0100
0010
0100
,
1000
0001
1000
0001
1000
0100
0010
0100
,
1000
0010
1000
0010
0100
0001
0100
0001
,
1000
0100
1000
0001
0011
0000
0010
0001
,
1000
0100
0010
0001
0110
0000
0010
0100
,
1000
0001
1000
0001
0110
0000
1000
0100
,
1010
0000
0100
0010
0001
0010
0001
1000
,
0001
1000
0010
1000
2002
0000
0000
0000
,
0000
0000
0000
0000
,
3003
0000
0000
0000
;

//--------------- dance-single - JMRDragonXVI & B. M'Rey ----------------
#NOTEDATA:;
#STEPSTYPE:dance-single;
#DESCRIPTION:JMRDragonXVI & B. M'Rey;
#DIFFICULTY:Hard;
#METER:17;
#CREDIT:JMRDragonXVI & B. M'Rey;
#RADARVALUES:0,0,0,0,0;
#NOTES:
0000
0000
0000
0000
,
0000
0000
0000
0000
,
0000
0000
0000
0000
,
0000
0000
0000
0000
,
0000
0000
0000
0000
,
0000
0000
0001
0100
,
0010
1000
0100
0010
,
0100
1000
0010
0100
,
0001
0000
1000
0000
0010
0000
0001
1000
,
0001
0000
0010
0000
0100
0000
1000
0000
0000
0100
0000
0000
0100
0000
0000
0000
0000
0000
0010
0000
0000
0000
0000
0000
,
0001
0010
0100
1000
,
0100
1000
0100
0010
,
0001
1000
0001
0100
,
0001
0000
0100
0010
0001
1000
0001
1000
,
0100
1000
0100
0010
0001
0100
0001
1000
,
0010
0100
0001
1000
1001
0000
0101
0000
,
0100
0000
0010
0000
0001
0010
0001
1000
1001
0000
0000
0110
0000
0000
0101
0000
,
0000
0110
0000
0000
0010
0000
1000
0000
0100
0000
0010
0000
0001
0000
1000
0000
,
0100
1000
0010
1000
0100
0010
0100
1000
,
0001
0010
0100
0010
0001
0010
0001
0100
,
0010
0100
0001
0010
0100
0010
0001
1000
,
0100
0010
0100
1000
0100
0010
0001
1000
,
0010
0100
0010
0100
0010
1000
0100
1000
,
0001
0010
0100
0010
0100
1000
0001
1000
,
0001
0000
0000
0010
0000
0000
0001
0000
0000
0100
0000
0000
0002
0000
0000
0000
0000
0000
0103
0000
1000
0000
0010
0000
,
1001
0000
0101
0000
0001
1000
0100
0010
,
0100
1000
0001
0100
0001
0100
0001
1000
,
0010
0100
0010
1000
0001
0000
0100
0000
,
0010
0000
0001
0000
0001
0100
0001
0010
,
0100
0010
0100
0010
0001
1000
0100
1000
,
0010
1000
0010
0100
0010
0100
0001
0010
,
0100
1000
1001
0000
0101
0000
0011
0000
,
0100
1000
0001
1000
0001
1000
0100
0010
,
0001
0000
0000
0100
0000
0010
0000
0001
0000
0100
0000
0000
2000
0000
0000
0000
0000
0000
0000
0000
0000
0000
0000
0000
,
3001
0000
0000
0000
1000
0000
0000
0000
0100
0000
0000
0000
0010
0000
0000
0000
0100
0000
0000
0000
0010
0000
0000
0000
0001
0000
0000
0000
0000
0000
0000
0000
0000
1000
0000
0000
0000
0000
0000
0000
0000
0000
0010
0000
0000
0000
0000
0000
,
0001
1000
0010
1000
0010
0100
0002
0000
0000
0000
0000
0000
,
0013
0100
0010
0000
0110
0000
0010
0001
,
0100
1000
0100
1000
0010
1000
0010
0000
0000
0001
0000
0000
,
0010
1000
1001
0000
,
0010
0000
0100
0000
0001
0000
0100
0000
0001
0000
0100
0000
0001
0000
0000
0000
0000
0000
0010
0000
0000
0100
0000
0000
,
0100
0000
0000
0001
0000
0000
1001
0000
0000
0010
1000
0100
,
0010
0000
0100
0000
0010
1000
0100
0010
,
0001
0010
0001
0010
0100
1000
0001
1000
,
0001
0100
0010
0100
0001
0010
0001
0100
,
0010
0100
0001
0100
0010
1000
0010
0100
,
0001
0010
0100
0010
0100
0010
0001
1000
,
0010
1000
0010
1000
0001
0100
0001
1000
,
0100
1000
0010
0100
0010
0100
0001
1000
,
0100
0010
0100
1000
0001
0010
0100
0010
,
0100
1000
0001
0010
0001
1000
0001
0100
,
0001
0100
0010
1000
0100
1000
0100
0000
1001
MMMM
0000
0110
MMMM
0000
0101
0000
,
MMMM
0011
0000
MMMM
1100
MMMM
1001
0000
0011
0000
1000
0000
0001
0100
0010
1000
,
0010
1000
0010
0100
0001
0010
0100
1000
0001
0010
0001
0010
0001
0000
0010
0000
,
0100
0000
0001
0000
1000
0000
0001
0000
0010
0000
0100
0000
0001
1000
0001
0100
,
0001
0100
0010
1000
0010
0100
0001
1000
0001
1000
0010
1000
0010
0000
1000
0000
,
0010
0000
1000
0000
0010
0000
0100
0000
0001
0000
0100
0000
0001
0010
0001
1000
,
0001
1000
0010
1000
0010
0100
0010
0100
0001
0100
0001
0000
1000
0000
0001
0000
,
1000
0000
0001
0000
0010
0000
1000
0000
0100
0000
0010
0000
0100
1000
0001
0100
,
0001
0100
0010
0100
0001
1000
0001
0010
0001
0010
0100
0000
1000
0100
1000
0000
,
0010
1000
0001
0000
0001
0010
0001
0000
0010
0000
1000
0000
0100
0010
0100
0010
,
0100
1000
0001
1000
0001
0100
0001
0100
0010
0001
1000
0000
0010
0000
0100
0000
,
0010
0000
0100
0000
0001
0000
0100
0000
0001
0000
0100
0000
0010
0100
0010
0100
,
0001
1000
0001
0010
0001
0100
0010
0100
0010
0100
0001
0000
1000
0000
0001
0000
,
1000
0000
0001
0000
0100
0000
0010
0000
0100
0000
0010
0000
0001
1000
0100
0010
,
0001
0010
0001
0010
0100
1000
0100
1000
0100
0010
0001
0000
1000
0000
0100
0000
,
1000
0000
0010
0000
1000
0000
0100
0000
0010
0000
0100
0000
0010
1000
0001
1000
,
0001
0010
0001
1000
0010
1000
0001
1000
0001
0100
0001
0100
0010
0000
0001
0010
,
0000
0010
0100
0000
0100
1000
0100
0000
0001
0000
1000
0000
0010
0000
1000
0000
,
0100
0010
0001
0010
0001
0010
0100
1000
0100
1000
0001
0000
1000
0000
0001
0000
,
1000
0000
0001
0000
0100
0000
0010
0000
1000
0000
0010
0000
0001
0100
0010
0100
,
0010
0100
0001
1000
0001
1000
0001
0100
0010
1000
0001
0000
1000
0000
0001
0000
,
1000
0000
0001
0000
0010
0000
0110
0000
0100
0010
0100
1000
0010
1000
0010
1000
,
0001
0100
0001
0100
0001
0010
0100
0000
0110
0000
0001
1000
0010
1000
0010
1000
,
0001
0100
0010
0100
0001
0100
0001
0000
1001
0000
0010
0100
0010
0100
0010
0000
,
1001
0000
0001
1000
0100
0010
0100
0010
0100
0000
0001
1000
0001
0000
0010
0100
,
0010
0000
0010
1000
0001
0010
0001
0000
2002
0000
0000
0000
0000
0000
0000
0000
,
0000
0000
0000
0000
,
3003
0000
0000
0000
;
