#TITLE:BLUST OF WIND;
#ARTIST:Anemo=Aspel by MLREC.;
#GENRE:CROSSOVER HOUSE;
#CREDIT:B. M'Rey;
#MUSIC:Blust of Wind.ogg;
#BANNER:BLUST OF WIND.png;
#BACKGROUND:BLUST OF WIND-bg.png;
#CDTITLE:./CDTITLES/beatmania IIDX 18 Resort Anthem.PNG;
#SAMPLESTART:3.360;
#SAMPLELENGTH:15;
#OFFSET:-0.056;
#BPMS:0=145;

//--------------- dance-single - B. M'Rey ----------------
#NOTES:
     dance-single:
     B. M'Rey:
     Beginner:
     4:
     0,0,0,0,0:
0000
0000
0000
0000
,
0000
0000
0000
0000
,
1000
0000
0010
0000
,
0100
0000
0001
0000
,
1000
0000
0010
0000
,
0100
0000
0010
0010
,
0001
0000
1000
0000
,
0010
0000
0100
0000
,
0010
0000
1000
0000
,
0000
0001
1000
0000
1000
0000
0001
0000
,
0010
0000
0100
0000
,
0010
1000
0100
0000
,
0001
0000
0010
0000
,
1001
0000
0000
0000
,
0100
0000
0010
0000
,
1000
0000
0001
0000
,
0010
0000
0001
0000
,
1001
0000
1001
0000
,
1001
0000
1001
0000
,
0010
0000
0000
0100
,
1000
0100
0000
0000
,
0001
0000
0000
0010
,
0100
0010
0000
0000
,
1000
1000
1000
0100
,
0010
0000
0001
0000
,
0010
0000
0100
0000
,
0001
0000
0000
0000
,
1000
0000
0010
0000
,
0100
0000
0010
0000
,
1000
0000
0001
0000
,
0010
0000
0001
0000
,
0100
0000
0000
0000
,
0000
0000
0000
0000
,
0001
0000
1000
0000
,
0010
0000
0100
0000
,
0010
0000
1000
0000
,
0010
0100
0010
0000
,
0001
0000
1000
0000
,
0010
0000
0100
0000
,
0001
0000
1000
0000
,
0001
0100
0010
0000
,
1000
0000
0010
0000
,
0100
0000
0001
0000
,
0010
0000
0001
0000
,
1000
0000
0000
0000
,
0010
0000
0100
0000
,
1001
0000
0000
0000
,
0000
0100
0000
0000
0000
0001
0000
0000
,
0000
0000
0000
0000
,
1000
0000
0000
0000
,
0010
0000
0100
0010
,
0001
0001
0000
1000
,
0000
0010
0000
0100
,
0001
0010
1000
0001
,
0010
0100
0001
0000
,
0010
0000
1000
0000
,
0100
0000
0010
0000
,
0001
0000
0000
0000
,
0010
0000
0100
0000
,
0010
1000
0100
0000
,
0001
0000
0010
0000
,
1001
0000
0000
0000
,
0100
0000
0010
0000
,
1000
0000
0001
0000
,
0010
0000
0001
0000
,
1001
0000
0000
0000
,
0010
0000
0000
0000
,
0100
0000
0000
0000
,
0001
0000
0000
0000
,
1000
0000
0000
0000
,
0010
0000
0100
0100
,
0100
0000
0000
0000
;

//--------------- dance-single - B. M'Rey ----------------
#NOTES:
     dance-single:
     B. M'Rey:
     Easy:
     8:
     0,0,0,0,0:
0000
0000
0000
0000
,
0000
0000
0000
0000
,
1001
0000
0010
0100
0001
0000
0010
0000
,
1000
0000
0010
0100
0010
0000
1000
0000
,
0100
0010
1000
0001
,
0010
0100
0001
0000
0010
0100
0001
0000
,
0010
0000
1000
0000
0010
0100
1000
0000
,
0010
0000
0100
0000
0010
0100
0001
0000
,
0010
0000
1000
0000
0010
0100
0010
0000
,
0000
0001
1000
0000
0010
0000
0100
0000
,
0001
0000
1000
0010
0100
0000
0001
0000
,
0010
0000
0001
1000
0010
0000
0100
0000
,
0010
1000
0001
0100
,
0010
1000
0001
0000
0010
1000
0001
0000
,
0010
0100
0010
0001
,
1000
0000
0010
0100
1000
0000
0001
0000
,
0010
0100
0010
0001
,
1001
0000
0101
0000
,
0110
0000
1010
0000
,
0001
0000
1000
0000
0010
0000
0100
0001
,
1000
0010
0100
0010
,
0001
1000
0010
0000
0100
0000
1000
0000
,
0010
1000
0100
0000
0010
0000
0001
0000
,
0010
1001
1001
0010
,
0100
0010
0001
0000
0010
0000
1000
0000
,
0010
0100
0010
0001
,
1000
0000
0001
0000
,
0001
1000
0100
1000
,
0100
1000
0001
0010
,
0001
1000
0010
0100
,
0010
1000
0100
0010
,
0001
0000
1000
0000
,
0100
0000
0010
0000
,
0001
1000
0010
0100
,
0001
1000
0010
0000
0010
0000
0100
0000
,
0001
0100
0010
0000
1000
0000
0100
0000
,
0010
0000
1000
0000
0001
0000
0010
0000
1000
0000
0100
0000
,
0001
0100
0010
1000
,
0001
0010
0001
0100
,
0010
1000
0001
0100
,
0010
0000
0001
0000
1000
0000
0000
0000
0000
0010
0100
0010
,
0100
0001
1000
0010
,
0100
0010
1000
0001
,
0010
0001
0100
0010
,
1001
0000
0001
0010
,
0100
0000
1000
0000
0010
0000
0100
0000
0001
0000
0010
0000
,
1001
0000
0000
0000
,
1000
0000
0000
0010
0000
0000
0000
0000
0000
1000
0000
0000
0000
0000
0000
1000
0000
0000
0001
0000
1000
0000
0001
0000
,
0000
0000
0000
0110
0000
0000
0001
0000
1000
0000
0000
0000
,
0020
0100
0100
0100
,
0130
1000
0001
0100
,
0001
0100
0001
0010
,
0100
0010
0100
1000
,
0010
1000
0010
0100
,
0001
0010
0100
1000
,
1001
0110
0101
1010
,
0110
0000
1000
0001
,
0010
0000
0100
0000
,
0001
0000
1000
0010
0100
0000
0001
0000
,
0010
0000
0001
1000
0010
0000
0100
0000
,
0010
1000
0001
0100
,
0010
1000
0001
0000
0010
1000
0001
0000
,
0010
0100
0010
0001
,
1000
0000
0010
0100
1000
0000
0001
0000
,
0010
0100
0010
0001
,
1000
0000
0010
0000
,
0100
0000
0001
0000
,
1000
0000
0010
0000
,
0100
0001
0010
0100
,
1000
0000
0010
0000
,
0100
0000
0001
1000
,
0001
0000
0000
0000
;

//--------------- dance-single - B. M'Rey ----------------
#NOTES:
     dance-single:
     B. M'Rey:
     Medium:
     11:
     0,0,0,0,0:
0000
0000
0000
0000
,
0000
0000
0000
0000
,
1000
0000
0001
0010
0100
0000
0010
0000
,
0100
0000
0001
1000
0010
0000
0100
0000
,
0010
0000
0001
0010
0001
0000
1000
0100
,
1000
0000
0010
0100
0010
0000
1001
0000
,
0101
0000
0010
0100
0010
0000
1000
0000
,
0100
0000
1000
0100
1000
0000
0010
0000
,
0100
0000
0001
0010
0001
0000
0100
0000
,
0000
0001
1000
0000
0010
0100
0000
0000
,
0001
0010
1000
0100
,
0010
1000
0100
1000
0010
0000
0001
0100
,
0010
0000
0001
1000
0010
0000
0100
0010
,
1000
0000
1001
0000
0001
1000
0010
0000
,
0100
0000
0010
1000
0100
0000
0001
0010
,
0100
0000
0001
1000
0010
0000
0100
1000
,
0010
0000
0100
0010
0100
0000
0001
0000
,
1010
0000
0110
0000
,
0101
0000
1001
0000
,
0010
0000
0100
0000
0001
0000
0001
0010
,
1000
0000
0100
0010
1000
0000
0010
0100
,
0001
0000
1000
0000
0010
0000
0100
0010
,
0100
0000
0001
1000
0010
0000
0100
0000
,
0001
1001
1001
0010
,
0100
1000
0010
0000
1000
0001
0100
0000
,
0001
0000
0010
1000
0100
0000
0001
0010
,
1000
0000
0100
0000
0001
0100
0010
0000
,
0001
0000
1000
0000
0010
0100
0001
1000
,
0010
0100
0001
0000
0010
1000
0100
1000
,
0010
0100
0001
0000
0010
0100
0010
0100
,
0001
0010
1000
0000
0100
0010
1000
0001
,
0100
0010
1000
0100
,
0001
0010
0100
0001
,
0010
1000
0100
0000
0001
0010
0100
0000
,
0001
1000
0010
0000
0100
0010
1000
0000
,
0100
0001
0010
0000
0001
0100
0010
0000
,
0010
0000
0000
0000
0000
0000
0000
0000
0000
0100
0000
0000
0000
0000
0000
0000
0010
0000
0000
0000
0000
0000
0000
0000
1000
0000
0000
0000
0000
0000
0000
0000
0001
0000
0000
0000
0000
0000
0000
0000
0100
0000
0000
0000
0000
0000
0000
0000
,
0010
0000
0001
0000
1000
0000
0010
0100
,
1000
0000
0001
0100
0010
0000
0001
0010
,
1000
0000
0010
0100
0010
1000
0001
0100
,
0010
0000
0001
0000
1000
0000
0010
0000
0000
1000
0001
1000
,
0001
0000
0100
1000
0100
0001
0010
0001
,
0100
0000
0010
0000
0001
1000
0001
0000
,
0001
0100
0010
0000
0010
1000
0010
0000
,
0001
1000
0100
1000
0100
1000
0010
0100
,
0001
0000
0010
0000
0100
0000
1000
0000
0100
0000
0010
0000
,
0001
0000
0000
0000
,
1000
0000
0000
0001
0000
0000
1000
0000
0000
0001
0000
0000
0000
0000
0000
0010
0000
0000
0000
0000
0000
0100
0000
0000
0000
0000
0000
1000
0000
0000
0000
0000
0000
0100
0000
0000
0010
0000
0000
0000
0100
0000
0000
0000
0010
0000
0000
0000
,
0100
0000
0000
0011
0000
0000
0110
0000
1001
0000
0010
0000
,
0010
0100
0001
0010
0001
0010
0001
0000
,
0100
1000
0010
1000
0001
0010
0001
0010
,
0100
1000
0010
1000
0100
1000
0100
0010
,
0100
0000
0001
0000
0001
1000
0100
0010
,
0001
0010
0100
1000
0010
0100
0010
1000
,
0010
0100
0001
0010
0100
0000
1000
0000
,
0100
0010
0001
0000
0100
0010
0001
0000
,
1000
0000
0001
0000
0010
0100
0010
0000
,
0100
0000
0001
0000
0001
1000
0001
0000
,
0001
0010
1000
0100
,
0010
1000
0100
1000
0010
0000
0001
0100
,
0010
0000
0001
1000
0010
0000
0100
0010
,
1000
0000
1001
0000
0001
1000
0010
0000
,
0100
0000
0010
1000
0100
0000
0001
0010
,
0100
0000
0001
1000
0010
0000
0100
1000
,
0010
0000
0100
0010
0100
0000
0001
0000
,
0100
0010
0001
0100
,
0010
0100
0001
1000
,
0100
0010
0100
1000
,
0001
0100
0010
1000
0010
0100
0010
1000
,
0100
1000
0010
1000
,
0000
0000
0000
0000
0000
0000
0001
0000
0000
1000
0000
0000
0001
0000
0000
0000
0000
0000
0000
0000
0000
0000
0000
0000
0100
0000
0000
0000
0000
0000
0000
0000
0010
0000
0000
0000
0000
0000
0000
0000
0001
0000
0000
0000
0000
0000
0000
0000
,
1000
0000
0000
0000
;

//--------------- dance-single - B. M'Rey ----------------
#NOTES:
     dance-single:
     B. M'Rey:
     Hard:
     16:
     0,0,0,0,0:
0000
0000
0000
0000
,
0000
0000
0000
0000
,
1001
0000
0100
1000
0001
0000
0100
0010
0100
0000
0010
1000
0100
0000
0010
0000
,
0100
0000
0010
1000
0100
0000
0010
1000
0100
0000
0001
1000
0001
0000
0010
0000
,
0100
0000
0010
1000
0001
0000
0100
0010
0100
0000
0001
1000
0100
0000
0010
0000
,
0001
1000
0010
0000
0100
0000
0001
0010
0001
0010
0001
0100
0010
0000
0001
0000
,
0010
0000
0001
0100
0001
0000
0010
0100
0001
0000
0001
1000
0100
0000
0001
0000
,
0100
0000
0001
1000
0100
0000
0100
0010
0001
0000
0001
1000
0001
0000
0010
0000
,
0100
0000
0001
1000
0010
0000
0001
0100
0010
0000
0010
0100
0010
0000
0100
0000
,
0001
0000
1001
0000
1001
0000
0000
0000
0110
0000
0000
0101
0000
0000
0110
0000
,
0010
0100
0000
0100
0001
0000
0001
0000
0100
1000
0000
1000
0001
0000
0010
0000
,
0001
0000
0100
1000
0001
0100
0000
0010
0000
0000
0010
1000
0100
0000
0001
0000
,
0100
0000
0010
1000
0001
0000
0100
0000
0001
0000
0010
0100
0000
1000
0100
0000
,
0010
0000
0001
0000
0010
0000
0000
0000
0100
1000
0001
0010
0001
0000
0000
1000
,
0001
0000
0001
1000
0000
0010
0000
0010
0100
0000
0001
0100
0010
0100
0010
0000
,
0001
0000
0001
0100
0000
1000
0000
0010
0000
0000
0100
1000
0010
0000
0100
0000
,
0010
0000
0100
0010
0001
0000
0100
0000
0001
0000
0100
0000
1000
0000
0001
0000
,
0001
0100
0001
0010
0001
0000
0100
1000
0100
1000
0010
0100
0010
0000
0100
1000
,
0001
1000
0001
0010
0100
0000
0100
1000
0100
0010
0001
1000
0000
0010
0000
0000
,
0100
1000
0010
1000
0100
1000
0100
0010
,
0100
1000
0010
1000
0010
1000
0001
0010
,
0100
0010
0001
0010
0001
0100
0010
1000
,
0001
0100
0001
1000
0100
0010
0001
0010
,
0001
0000
0100
0000
0011
0000
0000
0000
0110
0000
0000
1100
0000
0000
1000
0000
,
0010
1000
0010
1000
0001
0100
0010
1000
,
0010
0100
0001
0010
0001
1000
0010
0100
,
0001
1000
0010
0100
,
0001
0000
0010
0000
0100
0000
0000
0000
0001
1000
0001
1000
0001
0000
0000
0000
,
0100
0000
0010
0000
0100
0000
0000
0000
0100
1000
0100
1000
0001
0000
0000
0000
,
0010
0000
0100
0000
0001
0000
0000
0000
0010
1000
0010
1000
0100
0000
0000
0000
,
0100
0000
1000
0000
0010
0000
0000
0000
0010
0100
0010
0100
0010
0000
0000
0000
,
0100
0000
0010
0100
0000
0010
0000
0100
0010
0000
0100
1000
0000
0010
0000
1000
,
0001
0000
0001
1000
0000
0010
0000
1000
0000
0000
0010
0100
0010
0000
0001
0000
,
0100
0000
0010
0000
1000
0000
0001
0100
0010
0000
1000
0000
0001
0000
0010
0000
,
0100
0010
0001
0100
0010
0000
0001
0010
0100
1000
0100
0010
0001
0000
0010
0100
,
0001
0010
0100
0010
0100
0000
0001
1000
0010
0100
0001
1000
0100
0000
0100
0000
,
0110
0000
0000
0000
0000
0000
0000
0000
1001
0000
0000
0000
0000
0000
0000
0000
0011
0000
0000
0000
0000
0000
0000
0000
0110
0000
0000
0000
0000
0000
0000
0000
1001
0000
0000
0000
0000
0000
0000
0000
0000
0000
0100
0000
0000
0010
0000
0000
,
0100
0000
0001
0010
0001
0000
0010
0100
0010
0000
1000
0100
1000
0000
0010
0000
,
0100
0000
0010
0001
1000
0000
0010
0100
0010
0000
0001
0000
0010
0000
1000
0000
,
0010
0001
0010
0001
0010
0000
0001
0000
0100
1000
0100
1000
0100
0000
0010
0000
,
0101
0000
0000
0000
0000
0000
0000
0000
0110
0000
0000
0000
0000
0000
0000
1001
0000
0000
0000
0000
0000
1001
0000
0000
0000
0000
0000
0000
0000
0000
0010
0000
0000
0000
0000
0000
0100
0000
0000
0000
0010
0000
0000
0000
0100
0000
0000
0000
,
0001
0000
1000
0000
0001
0010
0001
1000
0010
0000
0100
0000
0001
1000
0010
0100
,
0001
0000
1000
0000
0100
0000
1000
0000
0100
0000
0010
0000
0100
0000
1000
0100
,
0010
0000
1000
0000
0010
0000
1000
0001
0100
0000
0010
0000
0100
0000
1000
0010
,
0100
0010
0001
1000
0001
0100
0001
0100
,
1001
0000
0101
0000
0110
0000
1001
0000
0110
0000
0101
0000
,
2002
0000
0000
0000
0000
0000
0000
3003
,
0001
0000
0000
1000
0000
0000
0001
0000
0000
1000
0000
0000
0000
0000
0000
0001
0000
0000
0000
0000
0000
0010
0000
0000
0000
0000
0000
0100
0000
0000
0000
0000
0000
0001
0000
0000
0010
0000
0000
0000
1000
0000
0000
0000
0010
0000
0000
0000
,
0000
0000
0000
0000
1001
0000
0000
0000
0110
0000
0000
0101
0000
0000
0110
0000
,
1000
0000
0100
1000
0010
0000
0010
1000
0010
0000
0001
1000
0010
0000
0100
0010
,
0001
0000
0010
0000
0010
1000
0000
0001
0000
0010
0000
0010
0001
0010
0100
1000
,
0010
0000
0010
0100
0010
0000
0100
0000
1000
0001
0000
0010
0100
0010
0100
0000
,
0001
0000
0010
1000
0001
0000
0001
0010
0100
0000
0001
0000
0001
0100
0000
1000
,
0100
1000
0001
0010
0100
0001
0000
0010
0100
1000
0010
1000
0001
0100
0000
0000
,
0010
0000
0100
0010
0100
0000
2000
0000
0000
0000
3001
0000
0100
0000
0001
0000
,
0100
1000
0001
0010
0100
0000
0010
0000
0100
1000
0100
0010
0001
0000
0010
0000
,
0001
0100
0001
0010
0001
0000
0010
0100
0010
1000
0100
0010
0001
0000
0010
1000
,
0010
0100
0001
0100
,
0100
0010
0000
0010
0001
0000
0001
0000
0010
1000
0000
1000
0001
0000
0100
0000
,
0001
0000
0010
1000
0001
0010
0000
0100
0000
0000
0100
1000
0010
0000
0001
0000
,
0010
0000
0100
1000
0001
0000
0010
0000
0001
0000
0100
0010
0000
1000
0010
0000
,
0100
0000
0001
0000
0100
0000
0000
0000
0010
1000
0001
0100
0001
0000
0000
1000
,
0001
0000
0001
1000
0000
0100
0000
0100
0010
0000
0001
0010
0100
0010
0100
0000
,
0001
0000
0001
0010
0000
1000
0000
0100
0000
0000
0010
1000
0100
0000
0010
0000
,
0100
0000
0010
0100
0001
0000
0010
0000
0001
0000
0010
0000
1000
0000
0001
0000
,
0100
0000
0000
0010
0000
0000
0100
0000
0000
0010
0000
0000
0100
0000
0000
0000
0000
0000
0001
0000
0000
0000
0000
0000
0010
0000
0000
0000
0000
0000
0000
0000
1000
0000
0000
0000
0000
0000
0000
0000
0100
0000
0000
0000
0000
0000
0000
0000
,
0001
0000
0100
0000
0010
0000
0001
0000
0100
0000
1000
0000
,
0010
0000
0000
0001
0000
0000
0010
0000
0000
0001
0000
0000
0010
0000
0000
0000
0000
0000
1000
0000
0000
0000
0000
0000
0100
0000
0000
0000
0000
0000
0000
0000
0010
0000
0000
0000
0000
0000
0000
0000
1000
0000
0000
0000
0000
0000
0000
0000
,
0001
0100
0001
0100
0001
0010
0100
0010
0100
0010
0001
0100
0001
1000
0010
1000
,
0010
0001
1000
0000
0001
0010
0100
0000
,
0000
0000
0010
1000
0010
1000
0000
0000
0110
0000
0000
0101
0000
0000
1001
0000
,
0110
0000
0000
0000
;
