#VERSION:0.83;
#TITLE:BLUE ZONE;
#ARTIST:Tatsh x NAOKI;
#GENRE:SPEED RAVE;
#CREDIT:B. M'Rey;
#MUSIC:BLUE ZONE.ogg;
#BANNER:BLUE ZONE.png;
#BACKGROUND:BLUE ZONE-bg.png;
#CDTITLE:./CDTITLES/CHUNITHM NEW.PNG;
#SAMPLESTART:17.255;
#SAMPLELENGTH:15;
#OFFSET:-0.112;
#BPMS:0=168;
#BGCHANGES:0.000=BLUE ZONE.mp4=1.000=1=0=1===CrossFade==,
99999.000=-nosongbg-=1.000=0=0=0=StretchNoLoop====;

//--------------- dance-single - B. M'Rey ----------------
#NOTEDATA:;
#STEPSTYPE:dance-single;
#DESCRIPTION:B. M'Rey;
#DIFFICULTY:Beginner;
#METER:6;
#CREDIT:B. M'Rey;
#RADARVALUES:0,0,0,0,0;
#NOTES:
0000
0000
0000
0000
,
0000
0000
0000
0000
,
0000
0000
0000
0000
,
0000
0000
0000
0000
,
0000
0000
0000
0000
,
0000
0000
0000
0000
,
1000
0000
0001
0000
,
0010
0000
0001
0000
,
0100
0000
0010
0000
,
1000
0000
0001
0000
,
1001
0000
0000
0000
,
0000
0000
0000
0110
,
0001
0000
1000
0000
,
0010
0000
0100
0000
,
0001
0001
1000
1000
,
0001
0001
1000
1000
,
0001
0000
0010
0000
,
0100
0000
0010
0000
,
0100
0100
0010
0010
,
0100
0100
0010
0000
,
0001
0000
1000
0000
,
0010
0100
0001
0000
,
0010
0000
1000
0000
,
0010
0100
1000
0000
,
0010
0000
0100
0000
,
0001
0010
0001
0000
,
0100
0000
0010
0000
,
1000
0100
1000
0000
,
0001
0000
1000
0000
,
0010
0010
0100
0100
,
0010
0000
0001
0000
,
0001
0001
1000
1000
,
0010
0000
0100
0000
,
1000
1000
0010
0010
,
0100
0100
0001
0001
,
0010
0000
1000
0000
,
1001
0000
0010
0000
,
0100
0000
0110
0000
,
0001
0000
0010
0000
,
0101
0000
0010
0000
,
1010
0000
0101
0000
,
1010
0000
0101
0000
,
0010
0000
0100
0000
,
0010
0000
1000
1001
,
0000
0000
0000
0000
,
0010
0000
0100
0110
,
0001
0000
1000
0000
,
0010
0000
0100
0000
,
0001
0001
1000
1000
,
0001
0001
1000
0000
,
0010
0000
0100
0000
,
1000
0000
0001
0000
,
0010
0010
0100
0100
,
0010
0010
0100
0000
,
1001
0000
0000
0000
,
0010
0010
0100
0100
,
0001
1000
0010
0000
,
0001
0000
1000
0000
,
0010
0100
0001
0000
,
0010
0010
1000
1000
,
0010
0000
0100
0000
,
0001
0001
1000
1000
,
0010
0000
0100
0000
,
0001
0000
1000
0000
,
0001
0001
1000
1000
,
0010
0000
0100
0000
,
0100
0100
0010
0010
,
0001
0001
1000
1000
,
0010
0010
0100
0100
,
0001
0001
0000
1000
,
0000
0010
0000
0100
,
0001
0000
1000
0000
,
0001
0000
1000
0000
,
0010
0000
0100
0000
,
0010
0000
0100
0000
,
0001
0000
0100
0000
,
1001
0000
0010
0000
,
0101
0000
0010
0000
,
1010
0000
0010
0010
,
0101
0000
0010
0000
,
1010
0000
0100
0100
,
0000
1001
0000
0000
;

//--------------- dance-single - B. M'Rey ----------------
#NOTEDATA:;
#STEPSTYPE:dance-single;
#DESCRIPTION:B. M'Rey;
#DIFFICULTY:Easy;
#METER:9;
#CREDIT:B. M'Rey;
#RADARVALUES:0,0,0,0,0;
#NOTES:
0000
0000
0000
0000
,
0000
0000
0000
0000
,
0000
0000
0000
0000
,
0000
0000
0000
0000
,
0000
0000
0000
0000
,
0000
0000
0000
0000
,
0001
1000
0100
1000
,
0100
1000
0001
0100
,
0001
0100
0001
1000
,
0010
1000
0010
1000
,
0001
0000
0010
0000
,
0001
0000
0100
0000
,
0100
0010
0100
0010
,
0001
0010
0001
1000
,
0001
1000
0000
0100
0000
1000
0000
0100
,
0000
0010
0000
0100
0000
0010
0001
0000
,
0010
0100
0010
0100
,
0010
0100
0001
1000
,
0100
1000
0000
0100
0000
1000
0000
0010
,
0000
0100
0000
0010
0000
0010
0100
0000
,
0001
1000
0001
1000
,
0001
0010
0100
0010
,
0001
0010
0001
0100
,
0001
0100
0010
0100
,
0010
1000
0010
0100
,
0001
1000
0001
1000
,
0001
0100
0010
0100
,
0010
0100
0001
0010
,
0001
0010
0100
0010
,
0000
0101
0000
0100
0000
0101
0000
0100
,
0001
0010
0100
1000
,
0000
1100
0000
0100
0000
0100
0010
0000
,
0001
0010
0001
0010
,
0000
1100
0000
0100
0000
1100
0000
0100
,
0000
0110
0000
0010
0000
0100
0010
0000
,
0010
0001
0000
0010
0100
0000
1001
0000
,
0001
1000
0100
1000
,
0001
0010
0001
0010
,
0001
1000
0100
1000
,
0100
1000
0001
0010
,
0001
0010
0001
1000
,
0010
1000
0010
1000
,
0001
0100
0001
0100
,
0001
1000
0100
1000
,
0100
0000
0010
0000
,
0100
0000
0010
1001
,
0001
1000
0001
1000
,
0100
0010
0100
0010
,
0100
1000
0000
0001
0000
0100
0000
0001
,
0000
0100
0000
0001
1000
0001
1000
0000
,
0100
1000
0100
1000
,
0001
0100
0001
0100
,
0001
1000
0000
0010
0000
0100
0000
0010
,
0000
0100
0100
0010
0010
0000
1000
0000
,
2002
0000
0000
0000
0000
0000
0000
3003
,
0110
0110
0010
0100
,
0010
1000
0001
1000
,
0010
1000
0010
0100
,
0010
0100
0001
0100
,
0001
1000
0001
1000
,
0100
1000
0100
0010
,
0100
0010
0001
1000
,
0001
0100
0001
0100
,
0010
0100
0010
1000
,
0010
1000
0000
0100
0000
1000
0000
0100
,
0001
0010
0100
0010
,
0001
0010
0000
0001
0000
0100
1000
0000
,
0001
1000
0000
0100
0000
0010
0000
0100
,
0000
0010
0000
0100
0000
0010
0000
0100
,
0000
0001
0100
0000
0000
0001
1000
0000
,
0000
0100
1000
0000
0000
0100
1000
0000
,
0001
0000
0100
0000
0001
0000
0100
0010
,
0001
0000
1000
0000
0100
0000
1000
0001
,
0100
0000
1000
0000
0010
0000
0100
1000
,
0020
0000
0130
0000
0010
0000
1000
0010
,
0001
1000
0001
1000
,
0010
0100
0010
0100
,
0010
1000
0000
0010
0100
0000
1000
0100
,
0000
0100
1000
0000
0010
0000
0100
0000
,
0001
0100
0000
0100
0001
0000
0100
0010
,
0000
0100
1000
0000
0020
0000
0130
0000
,
0000
2002
0000
0000
,
3003
0000
0000
0000
;

//--------------- dance-single - B. M'Rey ----------------
#NOTEDATA:;
#STEPSTYPE:dance-single;
#DESCRIPTION:B. M'Rey;
#DIFFICULTY:Medium;
#METER:11;
#CREDIT:B. M'Rey;
#RADARVALUES:0,0,0,0,0;
#NOTES:
0000
0000
0000
0000
,
0000
0000
0000
0000
,
0000
0000
0000
0000
,
0000
0000
0000
0000
,
0000
0000
0000
0000
,
0000
0000
0000
0000
,
0010
1000
0010
1000
,
0100
1000
0100
0010
,
0100
1000
0010
1000
,
0100
1000
0010
0100
,
0010
1000
0001
1000
,
0001
1000
0010
0110
,
0100
1000
0100
1000
0010
1000
0010
0100
,
0010
1000
0001
1000
0001
0100
0001
0100
,
0000
0110
0000
1010
0000
1001
0000
1100
,
0000
0011
0000
0011
0000
0100
0010
0000
,
0100
1000
0100
0010
0001
1000
0001
1000
,
0001
0100
0010
0100
0010
0100
0001
0010
,
0000
1100
0000
1001
0000
1001
0000
0101
,
0000
0110
0000
1100
0000
1000
0100
0000
,
0100
1000
0000
1000
0000
0010
0001
0000
,
0001
0010
0100
1000
0100
1000
0100
0000
,
0001
0010
0001
0000
0100
1000
0100
0000
,
0100
0010
0001
0000
0100
0010
0100
0000
,
0100
1000
0001
0000
0010
0100
0010
0000
,
0010
1000
0001
0000
0100
1000
0100
0000
,
0100
0010
0001
0000
0001
1000
0001
0000
,
0010
0100
0001
0100
0001
0100
1010
0000
,
0001
0000
1000
0000
0000
0100
0000
0000
0010
0000
0000
1000
0000
0000
0001
0000
,
0000
0110
0000
0011
0000
0101
0000
0101
,
0100
0000
1000
0000
0000
0100
0000
0000
0010
0000
0000
0100
0000
0000
1000
0000
,
0000
1010
0000
1001
0000
0010
0100
0000
,
0001
0000
0010
0000
0000
0100
0000
0000
0001
0000
0000
0100
0000
0000
0010
0000
,
0000
1010
0000
1001
0000
1010
0000
0110
,
0000
0110
0000
1001
0000
1000
0001
0000
,
0001
0100
0010
0000
0001
0010
0001
0000
,
0100
1000
0100
0000
0100
0010
0001
0000
,
0001
0000
0010
0000
0100
0000
1000
0000
0100
0000
0000
0100
0000
0000
0010
0000
,
0001
0000
0001
0010
0100
0000
0001
0000
,
0001
1000
0100
1000
0001
0000
0110
0000
,
0100
0010
0001
1000
0001
1000
0100
0000
,
0100
0000
0010
0000
0100
0000
0010
0000
0001
0000
0000
0010
0000
0000
0000
0000
,
0100
1000
0001
0000
0001
0100
0001
0000
,
0010
0100
0010
1000
0010
1000
0001
0000
,
0100
1000
0100
1000
,
0001
0010
0001
0110
,
0100
1000
0001
0000
0010
0100
0001
0000
,
0010
1000
0100
0000
0100
1000
0100
0000
,
0001
0010
0000
1000
0000
0010
0000
1000
,
0000
0010
0000
0100
0000
1000
0001
0000
,
0100
1000
0010
0000
0001
1000
0001
0000
,
0010
1000
0100
0000
0100
1000
0010
0000
,
0001
0010
0000
1000
0000
0010
0000
1000
,
0000
0010
0010
1000
0100
0000
0100
0000
,
0202
0000
0000
0000
0000
0000
0000
0303
,
1010
0000
0101
0000
0001
0100
0010
0000
,
0010
1000
0001
1000
0100
1000
0001
0000
,
0001
0000
0010
1000
0010
0000
0001
0000
,
1010
0000
0001
1000
0100
0000
0110
0000
,
0001
0100
0010
0100
0000
1000
0010
0000
,
0010
1000
0001
0000
0010
0100
0000
0000
,
0001
0000
1000
0000
0010
0000
1000
0000
0000
0001
0000
0000
0100
0000
0000
0000
,
0100
1000
0001
0000
0010
1000
0010
0000
,
0001
1000
0001
0100
0001
0100
0010
0100
,
0000
1010
0000
1100
0000
1100
0000
0011
,
0000
0010
0001
0010
0100
1000
0100
1000
,
0000
0011
0000
0011
0000
0010
0100
0000
,
0000
1100
0000
0011
0000
1001
0000
0011
,
0000
0011
0000
0110
0000
1100
0000
1001
,
0000
0010
0001
0000
0001
0100
0010
0000
,
0010
1000
0010
0000
0001
0100
0010
0000
,
0100
1000
0001
1000
0000
1000
0010
0000
,
0010
0100
0010
1000
0000
1000
0001
0000
,
0100
0010
0100
0010
0000
1000
0001
0000
,
0001
0001
0001
0010
0000
0010
0100
0000
,
0001
1000
0010
0000
0010
0100
0010
0000
,
0001
0100
0001
0000
0001
1000
0010
0000
,
0100
0010
0000
0010
0100
0000
0001
1000
,
0000
0100
0001
0000
0010
0010
0001
0001
,
1000
0001
0000
0100
0010
0000
0010
0100
,
0000
1000
0001
0000
0001
0001
0010
0010
,
0000
2002
0000
0000
,
3003
0000
0000
0000
;

//--------------- dance-single - B. M'Rey ----------------
#NOTEDATA:;
#STEPSTYPE:dance-single;
#DESCRIPTION:B. M'Rey;
#DIFFICULTY:Hard;
#METER:14;
#CREDIT:B. M'Rey;
#RADARVALUES:0.689951,0.83763,0.36774,0.032688,0.179784,591,546,45,4,0,0,0.689951,0.83763,0.36774,0.032688,0.179784,591,546,45,4,0,0;
#NOTES:
0000
0000
0000
0000
,
0000
0000
0000
0000
,
0000
0000
0000
0000
,
0000
0000
0000
0000
,
0000
0000
0000
0000
,
0000
0000
0000
0000
,
1000
0100
1000
0001
0100
0001
0010
0000
,
1000
0000
0010
0000
0100
0000
0001
1000
0000
0010
0001
0000
0100
0000
0000
0000
,
0100
0010
1000
0100
0010
0001
1000
0000
,
0100
0000
0010
0000
0100
0000
0001
1000
0000
1000
0100
0000
0010
0000
0001
0000
,
0100
0001
0010
0100
,
0010
0100
0010
1001
,
0100
0010
1000
0001
1000
0001
1000
0010
,
0100
0010
1000
0001
0010
0100
0010
0100
,
0010
1001
0000
0101
0000
1010
0000
0011
,
0000
0110
0000
1001
1000
0100
0010
0000
,
1000
0001
1000
0001
0010
0100
0010
0001
,
1000
0001
0010
0001
1000
0010
0100
0001
,
0010
1100
0000
0110
0000
1100
0000
0011
,
0000
0101
0000
1010
0000
0001
1000
0000
,
1000
0001
1000
0100
1000
0001
0010
0100
,
0010
0100
1000
0010
0100
0010
0100
0001
,
0100
0001
1000
0010
1000
0001
0100
0001
,
0010
0001
0100
0010
0100
0001
0100
0001
,
1000
0010
0100
0001
0100
0001
0100
0010
,
1000
0100
0010
0001
1000
0001
1000
0100
,
1000
0100
0010
0001
0100
0001
0010
0001
,
1000
0100
1000
0100
1000
0010
0110
0000
,
1000
0000
0010
0000
1000
0001
0000
0010
1000
0000
0100
0010
0000
0010
0100
0000
,
0010
0011
0000
1100
0000
1100
0000
0110
,
0010
0000
0001
0100
0000
1000
0001
0000
1000
0010
0000
0010
1000
0000
0010
0000
,
0100
0101
0000
0101
0000
1000
0001
0010
,
1000
0000
0100
0000
0010
0100
0000
0100
1000
0000
0001
0010
0000
0010
0100
0000
,
0010
0110
0000
0101
0000
0110
0000
0010
,
1000
0001
1000
0010
0100
0001
0010
0001
,
1000
0010
1000
0001
0010
0001
0100
0000
,
0010
0001
1000
0000
1000
0100
0010
0000
,
1000
0000
0001
0000
1000
0000
0010
0000
1000
0000
0000
0001
0000
0000
0001
0000
,
0100
0010
1000
0100
0010
0000
0010
0000
,
1000
0100
1000
0001
1000
0001
0010
0000
,
0010
0100
1000
0010
1000
0100
1000
0100
,
0010
0000
0001
0000
0010
0000
0001
0000
1000
0000
0000
0010
0000
0000
0100
0000
,
1000
0010
0100
0001
1000
0001
1000
0010
,
1000
0001
0100
0010
1000
0001
0010
0000
,
0100
0010
0000
1000
0000
0001
0000
0010
,
0001
0000
0010
0000
1000
0001
1000
0001
1000
0000
0010
0000
0101
0000
0000
0000
,
0010
0100
1000
0010
1000
0010
0100
0010
,
1000
0001
1000
0100
1000
0001
0100
0001
,
0010
1000
0000
0100
0000
0010
0000
0001
,
0000
0000
1000
0000
0000
0000
0100
0000
0001
1000
0001
1000
0001
1000
0001
1000
,
0100
0001
1000
0001
0010
0100
1000
0100
,
1000
0010
1000
0100
0010
0100
1000
0010
,
1000
0100
0000
0001
0000
0100
0000
0001
,
0000
0110
0110
0110
1000
0010
0100
0000
,
2002
0000
0000
0000
0000
0000
0000
3003
,
1001
0000
0110
0000
0100
0010
0100
0000
,
0010
0100
1000
0100
0010
0001
1000
0001
,
0100
0001
0100
0010
0100
0001
0010
0001
,
0010
0100
0010
0001
0100
0010
0100
0001
,
0010
0100
0010
0100
1000
0010
0100
0010
,
0100
0001
0010
0001
0100
0001
1000
0100
,
0010
0100
1000
0001
0100
0010
1000
0010
,
1000
0010
0100
0001
0010
0001
0010
0001
,
1000
0100
1000
0001
1000
0100
0010
0001
,
0010
1100
0000
0011
0000
0110
0000
0101
,
1000
0010
1000
0100
0010
0001
0010
0001
,
1000
1001
0000
1100
0010
0100
0010
0001
,
0010
0110
0010
0101
0100
1001
1000
1100
,
1000
0011
0010
0110
0010
0011
0100
0110
,
0100
0010
1000
0001
0010
0001
1000
0010
,
0100
0001
1000
0100
0010
0100
1000
0100
,
1000
0001
1000
0100
1000
0000
0010
0100
0000
0001
0010
0001
1000
0000
0100
0000
,
0100
0010
0100
0001
1000
0000
0001
0010
0000
0010
0100
0001
1000
0000
0010
0000
,
1000
0010
0100
0010
0100
0000
1000
0001
0000
0000
1000
0100
0010
0000
0100
0000
,
0100
0001
1000
0010
1000
0000
0100
0000
0010
0000
0001
0000
0100
0010
0100
0010
,
0100
0001
0010
0001
,
0010
0100
1000
0100
,
1000
0010
0000
0010
0100
0000
0100
0010
,
0000
0010
1000
0000
1000
0100
0010
0100
,
1000
0100
0000
0010
1000
0000
0100
0010
,
0000
0000
0001
0000
0100
0000
0000
0000
1000
0100
1000
0100
1000
0000
0100
0000
,
0000
2002
0000
0000
,
3003
0000
0000
0000
;
