#VERSION:0.83;
#TITLE:B地区戦隊S.O.X;
#ARTIST:S.O.X;
#TITLETRANSLIT:B chiku sentai SOX;
#GENRE:TV&ANIME;
#CREDIT:B. M'Rey;
#MUSIC:B chiku sentai SOX.ogg;
#BANNER:B chiku sentai SOX.png;
#BACKGROUND:B chiku sentai SOX-bg.png;
#CDTITLE:./CDTITLES/Dance Dance Revolution SPACE.PNG;
#SAMPLESTART:63.840;
#SAMPLELENGTH:15;
#OFFSET:-0.055;
#BPMS:0=151;

//--------------- dance-single - B. M'Rey ----------------
#NOTEDATA:;
#STEPSTYPE:dance-single;
#DESCRIPTION:B. M'Rey;
#DIFFICULTY:Beginner;
#METER:4;
#RADARVALUES:0.136,0.184,0.067,0.101,0;
#CREDIT:B. M'Rey;
#NOTES:
0000
0000
0000
0000
,
0200
0000
0000
0000
,
0000
0300
0000
0000
0000
0000
0000
0000
,
0020
0000
0000
0000
,
0000
0130
0000
0000
0000
0000
0000
0000
,
1000
0000
0000
0000
,
0000
1001
0000
0000
0000
0000
0000
0000
,
0000
0000
0000
0000
,
0000
1000
0000
0000
0000
0000
0000
0000
,
0000
0001
0000
0000
0000
0100
0000
0000
,
0000
0010
0000
0000
0000
0000
0000
0000
,
0000
1000
0000
0000
0000
0001
0000
0000
,
0000
0100
0000
0000
0000
0000
0000
0000
,
0000
0000
0000
0000
0000
0010
0000
0000
,
0000
0020
0000
0000
0000
0000
0000
0000
,
0000
0030
0000
0000
0000
0000
0000
0000
,
0000
1001
0000
0000
0000
0000
0000
0000
,
0000
1000
0000
0000
0000
0001
0000
0000
,
0000
0100
0000
0000
0000
0000
0000
0000
,
0000
0001
0000
0000
0000
1000
0000
0000
,
0000
0010
0000
0000
0000
0000
0000
0000
,
0000
0000
0000
0000
0000
1000
0000
0000
,
0000
2000
0000
0000
0000
0000
0000
0000
,
0000
3100
0000
0000
0000
0000
0000
0000
,
0000
0001
0000
0000
0000
0000
0000
0000
,
0000
0010
0000
0000
0000
0000
0000
0000
,
0000
1000
0000
0000
0000
0000
0000
0000
,
0000
0100
0000
0000
0000
0000
0000
0000
,
0000
1000
0000
0000
0000
0000
0000
0000
,
0000
0001
0000
0000
0000
0000
0000
0000
,
0000
1000
0000
0000
0001
0000
0000
1000
,
0000
0001
0000
0000
,
0000
0200
0000
0000
0000
0000
0000
0000
,
0000
0000
0000
0000
,
0000
0320
0000
0000
0000
0000
0000
0000
,
0000
0000
0000
0000
,
0000
0032
0000
0000
0000
0000
0000
0000
,
0000
0000
0000
0000
,
0000
2003
0000
0000
0000
0000
0000
0000
,
0000
0000
0000
0000
,
0000
3001
0000
0000
0000
1001
0000
0000
,
0000
1000
0000
0000
0000
1001
0000
0000
,
0000
0010
0000
0000
0000
0100
0000
0000
,
0000
0001
0000
0000
0000
1000
0000
0001
,
0000
1000
0000
0000
0000
1001
0000
0000
,
0000
0001
0000
0000
0000
1001
0000
0000
,
0000
0100
0000
0000
0000
0010
0000
0000
,
0000
1000
0000
0000
0000
0001
0000
1000
,
0000
0000
0000
0100
0000
0000
0000
0010
,
0000
0000
0000
0010
0000
0000
0000
0100
,
0000
0000
0000
0001
0000
0000
0000
1000
,
0000
0000
0000
1000
0000
0000
0000
0001
,
0000
0000
0000
0100
0000
0010
0000
0100
,
0000
0010
0000
0000
0000
0001
0000
0000
,
0000
0200
0000
0000
0000
0000
0000
0300
;

//--------------- dance-single - B. M'Rey ----------------
#NOTEDATA:;
#STEPSTYPE:dance-single;
#DESCRIPTION:B. M'Rey;
#DIFFICULTY:Easy;
#METER:6;
#RADARVALUES:0.254,0.313,0.325,0.101,0;
#CREDIT:B. M'Rey;
#NOTES:
0000
0000
0000
0000
,
1001
0000
0000
0000
,
0000
0100
0000
0000
0000
0000
0000
0000
,
1001
0000
0000
0000
,
0000
1000
0000
0000
0000
0000
0000
0000
,
0100
0000
0000
0000
,
0000
1001
0000
0000
0000
0000
0000
0000
,
0000
0000
0000
1001
0000
0000
0000
0000
,
0000
0100
0000
0010
0000
0000
0000
0000
,
0000
0001
0000
0010
0000
0001
0000
0100
,
0000
1000
0000
0000
0000
0000
0000
0000
,
0000
0010
0000
0100
0000
0001
0000
1000
,
0000
0100
0000
0000
0100
0000
0000
0000
,
0000
0000
0000
0000
0000
0001
0000
1000
,
0000
0010
0000
0000
0000
0010
0000
0000
,
0000
0010
0000
0000
0000
0000
0000
0000
,
0000
0100
0000
0000
0001
0000
0000
0000
,
0000
0100
0000
1000
0000
0010
0000
0001
,
0000
0100
0000
0000
0100
0000
0000
0000
,
0000
0010
0000
0001
0000
0100
0000
1000
,
0000
0010
0000
0000
0010
0000
0000
0000
,
0000
0000
0000
0000
0000
0001
0000
1000
,
0000
0110
0000
0000
0000
0011
0000
0000
,
0000
1100
0000
0000
0000
0110
0000
0000
,
0000
0001
0000
1000
0000
0010
0000
0100
,
0000
0001
0000
1000
0000
0000
0000
0010
,
0000
0100
0000
0001
0000
1000
0000
0001
,
0000
0000
0000
0000
0000
0000
0000
0100
,
0000
0000
0000
0100
0000
0000
0000
0010
,
0000
0000
0000
0010
0000
0000
0000
0001
,
0000
1001
0000
0000
1001
0000
0000
1001
,
0000
0000
1001
0000
0000
0110
0000
0000
,
0000
0002
0000
0000
0000
0000
0000
0000
,
0000
2003
0000
0000
0000
0000
0000
0000
,
0000
3200
0000
0000
0000
0000
0000
0000
,
0000
2300
0000
0000
0000
0000
0000
0000
,
0000
3002
0000
0000
0000
0000
0000
0000
,
0000
0023
0000
0000
0000
0000
0000
0000
,
0000
1030
0000
0000
1001
0000
0000
1001
,
0000
1001
0000
0000
,
0000
0010
0000
0100
0000
0110
0000
0000
,
0001
0000
0000
1000
0000
1001
0000
0000
,
0000
0010
0000
0100
0000
0010
0000
0100
,
0000
0001
0000
1000
0000
0001
0000
0000
,
0000
0010
0000
0100
0000
0110
0000
0000
,
0001
0000
0000
1000
0000
1001
0000
0000
,
0000
0010
0000
0100
0000
0010
0000
0100
,
0000
0001
0000
1000
0000
0001
0000
0100
,
0000
0000
0000
0011
0000
0000
0000
1100
,
0000
0000
0000
0011
0000
0000
0000
1100
,
0000
0000
0000
0110
0000
0000
0000
0110
,
0000
0001
0000
0000
2000
0000
3100
0000
,
0000
0000
0000
0001
0000
0100
0000
0010
,
0000
1000
0000
0000
0000
0001
0000
1000
,
0000
0110
0000
0000
0110
0000
0000
0220
,
0000
0000
0000
0000
0000
0000
0000
0330
;

//--------------- dance-single - B. M'Rey ----------------
#NOTEDATA:;
#STEPSTYPE:dance-single;
#DESCRIPTION:B. M'Rey;
#DIFFICULTY:Medium;
#METER:8;
#RADARVALUES:0.373,0.407,0.493,0.067,0;
#CREDIT:B. M'Rey;
#NOTES:
0000
0000
0000
1001
,
1001
0000
0000
0000
,
0000
0010
0000
0000
0000
0000
0110
0000
,
0110
0000
0000
0000
0000
0000
0001
0010
,
0100
1000
0000
0000
0010
0000
0100
0000
,
0001
1000
0100
2000
,
0000
3020
0000
0000
0000
0000
0000
0000
,
0000
0000
0000
0230
0000
0000
0000
0000
,
0000
0301
0000
0000
0100
0000
0000
0001
,
0000
1000
0000
0001
0000
0010
0000
0001
,
0000
0100
0000
0000
0010
0000
0000
1000
,
0000
0001
0000
0010
0000
0001
0000
1000
,
0000
0100
0000
0000
0010
0000
0000
0001
,
0000
0010
0000
0000
0000
0100
0000
1000
,
0000
1001
0000
0000
0000
0110
0000
0000
,
0000
0011
0000
0000
0000
0100
0010
0100
,
0010
0100
0000
0000
1000
0000
0000
0100
,
0000
0010
0000
0100
0000
0001
0000
0100
,
0000
1000
0000
0000
0001
0000
0000
0010
,
0000
0100
0000
0001
0000
0100
0000
0010
,
0000
1000
0000
0000
0001
0000
0000
0100
,
0000
0001
0000
0000
0000
1000
0000
0010
,
0000
0110
0000
0000
0000
1001
0000
0000
,
0000
0101
0000
0000
0001
0000
0001
1000
,
0001
1000
0000
0000
0010
0000
0100
0001
,
1000
0010
0000
0000
0100
0000
0010
0001
,
0010
0001
0000
0000
0100
0000
1000
0000
,
0001
0000
0000
0000
0000
0000
0000
0010
,
0100
0010
0000
0000
0101
0000
0000
0010
,
0100
0010
0000
0000
1010
0000
0000
0100
,
0000
0011
0000
0000
0110
0000
0000
1001
,
0000
0000
0110
0000
0000
1100
0000
0000
,
0000
0001
0000
0010
0000
0100
0000
1000
,
0000
0100
0000
0010
0000
0001
0000
0010
,
0000
0100
0000
1000
0000
0100
0000
0010
,
0000
0001
0000
0010
0000
0100
0000
1000
,
0000
0100
0000
0010
0000
0001
0000
0010
,
0000
0100
0000
1000
0000
0100
0000
0010
,
0000
1001
0000
0000
1001
0000
0000
1001
,
0000
1001
0000
0000
,
0000
0110
0000
0011
0000
0110
0000
0000
,
1001
0000
0000
0110
0000
1100
0000
0000
,
0000
0010
0100
0010
0000
0001
0010
0001
,
0000
1000
0100
1000
0000
1001
0000
1001
,
0000
0110
0000
0011
0000
0110
0000
0000
,
1001
0000
0000
0110
0000
1100
0000
0000
,
0000
0100
0010
0100
0000
1000
0100
1000
,
0000
0001
0010
0001
0000
1001
0000
1001
,
0000
0110
0000
0001
0000
1000
0000
1001
,
0000
0000
0000
1000
0000
0001
0000
1001
,
0000
0000
0000
0010
0000
0100
0000
0110
,
0000
0001
0000
0000
0200
0000
0310
0000
,
0000
0000
0000
1000
0000
0001
0000
0100
,
0000
0010
0000
0000
0000
1000
0000
0001
,
0000
0110
0000
0000
0110
0000
0000
0220
,
0000
0000
0000
0000
0000
0000
0000
0330
;

//--------------- dance-single - B. M'Rey ----------------
#NOTEDATA:;
#STEPSTYPE:dance-single;
#DESCRIPTION:B. M'Rey;
#DIFFICULTY:Hard;
#METER:12;
#RADARVALUES:0.516,0.469,0.381,0.067,0.101;
#CREDIT:B. M'Rey;
#NOTES:
0000
0000
0000
1001
,
1001
0000
0000
0000
,
0000
0000
0001
1000
0001
1000
0001
0000
0000
0000
0000
0000
0110
0000
0000
0000
,
1001
0000
0000
0000
0000
0000
1000
0001
,
0010
0100
0000
0000
1000
0000
0001
0000
,
0100
0010
1000
0001
,
0100
0000
0001
1000
0000
0001
1000
0000
0001
1000
0000
0001
1000
0000
0001
1000
,
0000
0001
1000
0000
0000
0000
0020
0000
0000
0000
0000
0000
0000
0000
0000
0000
,
0000
0031
1000
0000
0110
0000
0000
1000
,
0000
0001
0010
0001
0100
0010
1000
0100
,
1000
0020
0000
0000
0130
0000
0000
0010
,
0000
0001
1000
0100
0001
1000
0010
0100
,
0001
0020
0000
0000
1030
0000
0000
0010
,
0000
0100
0000
0010
0000
0001
0000
1000
,
0000
0000
0110
0000
0000
0000
0000
0000
0010
0100
0010
0000
0000
0000
0000
0000
,
0100
0010
0100
0000
0000
0000
0000
0000
0110
0000
0000
0000
0110
0000
0001
0000
,
1000
0010
0000
0100
1000
0000
0010
0001
,
0100
0010
1000
0001
0010
0001
0100
0010
,
1000
0100
0000
1000
0100
0000
0001
0010
,
0001
0100
0010
1000
0100
0001
0010
0001
,
0100
0001
0000
0001
0010
0000
0100
1000
,
0001
0100
0000
0010
0000
1001
0000
0110
,
0000
0000
0010
0000
0000
0000
0000
0000
0100
0010
0100
0000
0000
0000
0000
0000
,
0010
0100
0010
0000
0000
0000
0001
0000
1000
0000
0000
0000
0100
0000
0000
0000
,
0000
0001
0000
0010
1000
0000
0100
1000
,
0001
0010
0000
0010
1000
0000
0100
1000
,
0001
0010
0000
0100
0010
0000
0001
0000
,
2000
0000
0000
0000
0000
3000
0000
0001
,
0010
0001
0000
0010
1000
0000
0000
0100
,
0001
1000
0000
0010
0100
0000
0001
1000
,
0000
1001
1001
0000
1001
1001
0000
1001
,
1001
0000
0001
0010
0000
0200
0000
0000
,
0000
0310
0000
1000
0000
0001
1000
0100
,
0010
1000
0001
0100
0010
1000
0001
0010
,
0000
1000
0000
0001
1000
0100
0010
1000
,
0001
0100
0010
1000
0001
0010
0000
1000
,
0000
0001
1000
0100
0010
1000
0001
0100
,
0010
1000
0001
0010
0000
0100
0000
1000
,
0000
0000
0001
1000
0000
0001
1000
0000
0001
1000
0000
0001
1000
0000
0001
1000
,
0000
0001
1000
0000
1001
0000
0000
0000
0000
0000
0000
0000
0000
0000
0000
0000
,
0000
0011
0000
1100
0000
1000
0100
0001
,
0110
0000
0000
1100
0000
0011
0000
1001
,
0000
0010
0100
0001
1000
0010
0100
0001
,
1000
0000
0100
0000
0010
0000
0001
0010
,
0000
1100
0000
0011
0000
0001
0010
0100
,
1001
0000
0000
0011
0000
1100
0000
0110
,
0000
0100
0010
1000
0001
0100
0010
1000
,
0001
0000
0010
0000
0100
0000
1000
0100
,
0000
0011
0000
0110
0000
1000
0100
1001
,
0000
0010
0000
0110
0000
0001
0010
1001
,
0000
0100
0000
0010
0000
0001
1000
0010
,
0100
1000
0000
0001
0010
0000
0100
0000
,
0001
0000
0000
2000
0000
3200
0000
0320
,
0000
0000
0000
0031
0000
0000
0000
0000
0000
0000
0000
0000
0000
0000
0000
0001
0000
0000
0000
0000
0100
0000
0000
0000
,
0010
1000
0000
0100
0001
0000
0010
2000
,
0000
0000
0000
0000
0000
0000
0000
3000
;
