#TITLE:Attitude;
#ARTIST:Y&Co.;
#GENRE:TRANCE;
#CREDIT:B. M'Rey;
#MUSIC:Attitude.ogg;
#BANNER:Attitude.png;
#BACKGROUND:Attitude-bg.png;
#CDTITLE:./CDTITLES/beatmania IIDX 8th style.png;
#SAMPLESTART:38.549;
#SAMPLELENGTH:15;
#OFFSET:-0.103;
#BPMS:0=145;
#BGCHANGES:-3.003=Attitude.avi=1.000=1=0=1===CrossFade==;

//---------------dance-single - B. M'Rey----------------
#NOTES:
     dance-single:
     B. M'Rey:
     Beginner:
     4:
     0.144,0.181,0.059,0.000,0.000:
0000
0000
0000
0000
,
0000
0000
0000
0000
,
0000
0000
0000
0000
,
0000
0000
0000
0000
,
0000
0000
0000
0000
,
0000
0000
0000
0000
,
0000
0000
0000
0000
,
0000
0000
0000
0000
,
0000
0000
0000
0000
,
0000
1000
0000
0000
,
0000
0010
0000
0000
,
0000
0100
0000
0000
,
0000
0001
0000
0000
,
0000
0010
0000
0000
,
0000
0001
0000
0000
,
0000
0100
0000
0000
,
0000
0100
0000
0000
,
0000
0110
0000
0000
,
0000
1000
0000
0000
,
0000
0001
0000
1000
,
0000
0001
1000
0001
,
1000
1001
0000
0000
,
0000
0000
0000
0000
,
0000
1000
0000
0010
,
0000
0100
0001
0100
,
0000
0010
0000
1000
,
0000
0100
0010
0100
,
0000
0001
0000
0100
,
0000
0010
1000
0010
,
0000
0100
0001
0100
,
0000
0010
1000
0010
,
0000
0110
0000
0001
,
0000
1000
0100
1000
,
0000
0010
0000
0100
,
0000
0001
0010
0001
,
0000
0100
0000
0010
,
0000
0010
0100
0010
,
0000
1000
0000
0100
,
0000
0010
0000
0001
,
0000
1000
0000
0000
,
0000
0010
0000
0000
,
0000
0100
0000
0000
,
0000
0001
0000
0000
,
0000
0010
0000
0000
,
0000
0001
0000
0000
,
0000
0100
0000
0000
,
0000
0010
0000
0000
,
0000
0110
0000
0000
,
0000
0000
0000
0000
,
0000
0001
0000
0000
,
0000
0000
0000
0000
,
0000
1000
0000
0000
,
0000
0000
0000
0000
,
0000
0100
0000
0010
,
0000
0001
0000
0000
,
1001
0001
0000
1000
,
0000
0010
0100
0010
,
0000
0001
0000
1000
,
0000
0010
1000
0010
,
0000
0100
0000
0001
,
0000
0100
0001
0100
,
0000
0010
1000
0010
,
0000
0100
0001
0100
,
0000
0110
0000
1000
,
0000
0001
1000
0001
,
0000
0100
0000
0010
,
0000
0100
0010
0100
,
0000
1000
0000
0001
,
0000
0010
0000
0001
,
0000
0100
0000
0010
,
0000
0100
0000
0010
,
0000
0110
0000
0000
;

//---------------dance-single - B. M'Rey----------------
#NOTES:
     dance-single:
     B. M'Rey:
     Easy:
     6:
     0.249,0.332,0.102,0.000,0.000:
0000
0000
0000
0000
,
0000
0000
0000
0000
,
0000
0000
0000
0000
,
0000
0000
0000
0000
,
0000
0000
0000
0000
,
0000
0100
1000
0001
,
0000
0001
0010
0001
,
0000
0010
0000
0010
,
0000
0001
0000
0001
,
0000
0001
1000
0100
,
0000
0010
1000
0100
,
0000
0001
1000
0001
,
0000
0010
0100
0001
,
0000
0001
1000
0010
,
0000
0100
1000
0100
,
0000
0100
0000
0010
,
0000
0001
0000
0010
,
0000
1001
0000
0100
,
0000
1001
0000
0101
,
0000
0001
1000
0010
,
0100
0001
0010
0100
,
0010
0100
0000
0000
,
0000
0000
0000
0000
,
0000
0001
1000
0001
,
1000
0001
0010
0100
,
0010
0100
1000
0100
,
1000
0001
1000
0001
,
0010
0001
0010
0100
,
0010
0100
1000
0100
,
0010
0001
0000
0001
,
0000
0100
0000
0100
,
0000
0100
0010
0001
,
0010
0001
0010
0100
,
1000
0100
1000
0100
,
0010
0001
0010
0001
,
0010
0100
1000
0010
,
1000
0001
0010
0100
,
0010
0100
0000
0001
,
0000
0001
0000
0010
,
0000
0110
0000
0001
,
1000
0000
0000
0001
,
1000
0010
0000
0010
,
0100
0010
0000
0001
,
1000
0001
0000
0001
,
0000
0010
0000
0100
,
0000
0010
0000
0001
,
0010
0001
0000
0100
,
0010
0100
0000
0000
,
0000
0010
0000
0000
,
0000
0001
0000
0000
,
0000
0100
0000
0000
,
0000
0001
0000
0000
,
0000
1000
0000
0000
,
0000
0100
0000
0100
,
0000
0001
0000
0001
,
1001
0001
1000
0010
,
1000
0010
0100
0010
,
0100
0001
0100
0001
,
1000
0001
0100
0010
,
0100
0010
0100
0001
,
0010
0001
0010
0001
,
0100
0010
0000
0010
,
0000
0001
0000
0001
,
0000
0101
0100
0010
,
0100
0010
0100
0001
,
1000
1100
1000
0100
,
1000
0010
0100
0001
,
0100
1010
1000
0001
,
1000
1001
1000
0100
,
0010
0110
0010
1100
,
1000
0001
1000
0001
,
0010
1100
0000
0000
;

//---------------dance-single - B. M'Rey----------------
#NOTES:
     dance-single:
     B. M'Rey:
     Medium:
     9:
     0.422,0.392,0.186,0.000,0.000:
0000
0000
0000
0000
,
0000
0000
0000
0000
,
0000
0000
0000
0000
,
0000
0000
0000
0000
,
0000
0000
0000
0000
,
0000
0001
1000
0001
,
0010
0100
0010
0100
,
1000
0101
0000
0101
,
0000
1010
0000
1100
,
0000
0001
0010
0001
,
0010
0100
1000
0100
,
0010
0100
1000
0001
,
1000
0010
1000
0010
,
0100
0010
0100
0001
,
0100
0001
1000
0001
,
1000
0110
0000
0110
,
0000
1100
0000
1001
,
0000
0000
0001
1000
0010
0000
0010
0000
,
0010
0000
0100
0010
0100
0000
0100
0000
,
0010
0110
1001
0101
,
1010
0000
0100
1000
0001
0100
0001
0010
,
0001
0110
0000
0000
,
0000
0001
0001
0010
,
0110
0000
0010
0100
0001
0000
0001
0100
,
0010
0000
0010
0100
0010
0000
0001
0100
,
0010
0000
0010
0100
0010
0000
0001
0100
,
0010
0000
0010
0100
0001
0000
0001
0010
,
0001
0000
0010
1000
0010
0000
0100
0010
,
0100
0000
0100
1000
0010
0000
0010
1000
,
0100
0000
0100
1000
0010
0100
0010
0100
,
0010
0000
0100
1000
0100
1000
0010
0100
,
0010
0000
0101
0000
0010
0000
0010
1000
,
0010
0000
0001
0010
0100
0000
0001
1000
,
0010
0000
0001
0100
0010
0000
0010
1000
,
0010
0000
0001
0010
0001
0000
0010
1000
,
0010
0000
0010
0100
0001
0000
0001
1000
,
0001
0000
0010
0100
0001
0000
0001
0100
,
0010
0000
0001
1000
0100
0000
0010
0100
,
0010
0000
0010
1000
0001
0000
0010
0100
,
0010
0110
1000
0010
,
1000
0000
0100
0000
1000
0000
0001
0100
,
0000
0100
0001
0000
0100
0000
0001
0010
,
0000
0010
0100
0000
0010
0000
0001
0100
,
0001
0100
0001
0000
0100
0000
0010
0000
,
0100
0001
0000
0001
0010
0000
0100
0010
,
0000
1001
0000
0000
0010
0000
0001
0010
,
0000
1000
0000
0001
0000
0010
0000
0100
,
1000
0100
0010
0000
0000
0000
0000
0000
,
1000
0001
0000
0010
,
0100
0001
0000
0001
,
1000
0000
0000
0100
,
0010
0001
0000
0100
,
1000
0100
0000
0100
,
0010
0000
0001
0100
0010
0000
0001
1000
,
0010
0000
0010
1000
0001
0000
0001
0010
,
0110
0000
0100
1000
0100
0000
0001
0010
,
0001
0000
0100
1000
0001
0000
0001
0010
,
0001
0000
0010
1000
0001
0000
0001
0010
,
0100
0000
0100
0010
0001
0000
0001
0100
,
0001
0000
0010
0100
0010
0000
0010
1000
,
0001
0000
0001
0100
0001
0000
0010
1000
,
0010
0000
0010
0100
0001
0100
0001
1000
,
0010
0000
0010
1000
0100
0010
0100
0010
,
0001
0000
1001
0000
0001
0000
0010
1000
,
0010
0000
0001
0010
0100
0000
0001
0010
,
0100
0000
1100
0000
0001
0000
0001
0100
,
0001
0000
0010
0100
0010
0000
0100
1000
,
0100
0000
0110
0000
0010
0000
0010
1000
,
0100
0000
1100
0000
0001
0000
0001
0100
,
0001
0000
0100
0010
0001
0000
0001
0100
,
0001
0000
0010
0100
0010
1000
0010
1000
,
0001
1000
0010
0000
0000
0000
0000
0000
;

//---------------dance-single - B. M'Rey----------------
#NOTES:
     dance-single:
     B. M'Rey:
     Hard:
     13:
     0.664,0.694,0.102,0.000,0.690:
0000
0000
0000
0000
,
0000
0000
0000
0000
,
0000
0000
0000
0000
,
0000
0000
0000
0000
,
0000
0000
0000
0000
,
0000
0000
0010
0000
0100
0000
0000
0010
0000
0000
0010
0000
1000
0000
0000
0100
,
0000
0000
0001
0000
0100
0010
0000
0100
0000
0000
0001
0000
1000
0000
0000
0010
,
0000
0000
0001
0000
1000
0000
0000
0001
0000
0000
0010
0000
1000
0000
0000
0001
,
0000
0000
0010
0000
1000
0100
0000
0010
0000
0000
0001
0000
1000
0000
0000
0010
,
0000
0000
0001
0000
0010
0000
0100
0001
0000
0000
0100
0000
0001
0000
1000
0100
,
0000
0000
1000
0000
0010
0100
0000
0001
0000
0000
0010
0000
0100
0000
1000
0010
,
0000
0000
0100
0000
0010
0000
0100
0001
0000
0000
0010
0000
0100
0000
0010
0001
,
0000
0000
0100
0000
0010
1000
0000
0010
0000
0000
0100
0000
0010
0000
0100
0001
,
0000
0000
0010
0000
0100
0000
0010
0100
0000
0000
1000
0000
0010
0000
1000
0100
,
0000
0000
1000
0000
0001
0010
0000
0100
0000
0000
1000
0000
0010
0000
0100
0010
,
0000
0000
1000
0000
0100
0000
0010
0001
0000
0000
0100
0000
0010
0000
1000
0010
,
0000
0000
0100
0000
0010
1000
0000
0001
0000
0000
0010
0000
0100
0000
1000
0010
,
0000
0000
0100
0000
0001
0010
0001
0010
0100
0000
1000
0000
0001
0000
0100
0000
,
0010
0000
0100
0000
0001
0010
0001
0010
0001
0000
0100
0000
0010
1000
0010
1000
,
0100
0000
0010
0000
0001
1000
0001
0000
0100
0010
0100
0000
0001
0010
0001
0000
,
0100
0010
0100
0000
0001
0100
0001
0000
0010
0000
1000
0000
0100
0000
0010
0000
,
0100
1000
0010
0000
0000
0000
0000
0000
,
0000
0000
0000
0000
0001
0000
0010
0000
0001
0000
0000
0100
0000
0000
1000
0000
,
1100
0000
0000
0000
0001
1000
0000
1000
0001
0000
0010
0000
0001
0010
0000
0010
,
0100
0000
0010
0000
0100
1000
0000
0001
0000
0000
1000
0000
0001
1000
0000
1000
,
0100
0000
0010
0000
0100
0010
0000
0010
0001
0000
0010
0000
0100
1000
0000
1000
,
0100
0000
1000
0000
0100
0010
0000
0001
0000
0000
0010
0000
0001
0010
0000
0010
,
0100
0000
1000
0000
0100
0010
0000
0010
0001
0000
0010
0000
0001
0010
0000
0010
,
0100
0000
1000
0000
0100
0010
0000
0100
0000
0000
1000
0000
0010
0000
1000
0001
,
0000
0000
0010
0000
0001
0010
0000
0010
0001
0000
0100
0000
0010
0100
0000
0100
,
0010
0000
0100
0000
0001
1000
0000
0100
0000
0000
1000
0000
0010
0100
0000
0100
,
0010
0000
1000
0000
0110
0000
0000
0001
0000
0000
0100
0000
0001
0100
0000
0100
,
0010
0000
1000
0000
0010
1000
0000
0010
0000
0000
0100
0000
0001
0100
0000
0100
,
0001
0000
0100
0000
0010
1000
0000
1000
0100
0000
1000
0000
0001
1000
0000
1000
,
0100
0000
0010
0000
0001
0010
0000
0100
0000
0000
0010
0000
0100
1000
0000
1000
,
0100
0000
1000
0000
0001
1000
0000
1000
0001
0000
0100
0000
0001
1000
0000
1000
,
0100
0000
1000
0000
0100
0010
0000
0100
0000
0000
0010
0000
0001
0010
0000
0010
,
0001
0000
0100
0000
0001
1000
0001
1000
0100
0000
1000
0000
0100
0010
0100
0010
,
0100
0000
1000
0000
0001
1000
0100
1000
0100
0000
1000
0000
0100
0010
0100
0010
,
0100
0010
1001
0000
0001
0000
0010
1000
,
0001
0010
0001
0010
0001
0100
0010
1000
,
0010
1000
0010
0100
0001
0100
0001
0100
,
0010
1000
0010
1000
0010
0100
0001
1000
,
0001
1000
0001
0100
0010
0100
0010
0100
,
0001
1000
0001
1000
0010
1000
0010
0100
,
0010
0100
0001
0100
0001
1000
0001
1000
,
0100
1000
0100
0010
0100
0010
0001
0100
,
0001
0100
0010
0000
1000
0000
0010
0000
,
1000
0010
0100
0001
,
0100
0001
0100
0010
,
1000
0010
1000
0010
,
0100
0001
0100
0001
,
0100
0010
1000
0001
,
1000
0000
0000
0000
0001
0000
0010
0000
0001
0000
0000
0100
0000
0000
1000
0000
,
1100
0000
0000
0000
1000
0000
0100
0000
1000
0000
0000
0010
0000
0000
0001
0000
,
0011
0000
0000
0000
1000
0001
0000
0001
1000
0000
0100
0000
1000
0100
0000
0100
,
0010
0000
0100
0000
0010
0001
0000
1000
0000
0000
0001
0000
1000
0001
0000
0001
,
0010
0000
0100
0000
0010
0100
0000
0100
1000
0000
0100
0000
0010
0001
0000
0001
,
0010
0000
0001
0000
0010
0100
0000
1000
0000
0000
0100
0000
1000
0100
0000
0100
,
0010
0000
0001
0000
0010
0100
0000
0100
1000
0000
0100
0000
1000
0100
0000
0100
,
0010
0000
0001
0000
0010
0100
0000
0010
0000
0000
0001
0000
0100
0000
0001
1000
,
0000
0000
0100
0000
1000
0100
0000
0100
1000
0000
0010
0000
0100
0010
0000
0010
,
0100
0000
0010
0000
1000
0001
0000
0010
0000
0000
0001
0000
0100
0010
0000
0010
,
0100
0000
0001
0000
0110
0000
0000
1000
0000
0000
0010
0000
1000
0010
0000
0010
,
0100
0000
0001
0000
0100
0001
0000
0100
0000
0000
0010
0000
1000
0010
0000
0010
,
1000
0000
0010
0000
0101
0000
0000
0001
0000
0000
0001
0000
1000
0001
0000
0001
,
0010
0000
0100
0000
1000
0100
0000
0010
0000
0000
0100
0000
0010
0001
0000
0001
,
0010
0000
0001
0000
1001
0000
0000
0001
0000
0000
0010
0000
1000
0001
0000
0001
,
0010
0000
0001
0000
0110
0000
0000
0010
0000
0000
0100
0000
1000
0100
0000
0100
,
1000
0000
0010
0000
1001
0000
0000
0001
0000
0000
0001
0000
0110
0000
0000
0100
,
0000
0000
0100
0000
1000
0001
0010
0001
0010
0000
0001
0000
0010
0100
0010
0100
,
0010
0100
1001
0000
0000
0000
0000
0000
;
