#TITLE:Asteroider;
#ARTIST:Sanaas;
#GENRE:TRANCE;
#CREDIT:B. M'Rey;
#MUSIC:Asteroider.ogg;
#BANNER:Asteroider-bn.png;
#BACKGROUND:Asteroider-bg.png;
#CDTITLE:./CDTITLES/Dance Dance Revolution SPACE.PNG;
#SAMPLESTART:88.675;
#SAMPLELENGTH:15;
#OFFSET:-0.050;
#BPMS:0.000=129.986;

//--------------- dance-single - B. M'Rey ----------------
#NOTES:
     dance-single:
     B. M'Rey:
     Beginner:
     4:
     0,0,0,0,0:
0000
0000
0000
0000
,
0000
0000
0000
0000
,
0000
0000
0000
0000
,
0000
0000
0000
0000
,
0100
0000
0000
0000
,
1000
0000
0000
0000
,
0001
0000
0000
0000
,
0010
0000
0000
0000
,
0100
0000
0000
0001
,
0010
0000
0000
1000
,
0100
0000
0000
0010
,
0100
0000
0000
0001
,
1000
0000
0000
0010
,
0100
0000
0000
0000
,
1000
0000
0000
0010
,
0100
0000
0000
0000
,
0001
0000
0000
0000
,
1000
0000
0000
0000
,
0010
0000
0000
0000
,
0100
0000
0000
1000
,
0100
0000
0000
0010
,
0001
0000
0000
0010
,
1000
0000
0000
0100
,
0010
0000
0000
0000
,
0001
0000
1000
0000
,
0010
0000
0100
0000
,
1001
0000
0010
0000
,
0100
0000
0010
0000
,
0101
0000
0000
0000
,
0110
0000
0000
0000
,
1010
0000
0000
0000
,
0100
0000
0000
0000
,
0001
0000
1000
0000
,
0010
0000
0100
0000
,
0010
0000
1000
0000
,
0100
0000
0001
0000
,
0000
1000
0000
0010
,
0000
0100
0000
0010
,
0000
1000
0000
0001
,
0000
0100
0000
0000
,
0010
0000
1000
0000
,
0001
0000
0010
0000
,
0001
0000
0100
0000
,
0010
0000
1000
0000
,
0000
0001
0000
0100
,
0000
0010
0000
1000
,
0000
0001
0000
0000
,
1001
0000
0000
0000
,
1000
0000
0010
0000
,
0100
0000
0010
0000
,
1000
0000
0001
0000
,
0010
0000
0001
0000
,
0100
0000
0010
0000
,
1000
0000
0100
0000
,
1000
0000
0010
0000
,
0100
0000
0000
0000
,
0002
1000
0000
1003
,
0200
0000
0301
0100
,
0020
0000
0130
1000
,
0002
0000
0013
0100
,
0020
0000
0130
0010
,
0200
0000
0301
0010
,
0200
0000
0301
1000
,
0002
0000
1003
0100
,
0020
0000
0130
0010
,
0200
0000
0310
1000
,
0020
0000
0130
1000
,
0020
0000
0031
1000
,
0100
0000
0001
0000
,
1000
0000
0010
0000
,
0100
0000
0001
0000
,
1001
0000
0000
0000
,
0010
0000
0000
0000
;

//--------------- dance-single - B. M'Rey ----------------
#NOTES:
     dance-single:
     B. M'Rey:
     Easy:
     6:
     0,0,0,0,0:
0000
0000
0000
0000
,
0000
0000
0000
0000
,
0000
0000
0000
0000
,
0000
0000
0000
0000
,
0001
0000
0010
0000
,
0001
0000
0100
0000
,
0010
0000
1000
0000
,
0001
0000
1000
0000
,
0020
0000
0031
0020
,
0000
0000
0031
2000
,
0000
0000
3001
0200
,
0000
0000
0301
0100
,
0020
0000
0000
1030
,
0200
0000
0000
0000
0000
0301
0000
0200
,
0000
0000
0310
1000
,
0200
0000
0000
0000
,
0301
0010
0001
0000
,
0001
1000
0010
0000
,
0010
1000
0001
0000
,
0001
0010
0001
0000
,
0010
1000
0100
0000
,
0001
0100
0001
0000
,
0001
0100
0010
0000
,
0010
0100
0001
0000
,
0010
0100
0001
0010
,
0001
0100
0010
0100
,
0010
1000
0001
1000
,
0100
1000
0100
0010
,
0001
0010
0001
0010
,
0100
1000
0001
1000
,
0001
1000
0001
1000
0001
0010
0100
0010
,
0200
0000
0000
0000
,
0310
1000
0010
0100
,
0010
0100
0001
0010
,
0100
0010
0100
1000
,
0010
1000
0001
2000
,
0000
3100
0001
0100
,
0010
1000
0010
0100
,
0010
0100
0001
1000
,
0020
0000
0000
0130
,
0010
0100
0001
0010
,
0001
0010
0100
1000
,
0001
0010
0100
0010
,
0001
0100
0010
0200
,
0301
0110
0100
0010
,
0011
0010
0100
1000
,
0110
0000
0011
0000
,
0110
0000
0000
0000
,
0001
1000
0010
0100
,
0010
1000
0001
0100
,
0010
0100
0001
0100
,
0001
1000
0100
0010
,
0001
0100
0010
0100
,
0010
0100
0001
0010
,
0100
0010
0001
0100
,
0001
1000
0010
0100
,
0002
0000
0000
0000
0000
0103
0010
0200
,
0000
0000
0000
0000
0000
0301
0010
0002
,
0000
0000
0000
0000
0000
1003
0100
2000
,
0000
0000
0000
3010
,
0200
0000
0000
0000
0000
0301
0010
0002
,
0000
0000
0000
0000
0000
1003
0100
2000
,
0000
0000
0000
0000
0000
3010
0100
0020
,
0000
0000
0000
0031
,
2000
0000
0000
0000
0000
3010
0100
0020
,
0000
0000
0000
0000
0000
0031
0010
0002
,
0000
0000
0000
0000
0000
1003
0100
2000
,
0000
0000
0000
3010
,
0100
0000
0100
0000
,
0001
0000
0001
0000
,
1000
0100
0001
0010
,
1100
0000
0000
0000
,
0001
1000
0100
0010
,
0001
0010
0001
0100
,
0010
0100
0010
0100
,
0002
0000
0000
0000
,
0003
0000
0000
0000
;

//--------------- dance-single - B. M'Rey ----------------
#NOTES:
     dance-single:
     B. M'Rey:
     Medium:
     10:
     0,0,0,0,0:
0000
0000
0000
0000
,
0000
0000
0000
0000
,
0000
0000
0000
0000
,
0000
0000
0000
0000
,
0001
0010
0100
0000
0100
1000
0001
0000
,
0001
0010
0001
0000
0010
0100
0001
0000
,
0100
0010
0001
0000
0001
1000
0001
0000
,
0100
1000
0001
0000
0200
0000
0000
0000
,
0302
0000
0000
0000
0000
0103
0010
2000
,
0000
0000
0000
0000
0000
3010
0001
2000
,
0000
0000
0000
0000
3001
0010
0100
0020
,
0000
0000
0000
0000
0000
1030
0001
0100
,
0020
0000
0000
0000
0000
0130
0001
0020
,
0000
0000
0000
0000
0000
1031
0000
2002
,
0000
0000
0000
0000
3003
0100
0010
0200
,
0001
0000
0010
0000
0001
0300
0010
1000
,
0001
0100
0010
0100
,
0001
0010
0001
0010
,
0001
0100
0010
0100
,
0010
1000
0001
1000
,
0001
0010
0100
0010
,
0001
0010
0100
1000
,
0001
0100
0001
0010
,
0100
1000
0001
0010
,
0101
0110
1010
1100
,
0110
1100
0110
1010
,
1010
1001
0011
0110
,
0011
1001
0101
0110
,
0010
0100
0001
0000
0001
0010
0001
0000
,
0100
0010
0100
0000
0100
1000
0001
0000
,
0100
1000
0001
1000
,
0100
0010
0000
1000
0100
0000
1010
0000
,
0010
0100
0010
1000
0100
1000
0100
1000
,
0000
0100
0001
1000
0100
0010
0001
0010
,
0000
0100
0010
1000
0010
1000
0010
0100
,
0000
0100
0010
0100
0001
0100
0010
0200
,
0000
0310
0001
1000
0100
1000
0001
0010
,
0000
0010
0001
1000
0010
1000
0001
0010
,
0000
1000
0001
0010
0100
1000
0100
1000
,
0000
0100
0010
0100
0001
0000
1010
0000
,
0010
0100
0001
0000
0100
0010
0100
0010
,
0001
0000
0010
0100
0010
1000
0001
0010
,
0000
1000
0100
0000
0100
1000
0010
1000
,
0000
0100
0010
0100
0001
1000
0100
0000
,
0100
0010
0100
0000
0001
1000
0010
0000
,
0010
0100
0001
0000
0100
0010
0001
0000
,
0100
0010
0100
0010
0100
1000
0001
0100
,
1010
0000
0000
0100
0000
0001
0000
0010
0000
0000
1000
0000
0200
0000
0000
0000
,
0310
0100
0010
0100
0001
1000
0100
1000
,
0100
1000
0001
0100
0001
0010
0001
0100
,
0010
0100
0010
1000
0100
0010
0001
1000
,
0001
0100
0010
0100
0001
0100
0001
0010
,
0100
0010
0100
0010
0001
0100
0010
1000
,
0010
1000
0100
1000
0010
0100
0010
0100
,
0010
1000
0100
1000
0001
1000
0100
0010
,
0100
0010
0100
1000
0001
0100
0001
0100
,
0002
0000
0100
0000
0103
0010
0100
0010
,
0002
0000
0010
0000
0010
0103
0010
0100
,
0020
0000
0100
0000
0130
0010
0001
0100
,
0020
0000
0001
0000
0031
1000
0100
0010
,
0200
0000
0001
0000
0310
0100
0001
0100
,
0002
0000
0100
0000
1003
0100
0010
1000
,
0020
0000
0001
0000
0031
0010
0100
0010
,
0200
0000
0010
0000
0310
1000
0010
0100
,
2000
0000
0001
0000
3100
1000
0010
0100
,
2000
0000
0001
0000
3001
0100
0010
1000
,
0020
0000
0001
0000
0031
0010
0100
0010
,
0200
0000
0001
0000
0301
0100
0001
1000
,
1010
1100
1010
0110
,
1100
0110
1001
0011
,
0100
0010
0100
0000
0100
0010
0001
0000
,
0002
0000
0000
0000
,
1003
0010
0001
1000
0000
0100
0000
0100
,
0010
0100
0001
1000
0000
1000
0000
1000
,
0001
0010
0100
1000
0000
0010
0000
0010
,
0002
0000
0000
0000
,
0003
0000
0000
0000
;

//--------------- dance-single - B. M'Rey ----------------
#NOTES:
     dance-single:
     B. M'Rey:
     Hard:
     13:
     0,0,0,0,0:
0000
0000
0000
0000
,
0000
0000
0000
0000
,
0000
0000
0000
0000
,
0000
0000
0000
0000
,
0001
1000
0001
1000
0000
0001
0000
0000
0100
1000
0100
0010
0000
1000
0000
0000
,
0001
0010
0100
1000
0000
0010
0000
0000
0001
0010
0001
0100
0000
0010
0000
0000
,
0100
0010
0001
1000
0000
0001
0000
0000
0100
0010
0100
0010
0000
0100
0000
1000
,
0001
1000
0001
0000
0100
0010
0100
0010
,
0002
0000
0000
0000
1003
0010
0100
0020
,
0000
0000
0000
0000
0031
0010
1000
0200
,
0000
0000
0000
0000
0000
0310
0001
0020
,
0000
0000
0000
0000
0000
1030
0100
1000
,
0020
0000
0000
0000
0000
0130
0010
0002
,
0000
0000
0000
0000
0000
1003
0000
0220
,
0000
0000
0000
0000
0330
0001
0010
2000
,
0000
0000
0000
0000
,
3010
0100
0010
0000
1000
0000
0001
0000
,
0010
0100
1000
0000
0001
0000
0010
0000
,
0100
0001
0010
0000
1000
0000
0010
0000
,
0100
0001
0100
0000
0010
1000
0100
0000
,
0010
0000
0001
0000
0010
1000
0100
1000
,
0010
0000
0100
0000
0001
0010
0001
0100
,
0010
0000
1000
0000
0100
0010
1000
0010
,
0100
0000
0001
0000
0010
0001
1000
0010
,
1001
0110
0101
1010
,
0110
0101
1010
0110
,
1001
1010
0110
0101
,
1010
0101
0110
1001
,
0001
1000
0001
1000
0001
1000
0001
1000
,
0010
0100
0010
0100
0010
0100
0010
0100
,
0010
1000
0100
0010
0100
0010
0001
0010
0001
1000
0010
0100
0010
0100
0010
1000
,
0001
0000
1000
0000
0000
0010
0000
0100
0010
0100
0010
0100
0010
0000
0000
0000
,
0100
1000
0100
1000
0100
0010
0001
0100
,
0001
1000
0010
0100
0010
0100
0001
0100
,
0001
0010
0100
0010
0001
1000
0001
0010
,
0100
1000
0010
0100
0010
0100
0010
2000
,
0000
3100
0100
0010
0001
0010
0100
1000
,
0001
0100
0010
0100
0001
0010
0001
1000
,
0010
0100
0010
1000
0001
0010
0100
0010
,
0001
1000
0010
1000
0010
1000
0001
0010
0001
0010
0001
1000
0010
1000
0010
0100
,
0010
0001
1000
0000
0100
0000
0010
1000
0001
0000
1000
0000
0100
0001
0010
0000
,
0100
0010
1000
0100
0001
0000
0100
0000
0001
1000
0100
0000
0001
0000
0010
0000
,
0100
0001
1000
0000
0100
0000
0010
0001
0100
0000
1000
0000
0010
0000
0100
1000
,
0001
0000
0010
0100
0001
0000
0100
1000
0001
0000
0100
0000
0010
0000
0100
0000
,
0001
0000
1000
0001
0000
0010
0000
0100
0000
0010
0001
0000
1000
0000
0010
0000
,
0100
0000
0001
1000
0000
0010
0000
0100
0000
0001
0010
0000
1000
0000
0001
0000
,
1001
0000
0100
0010
0101
0000
0010
1000
,
1010
0000
0000
0100
0000
0001
0000
0010
0000
0100
0000
1000
0001
1000
0001
1000
,
0001
1000
0001
0010
0000
0100
0001
1000
0000
0010
0100
0000
0001
0000
1000
0000
,
0010
0001
0010
0100
0000
1000
0100
0010
0000
0001
0010
0000
0100
0000
1000
0000
,
0001
1000
0001
1000
0000
0100
0010
1000
0000
1000
0010
0000
0001
0000
0010
0000
,
0001
0100
0010
0100
0000
1000
0010
1000
0000
1000
0010
0000
0100
0000
0010
0000
,
0100
1000
0100
1000
0000
0010
0001
0010
0000
1000
0100
0000
0010
0000
0100
0000
,
0001
0010
0001
0100
0000
0100
0010
0100
0000
1000
0010
0000
1000
0000
0001
0000
,
0010
0100
0010
0100
0000
0010
0100
0010
0000
0010
0001
0000
0010
0000
0001
0000
,
0200
0010
0010
0010
,
0301
0100
0001
0100
0001
0010
0100
1000
,
0100
0010
0100
0010
0001
0010
0001
1000
,
0001
0010
0100
0010
0100
0010
0001
1000
,
0001
1000
0001
0010
0100
0010
0100
0010
,
0001
1000
0001
1000
0001
0010
0100
1000
,
0100
0010
0100
0010
0001
0010
0001
1000
,
0001
1000
0100
1000
0100
0010
0100
0010
,
0001
0100
0001
0100
0001
1000
0010
1000
,
0010
0100
0010
0100
0001
0100
0001
0010
,
0001
0010
0100
0010
0100
1000
0100
1000
,
0001
0100
0001
0100
0001
1000
0100
1000
,
0100
1000
0001
0100
0001
0100
0001
1000
,
0110
0101
1010
0101
,
0110
1001
0110
1001
,
0001
0010
0100
1000
0100
1000
0100
0010
,
2002
0000
0000
0000
0000
0000
0000
0003
,
3001
0000
1000
0001
0000
0010
0000
0100
0000
0010
0001
0000
1000
0000
0010
0000
,
0100
0000
0001
1000
0000
0010
0000
0100
0000
0001
0010
0000
1000
0000
0001
0000
,
0001
0000
1000
0001
0000
0100
0000
0010
0000
0100
0001
0000
1000
0000
0100
0000
,
0020
0000
0000
0000
,
0030
0000
0000
0000
;
