#VERSION:0.83;
#TITLE:AqualimpiD;
#ARTIST:fmy.;
#GENRE:AMBIENT;
#CREDIT:B. M'Rey;
#MUSIC:AqualimpiD.ogg;
#BANNER:AqualimpiD.png;
#BACKGROUND:AqualimpiD-bg.png;
#CDTITLE:./CDTITLES/Dance Dance Revolution SPACE.PNG;
#SAMPLESTART:75.180;
#SAMPLELENGTH:15;
#OFFSET:-0.450;
#BPMS:0=179,127=44.75,135=89.5,167=179;

//--------------- dance-single - B. M'Rey ----------------
#NOTEDATA:;
#STEPSTYPE:dance-single;
#DESCRIPTION:B. M'Rey;
#CREDIT:B. M'Rey;
#DIFFICULTY:Beginner;
#METER:5;
#RADARVALUES:0.184423,0.411137,0.142385,0,0,136,121,15,0,0,0,0.184423,0.411137,0.142385,0,0,136,121,15,0,0,0;
#NOTES:
0000
0000
0000
0000
,
0000
0000
0000
0000
,
0000
0000
0000
0000
,
0000
0000
0000
0100
,
0000
0000
0000
0010
,
0000
0000
0000
1001
,
0000
0000
0000
0110
,
0000
0000
0000
0001
,
0000
1000
0000
0010
,
0000
0100
0000
0001
,
0000
1000
0000
0010
,
0000
0100
0000
0001
,
0000
0001
0000
1000
,
0000
1000
0000
0010
,
0000
0010
0000
0100
,
0000
0100
0000
0001
,
0000
1000
0000
0010
,
0000
0100
0000
0001
,
0000
0010
0000
0001
,
0000
1000
0000
0010
,
0000
0100
0000
0001
,
0000
1000
0000
0010
,
0000
0100
0000
0001
,
0000
1000
0000
1001
,
0000
0000
0000
0100
,
0000
0000
0000
0010
,
0000
0000
0000
1000
,
0000
0000
0000
0001
,
0000
0000
0000
0010
,
0000
0000
0000
0100
,
0000
0000
0000
0010
,
0000
0000
0000
1001
,
0100
0010
1000
0101
,
0010
1000
0100
0010
,
0010
0100
0100
0001
,
0001
1000
1000
0010
,
0010
0100
0100
0010
,
1000
0001
0100
0110
,
0001
1000
0010
0100
,
0010
0001
1000
1010
,
0100
0110
0001
0101
,
0110
1010
1001
0001
,
0000
1000
0000
0010
,
0000
0100
0010
0100
,
0000
0001
0000
0010
,
0000
0001
0010
0001
,
0000
1000
0000
0010
,
0000
0100
0000
0010
,
0000
1000
0000
0001
,
0000
0010
0000
0110
,
0000
0010
0000
1000
,
0000
0001
1000
0001
,
0000
0010
0000
0001
,
0000
0100
0010
0100
,
0000
1000
0000
0001
,
0000
0010
0000
0001
,
0000
0100
0000
0010
,
0000
1010
0000
1001
;

//--------------- dance-single - B. M'Rey ----------------
#NOTEDATA:;
#STEPSTYPE:dance-single;
#DESCRIPTION:B. M'Rey;
#CREDIT:B. M'Rey;
#DIFFICULTY:Easy;
#METER:6;
#RADARVALUES:0.257649,0.383728,0.123401,0.009492,0,190,177,13,1,0,0,0.257649,0.383728,0.123401,0.009492,0,190,177,13,1,0,0;
#NOTES:
0000
0000
0000
0000
,
0000
0000
0000
0000
,
0000
0000
0000
0000
,
0000
0000
0000
0110
,
0000
0100
0000
0001
,
0000
1000
0000
0110
,
0000
0010
0000
1001
,
0000
0101
0000
0001
,
0010
0100
1000
0001
,
1000
0001
0010
0001
,
1000
0100
1000
0001
,
1000
0001
0010
0001
,
0010
0000
0010
0001
,
0100
0000
1000
0001
,
0010
0000
1000
0010
,
1000
0000
0100
0000
,
1000
0100
0010
0100
,
0010
0100
1000
0010
,
0100
0001
0100
0001
,
0100
0010
1000
0001
,
0100
0010
0000
0001
,
1000
0010
0000
0100
,
0010
0001
0000
0001
,
0010
0100
0000
1000
,
0000
0010
0000
0100
,
0000
0010
0000
0001
,
0000
1000
0000
0001
,
0000
0010
0000
0100
,
0000
0010
0000
1000
,
0000
0001
0000
0010
,
0000
0001
0000
0100
,
0000
0010
0000
0001
,
1000
0100
0100
0110
,
0010
0001
1000
0100
,
0100
0001
0001
1000
,
1000
0000
0010
0000
0000
0010
0000
0100
,
0000
0100
0000
1000
0000
0001
0000
0100
,
0000
1000
0000
0000
0200
0000
1300
0010
,
0001
0000
0001
0100
0001
0000
0100
0010
,
0001
0000
0001
0100
0010
0000
0011
0000
,
0100
0000
1100
0000
0001
0000
0001
0010
,
0001
0010
0100
1000
0010
0000
0001
0000
,
1000
0001
0100
0010
,
0100
0001
1000
0100
,
1000
0001
0100
0010
,
1000
0010
0100
0010
,
0000
0001
0000
1000
,
0000
0100
0000
0010
,
0000
0001
0000
1000
,
0000
0010
0000
0100
,
0010
0001
1000
0001
,
0010
0100
1000
0100
,
0010
0001
1000
0001
,
0100
0001
1000
0110
,
0000
0001
1000
0110
,
0000
0010
1000
0011
,
0000
0100
0010
0101
,
0000
0110
0000
1001
;

//--------------- dance-single - B. M'Rey ----------------
#NOTEDATA:;
#STEPSTYPE:dance-single;
#DESCRIPTION:B. M'Rey;
#CREDIT:B. M'Rey;
#DIFFICULTY:Medium;
#METER:9;
#RADARVALUES:0.372914,0.685229,0.104416,0,0.037969,275,264,11,0,0,0,0.372914,0.685229,0.104416,0,0.037969,275,264,11,0,0,0;
#NOTES:
0000
0000
0000
0000
,
0000
0000
0000
0000
,
0000
0000
0000
0000
,
0000
0000
0000
0001
,
0010
0100
0010
0100
,
1000
0100
1000
0101
,
0100
0001
1000
0110
,
1000
0000
1010
0000
0000
0000
0100
1000
,
0100
0000
0010
0100
0010
0000
0010
1000
,
0001
0000
0001
0000
0100
0000
0001
0010
,
0100
0000
0100
1000
0010
0000
0001
0100
,
0010
0000
0001
0000
0010
0000
0001
1000
,
0010
0100
0000
0100
0000
0010
0100
1000
,
0000
1000
0000
0010
0000
0100
0010
1000
,
0000
1000
0000
1000
0000
0010
0001
1000
,
0000
0010
0000
1000
0000
0010
0100
0000
,
0010
0100
0001
0000
0010
0100
0001
0000
,
0100
0010
0100
0000
0100
0010
0001
0000
,
0001
0010
0100
0000
0100
0010
0001
0000
,
0001
0010
0100
0000
0010
0100
0010
1000
,
0000
0010
0000
0010
0000
0010
0100
1000
,
0000
1000
0000
0010
0000
0010
0001
0100
,
0000
1000
0000
0100
0000
0100
0001
1000
,
0000
1000
0010
0100
0010
0000
0001
0000
,
0000
1000
0000
0010
,
0000
0100
0000
0010
,
0000
1000
0000
0001
,
0000
0010
0000
0100
,
0000
0010
0000
1000
,
0000
0010
0000
0100
,
0000
0001
0000
0010
,
0000
0000
0000
0000
1000
0000
0000
0000
0001
0000
0000
0000
1000
0010
0001
0000
,
0010
1000
0100
0000
0100
1000
0001
0000
0001
0100
0010
0000
0001
0100
0010
0000
,
0010
1000
0100
0000
0100
0010
0100
0000
0001
1000
0100
0000
0001
0000
0000
0000
,
1000
0000
0010
0100
0010
0000
1000
0000
,
0010
0000
0100
0001
0100
0000
0010
0000
,
1000
0000
0010
0100
0001
0000
0010
0000
,
0001
0000
0100
0010
1000
0000
0110
0000
,
0001
0000
1000
0001
1000
0000
0010
0000
,
0100
0000
0001
0100
0001
0000
1010
0000
,
0100
0101
0010
0110
,
0101
1001
0110
0100
,
0001
0010
0000
1000
0100
0000
0001
0100
,
0000
1000
0010
0000
0100
0000
0001
0000
,
0001
0010
0000
0010
0100
0000
0001
1000
,
0000
1000
0100
0000
0100
0000
0001
0010
,
0100
0000
0001
0000
0100
0000
0010
1000
,
0001
0000
1000
0000
0010
0000
0010
1000
,
0001
0000
0100
0000
0100
0000
0100
0010
,
0001
0100
0001
0010
,
0010
1000
0000
0010
0001
0000
0100
0010
,
0000
1000
0001
0000
0001
0000
0100
0000
,
0100
1000
0000
0010
0001
0000
0100
0010
,
0000
0100
0001
0000
0010
0000
0001
1000
,
0001
0000
1000
0000
0010
0000
0001
1000
,
0001
0000
0100
0000
0001
0000
0010
1000
,
0001
0000
0001
0000
0010
0000
0010
0100
,
0001
0000
0001
1000
0100
0000
1001
0000
;

//--------------- dance-single - B. M'Rey ----------------
#NOTEDATA:;
#STEPSTYPE:dance-single;
#DESCRIPTION:B. M'Rey;
#CREDIT:B. M'Rey;
#DIFFICULTY:Hard;
#METER:13;
#RADARVALUES:0.547844,0.959321,0.056954,0,0.393932,404,398,6,0,0,0,0.547844,0.959321,0.056954,0,0.393932,404,398,6,0,0,0;
#NOTES:
0000
0000
0000
0000
,
0000
0000
0000
0000
,
0000
0000
0000
0000
,
0000
0000
0000
0000
0001
1000
0100
0000
,
0010
0100
1000
0010
,
1000
0010
0100
0101
,
0100
0010
0100
0010
,
1000
0100
0010
0100
0010
0100
0010
0000
,
0001
1000
0000
0010
0100
0000
0010
1000
,
0000
0010
0100
0010
0001
0010
0100
0000
,
0100
0010
0000
0010
0001
0000
0001
1000
,
0000
1000
0010
0100
0010
0100
0010
0000
,
0001
0010
0000
0100
0010
0000
0010
0100
,
0001
0100
0000
1000
0100
0000
0001
0100
,
0010
1000
0000
0100
0001
0000
0001
0010
,
0100
1000
0000
0100
0001
0000
1001
0000
,
0010
1000
0000
0010
0100
0000
0001
0010
,
0000
1000
0001
1000
0100
1000
0001
0000
,
0100
0010
0000
1000
0001
0000
0100
0010
,
0000
0010
0100
1000
0100
1000
0001
0000
,
0100
0010
0000
0001
0000
1000
0001
0100
,
0000
0010
0000
0100
0000
0100
0001
0100
,
0000
1000
0000
0100
0000
1000
0100
1000
,
0000
0100
0010
0000
0001
0000
0100
1000
,
0010
0000
0100
0000
0010
0000
0001
0100
,
0010
0000
0001
0000
1000
0000
0001
0010
,
0100
0000
0010
0000
1000
0000
0100
0001
,
1000
0000
0100
0000
1000
0000
0001
1000
,
0100
0000
0010
0000
1000
0000
0001
0010
,
1000
0000
0100
0000
0010
0000
0100
0001
,
1000
0000
0010
0000
0100
0000
0001
1000
,
0100
0000
0000
0000
0001
0000
0010
0000
0100
0000
0000
0000
0010
1000
0100
1000
,
0100
0000
0010
0000
0001
0000
0100
0010
0001
0000
0010
0000
0100
0000
0010
0000
0001
0000
0100
0000
0010
0000
1000
0100
0001
0000
1000
0000
0010
0000
0100
0000
,
0010
0000
1000
0000
0010
0000
1000
0001
0100
0000
1000
0000
0010
0000
0100
0000
0001
0000
0010
0000
0100
0000
0000
0000
0001
0000
0000
1000
0000
0000
0001
0000
,
0000
0100
0000
0000
0010
0000
1000
0000
0010
0000
0000
1000
0000
0000
0010
0000
0000
0100
0000
0000
0010
0000
0100
0000
0010
0000
0000
0001
0000
0000
0100
0000
,
0000
0001
0000
0000
0100
0000
0001
0000
0100
0000
0000
0010
0000
0000
0100
0000
0000
0010
0000
0000
0100
0000
0010
0000
0001
0000
0000
1000
0000
0000
0001
0000
,
0000
1000
0000
0000
0001
0000
1000
0000
0100
0000
0000
0010
0000
0000
0100
0000
0000
0010
0000
0000
0100
0000
0001
0000
0100
0000
0000
0010
0000
0000
1000
0000
,
0000
0100
0000
0000
1000
0000
0010
0000
0100
0000
0000
0001
0000
0000
0100
0000
0000
0001
0000
0000
0100
0000
0010
0000
0110
0000
0000
1000
0000
0000
0100
0000
,
0000
0010
0000
0000
0100
0000
0010
0000
0100
0000
0000
0100
0000
0000
0001
0000
0000
0100
0000
0000
0001
0000
1000
0000
0001
0000
0000
1000
0000
0000
0100
0000
,
0000
0010
0000
0000
1000
0000
0100
0000
0010
0000
0000
1000
0000
0000
0001
0000
0000
1000
0000
0000
1001
0000
0000
0000
1001
0000
0000
0100
0000
0000
0010
0000
,
0000
1000
0000
0000
0010
0000
0100
0000
0010
0000
0000
0001
0000
0000
1000
0000
0000
0001
0000
0000
1000
0000
0001
0000
0100
0000
0000
0010
0000
0000
0001
0000
,
0000
0100
0000
0000
0010
0000
1000
0000
0001
1000
0010
1000
0001
1000
0010
0100
0001
0000
0000
0000
0000
0000
0000
0000
0001
0000
0000
0000
0010
0000
0000
0000
,
0100
1000
0001
0010
0100
0010
0001
0100
,
0001
0100
0010
1000
0001
0100
0010
0100
,
0010
0100
0001
1000
0010
1000
0001
1000
,
0100
0010
0001
1000
0010
1000
0001
0010
,
0001
0100
0000
1000
0000
0100
0001
0010
,
0001
0100
0000
0001
0000
0100
0001
0010
,
0001
0100
0000
0010
0000
0100
0001
0010
,
0100
0010
0000
0100
0000
0001
0010
0100
,
0001
1000
0100
0010
0100
0010
0001
0010
,
0100
1000
0001
1000
0001
1000
0100
0010
,
0001
1000
0001
0100
0001
0010
0100
1000
,
0100
1000
0010
1000
0010
0100
0010
1000
,
0001
1000
0000
0010
0000
0010
0100
1000
,
0010
1000
0000
0001
0000
0100
0001
0010
,
0100
0010
0000
1000
0000
1000
0001
0100
,
0010
0000
0100
1000
0100
0000
0110
0000
;
