#VERSION:0.83;
#TITLE:Apeirophobia;
#ARTIST:GABBA-Ω;
#ARTISTTRANSLIT:GABBA OMEGA;
#GENRE:GABBAH;
#CREDIT:B. M'Rey;
#MUSIC:Apeirophobia.ogg;
#BANNER:Apeirophobia-bn.png;
#BACKGROUND:Apeirophobia-BG.png;
#CDTITLE:./CDTITLES/Dance Dance Revolution SPACE.PNG;
#SAMPLESTART:57.834;
#SAMPLELENGTH:15;
#OFFSET:-0.271;
#BPMS:0=197;

//--------------- dance-single - B. M'Rey ----------------
#NOTEDATA:;
#STEPSTYPE:dance-single;
#DESCRIPTION:B. M'Rey;
#CREDIT:B. M'Rey;
#DIFFICULTY:Beginner;
#METER:11;
#RADARVALUES:0,0,0,0,0;
#NOTES:
0000
0000
0000
0000
,
0000
0000
0000
0000
,
0000
0000
0000
0000
,
0000
0001
1000
0001
,
1000
0001
0100
0010
,
0100
0010
0100
0001
,
0010
0100
0000
0000
,
0000
0001
0100
0001
,
0100
0001
1000
0010
,
1000
0010
1000
0001
,
0100
0001
0000
0000
,
0000
0001
1000
0001
,
0010
0001
0010
0100
,
0010
0100
1000
0001
,
1000
0010
0000
0000
,
0000
0001
1000
0100
,
1000
0100
1000
0001
,
0010
0001
0010
0001
,
1000
0010
0100
0010
,
0100
0000
0010
1000
0100
0000
0001
1000
,
0001
0000
0001
0010
0100
0000
0001
0100
,
0010
0000
0100
0010
0001
0000
0010
0100
,
0001
0000
0100
0010
0001
0000
0010
0000
,
0100
0000
0001
0100
0010
0000
0010
1000
,
0001
0000
0100
0010
0100
0000
0001
1000
,
0001
0000
0100
1000
0001
0000
0001
1000
,
0001
0000
0010
0100
0001
0000
0100
1000
,
0010
0100
1000
0001
,
0010
1000
0100
0001
,
0010
0100
1000
0001
,
0010
0020
0000
0200
,
0000
0331
0000
1000
,
0000
0010
0000
0100
,
0000
0010
0000
1000
,
0000
0001
0000
0010
,
0000
0100
0000
0010
,
0000
1000
0000
0001
,
0000
0010
0000
0001
,
0000
0100
0000
0010
,
0000
0010
1000
0100
,
0010
0100
0010
0001
,
0100
0001
0010
0001
,
1000
0001
0000
0000
,
0000
0100
0010
0001
,
1000
0010
1000
0100
,
0010
0001
0100
0010
,
0100
0001
0010
0001
,
1001
0000
0001
1000
0001
0000
0100
0010
,
0001
0000
0100
1000
0100
0000
0001
0100
,
0010
0000
0010
1000
0001
0000
0001
1000
,
0010
0100
0010
0100
,
0001
0000
0100
0010
0001
0000
0010
0100
,
0001
0000
0100
0010
0100
0000
0001
1000
,
0010
0000
0001
0100
0001
0000
0001
1000
,
0100
0010
0100
0001
,
0010
0000
0100
1000
0010
0000
0010
0100
,
0001
0000
0100
1000
0100
0000
0100
0010
,
0001
0000
0001
1000
0001
0000
0010
0100
,
0010
0001
0010
0100
,
0010
0000
0001
0010
0100
0000
0010
1000
,
0010
0000
0001
0010
0100
0000
0100
1000
,
0010
0000
0001
0010
0100
0000
0010
0100
,
0001
0000
0001
0100
0010
1000
0010
1000
,
0001
0010
1000
0000
0000
0000
0000
0000
,
0000
0010
0000
0000
,
0000
0100
0000
0000
,
0000
0001
0000
0000
,
0000
1000
0001
0000
,
0000
0010
0100
0000
,
0000
1000
0100
0000
,
0000
0001
0010
0000
,
0000
0010
0100
0001
,
0010
0001
0100
0010
,
1000
0100
0010
0001
,
0100
0010
1000
0001
,
0010
0100
1000
0010
,
0100
0001
0010
0100
,
1000
0010
0100
0001
,
1000
0001
1000
0010
,
1000
0100
1000
0100
,
0010
0100
1000
0001
,
1000
0010
0100
0001
,
0010
0100
1000
0010
,
0100
0010
1000
0001
,
0100
0001
0010
0001
,
0100
0010
0100
0001
,
0010
0100
1000
0010
,
0100
0000
0001
0000
0010
0100
0010
0000
,
0100
0010
0100
0000
0010
0100
0001
0000
,
0100
1000
0010
0000
0001
0010
0001
0000
,
0010
0100
0001
0000
0001
0010
0100
0000
,
0001
0100
0010
0000
0001
0010
0100
0000
,
0001
0100
0010
0000
0100
0010
0001
0000
,
0010
0100
0001
0000
0001
0010
0100
0000
,
0010
0100
0001
0000
0100
0000
0010
0000
,
0001
0000
0010
0000
0001
0010
0100
0000
,
0001
1000
0100
0000
0001
1000
0100
0000
,
0010
0100
0010
0000
0100
1000
0010
0000
,
0001
0010
0100
0000
0100
0000
0010
0000
,
0001
0000
0100
0000
0100
0010
0001
0000
,
0010
1000
0001
0000
0010
1000
0001
0000
,
0100
0010
0001
0000
0010
1000
0100
0000
,
0010
0100
0010
0000
0100
1000
0010
0000
,
0001
0010
0001
0000
1000
0000
0100
0000
,
1000
0010
1000
0100
,
0010
0100
0010
0001
,
0100
0010
0100
0001
,
0100
0010
1000
0100
,
0010
0100
1000
0100
,
0010
0001
0010
0001
,
0010
0100
1000
0001
,
0100
0001
0000
0000
;

//--------------- dance-single - B. M'Rey ----------------
#NOTEDATA:;
#STEPSTYPE:dance-single;
#DESCRIPTION:B. M'Rey;
#CREDIT:B. M'Rey;
#DIFFICULTY:Easy;
#METER:14;
#RADARVALUES:0,0,0,0,0;
#NOTES:
0000
0000
0000
0000
,
0000
0000
0000
0000
,
0000
0000
0000
0000
,
0000
0000
0001
1000
0100
0010
0100
1000
,
0001
1000
0100
1000
0100
0010
0100
1000
,
0010
1000
0100
0010
0100
1000
0100
1000
,
0001
0022
0000
0000
,
0000
0033
0100
0010
0100
1000
0001
0100
,
0010
1000
0010
1000
0100
0010
0100
0010
,
0001
0100
0010
0100
0010
1000
0100
1000
,
0010
1000
0202
0000
0000
0000
0000
0000
,
0000
0313
0100
0001
,
1000
0010
1000
0010
,
1000
0100
0001
0000
0100
0000
0001
0000
,
1000
2020
0000
0000
,
0000
0000
3130
0010
0001
0010
0100
1000
,
0010
1000
0100
0010
0100
1000
0010
1000
,
0010
1000
0001
0100
0010
1000
0100
1000
,
0010
1000
0010
0100
0010
1000
0100
1000
,
0010
0100
0001
0010
0100
0010
0001
0100
,
0001
0010
0100
0010
0100
1000
0010
1000
,
0100
0010
0100
1000
0010
1000
0010
0100
,
0010
1000
0001
0010
0100
1000
0001
0010
,
0100
1000
0010
0100
0001
1000
0001
0010
,
0100
1000
0010
1000
0001
0100
0010
1000
,
0001
0100
0010
1000
0100
1000
0001
0010
,
0100
1000
0010
0100
0001
0010
0100
1000
,
0001
0100
0010
0100
0001
0100
0010
1000
,
0100
1000
0001
0010
0100
1000
0001
0100
,
0001
1000
0010
1000
0010
0100
0010
0100
,
0001
0010
0001
0010
0001
0100
0010
0100
,
0001
0100
1000
0000
0010
0000
0001
0000
,
0010
0001
1000
0001
,
1000
0010
1000
0010
,
0100
0010
0100
0001
,
0100
0001
1000
0001
,
1000
0100
1000
0100
,
0010
0100
0010
0001
,
0010
0001
1000
0001
,
1000
0000
0100
1000
0001
0100
0010
1000
,
0010
1000
0001
0010
0100
1000
0100
1000
,
0001
0010
0100
0010
0001
1000
0001
0100
,
0001
0010
0100
0000
0010
0000
0001
0000
,
0100
0000
0001
0100
0001
0010
0001
1000
,
0010
0100
0001
1000
0100
1000
0001
0010
,
0100
0010
0001
1000
0010
1000
0001
0100
,
0010
0100
0001
0100
0010
1000
0001
0010
,
0100
0000
0100
0010
0001
1000
0100
0010
,
0100
1000
0010
1000
0001
0010
0100
1000
,
0010
1000
0001
0100
0010
0100
0010
0100
,
0001
0010
0100
1000
0010
0100
0010
0100
,
0001
0100
0001
0010
0100
1000
0001
0100
,
0010
0100
0001
1000
0100
1000
0100
0010
,
0001
1000
0100
1000
0001
0010
0001
0010
,
0001
0100
0010
0100
0001
0010
0100
1000
,
0001
0010
0001
0100
0010
0100
0001
0010
,
0100
1000
0100
1000
0010
1000
0001
0010
,
0001
0100
0010
0100
0001
0010
0100
1000
,
0001
0010
0001
1000
0010
1000
0010
0100
,
0001
1000
0100
1000
0010
0100
0001
1000
,
0001
0010
0001
0010
0100
0010
0100
1000
,
0001
1000
0100
1000
0010
0100
0001
0100
,
0001
0100
0010
1000
0001
0010
0100
1000
,
0100
1000
0100
0000
1000
0000
0001
0000
,
0100
0001
1000
0010
,
1000
0010
1000
0001
,
0100
0001
0100
0001
,
1000
0100
0010
0100
,
1000
0100
0010
0001
,
0010
0100
0010
0100
,
1000
0010
1000
0001
,
1000
0110
1001
0110
,
0001
1100
0011
0011
,
0001
1001
1010
0110
,
0001
1100
1001
1010
,
0100
1001
0110
0011
,
0100
0110
1010
0110
,
0001
1010
1010
1100
,
0010
1010
1100
0011
,
0100
0000
0001
1000
0001
0000
0001
1000
,
0100
0000
0100
1000
0100
0000
0100
0010
,
0001
0000
0001
0010
0001
0000
0001
0010
,
0100
0000
0100
1000
0100
0000
0100
1000
,
0100
0000
0100
0010
0001
0000
0100
0010
,
0100
0000
0100
0010
0100
0000
0100
1000
,
0100
0000
0001
1000
0010
0000
0010
0100
,
0010
0000
0010
0100
0001
0000
0001
0100
,
0001
0000
0001
1000
0001
1000
0001
0100
,
0010
0100
0010
0100
0001
1000
0001
1000
,
0001
0100
0010
0100
0001
0010
0001
1000
,
0001
0010
0100
0010
0100
0010
0001
1000
,
0001
0010
0001
0100
0010
1000
0010
1000
,
0010
0100
0001
0100
0010
0100
0010
1000
,
0010
1000
0001
0010
0001
0010
0001
1000
,
0010
1000
0010
1000
0100
0010
0100
0010
,
0100
1000
0001
1000
0100
1000
0100
0010
,
0100
0010
0001
0010
0001
1000
0001
1000
,
0100
1000
0100
0010
0100
0010
0001
1000
,
0001
1000
0001
0010
0100
0010
0100
0010
,
0001
1000
0001
1000
0001
0010
0100
0010
,
0100
0010
0001
1000
0001
0100
0001
0100
,
0010
0100
0010
1000
0010
1000
0001
1000
,
0001
0010
0001
0010
0100
1000
0100
1000
,
0100
0010
0001
0000
0010
0000
0100
0000
,
1000
0000
0100
0000
0010
0000
0001
1000
,
0100
1000
0001
0000
0010
0000
0001
0000
,
1000
0000
0001
1000
0001
1000
0001
0010
,
0100
0010
0100
0010
0100
0000
0010
0000
,
0100
0010
1000
0100
,
0001
1000
0001
1000
0001
0000
0100
0000
,
1000
0000
0010
1000
0010
1000
0010
0100
,
0001
0100
0001
0000
0000
0000
0000
0000
;

//--------------- dance-single - B. M'Rey ----------------
#NOTEDATA:;
#STEPSTYPE:dance-single;
#DESCRIPTION:B. M'Rey;
#CREDIT:B. M'Rey;
#DIFFICULTY:Medium;
#METER:18;
#RADARVALUES:0,0,0,0,0;
#NOTES:
0000
0000
0000
0000
,
0000
0000
0000
0000
,
0000
0000
0000
0000
,
0000
0000
0000
0000
1000
0010
1000
0100
1000
0000
0000
0000
1000
0100
1000
0001
,
1000
0000
0000
0000
1000
0010
0100
0010
1000
0000
0000
0000
1000
0010
0100
0010
,
1000
0000
0000
0000
1000
0010
0100
0010
1000
0000
0000
0000
1000
0010
0100
0010
,
1000
2002
0000
0000
,
0000
0000
0000
0000
3103
1000
0010
1000
0100
0000
0000
0000
0100
1000
0001
1000
,
0010
0000
0000
0000
0010
0100
0010
1000
0010
0000
0000
0000
0010
0100
0010
1000
,
0001
0000
0000
0000
0001
0100
0010
0100
0001
0000
0000
0000
0001
0100
0010
0100
,
0001
0022
0000
0000
,
0000
0000
1033
0100
0010
1000
0010
1000
,
0001
1000
0001
0100
0001
1000
0100
1000
,
0110
0110
0110
0010
0001
0100
0001
0100
,
0010
0100
0010
2200
0000
0000
0000
0000
,
0000
3300
0010
0100
0001
0100
0001
1000
,
0001
1000
0100
0010
0100
0010
0100
1000
,
0010
0100
0010
0100
0010
1000
0001
0010
,
0001
0010
0001
1000
0100
0010
0100
0010
,
0100
1000
0001
1000
0001
1000
0100
0010
,
0001
0010
0001
0010
0100
1000
0100
1000
,
0100
0010
0001
0010
0001
0010
0100
1000
,
0100
0000
1000
0000
0001
0000
0100
0000
0010
1000
0100
0000
0010
0000
0100
0010
,
0001
0000
0010
0000
0001
1000
0010
0000
0001
0000
1000
0000
0100
0001
1000
0000
,
0100
0000
1000
0000
0001
1000
0100
0000
0001
0000
0100
0000
0010
0001
0100
0000
,
0010
0000
1000
0000
0001
0010
1000
0000
0001
0000
1000
0000
0010
1000
0100
0000
,
0001
0000
0100
0000
0001
1000
0100
0000
0010
0000
1000
0000
0001
0010
0100
0000
,
0001
0000
0100
0000
0001
0100
1000
0000
0100
0000
0010
0000
0100
0000
1000
0000
,
0100
1000
0001
1000
0001
0100
0001
0100
,
0010
0100
0001
0000
1000
0000
0001
0000
,
0100
0000
0000
0000
0002
0000
0000
0000
0100
0000
0013
0000
0001
1000
0001
1000
,
0001
1000
0001
1000
0010
0000
0000
0000
0100
0000
0000
0000
0010
0000
0000
0000
,
0100
0001
1000
0010
,
1000
0100
1000
0001
,
0100
0010
1000
0100
,
0010
0001
0100
0010
,
1000
0100
1000
0010
,
0100
0010
1000
0100
,
0010
0001
0100
0010
,
1000
0000
0000
0000
0010
1000
0010
1000
0100
0000
0000
0000
0100
1000
0001
1000
,
0001
0000
0000
0000
0001
1000
0001
1000
0001
0000
0000
0000
0001
1000
0001
1000
,
0010
0000
0000
0000
0010
0100
0010
0100
0010
0000
0000
0000
0010
0100
0010
0100
,
0001
0000
0001
1000
0001
1000
0100
1000
,
0100
0000
0010
0000
0001
1000
0001
1000
0001
0000
0000
0000
0001
0010
0001
0010
,
0001
0000
0000
0000
0010
0100
0001
0100
0001
0000
0000
0000
0001
0100
0001
0100
,
0001
0000
0000
0000
0001
0010
0100
0010
0100
0000
0000
0000
0100
0010
0100
0010
,
0100
0000
0000
0000
0100
1000
0001
1000
0001
0000
0000
0000
0001
1000
0001
1000
,
0100
0000
0001
0010
0100
0010
0100
0010
,
0001
0000
1000
0000
0001
0000
1000
0000
0010
0000
1000
0000
1000
0001
0100
0010
,
1000
0001
0100
0010
0001
0000
0100
0000
0001
0000
0010
0000
0001
0000
0010
0000
,
0100
0000
0010
0000
0100
0000
1000
0001
0100
0010
1000
0100
0010
0001
0100
0010
,
1000
0100
0010
0001
1000
0000
0010
0000
0001
0000
0100
0000
0010
0000
0100
0000
,
0010
0100
0001
1000
0001
1000
0001
0010
,
0100
0010
0100
0010
0001
1000
0001
1000
,
0010
0000
1000
0000
1000
0100
0010
0001
1000
0100
0010
0001
1000
0010
0100
0001
,
0010
0100
1000
0000
1000
0000
0100
0000
0010
0000
0100
0000
0010
0000
0100
0000
,
1000
0000
0001
0000
1000
0000
0001
0000
0100
0000
0001
0000
0001
1000
0010
0100
,
0001
1000
0010
0100
1000
0000
0010
0000
1000
0000
0100
0000
1000
0000
0100
0000
,
0010
0000
0100
0000
0010
0000
0001
1000
0010
0100
0001
0010
0100
1000
0010
0100
,
0001
0010
0100
1000
0001
0000
0100
0000
1000
0000
0010
0000
0100
0000
0010
0000
,
0100
0010
1000
0001
1000
0001
1000
0100
,
0010
0100
0010
0100
1000
0001
1000
0001
,
0100
0000
0001
0000
0001
0010
0100
1000
0001
0010
0100
1000
0001
0100
0010
1000
,
0100
0010
0001
0000
1000
0000
0100
0000
0001
0000
0010
0000
0001
0000
1000
0000
,
0001
1000
0100
1000
0100
0010
0001
1000
,
0001
1000
0001
0010
0100
0010
0100
0010
,
0001
0100
0001
0010
0001
0100
0010
1000
,
0100
1000
0100
1000
0010
0100
0010
0100
,
0010
1000
0001
0100
0001
0100
0010
0100
,
0001
0010
0001
0010
0001
1000
0100
1000
,
0001
1000
0100
0010
0100
0010
0100
1000
,
0001
1000
0011
0000
1001
0000
1100
0000
,
0001
1000
0001
0000
0101
0000
1010
0000
,
0010
1000
0010
0000
1001
0000
1001
0000
,
0001
0010
0100
0000
0110
0000
1001
0000
,
0001
0010
0001
0000
0110
0000
1100
0000
,
0100
1000
0001
0000
0110
0000
0011
0000
,
0001
0010
0100
0000
1001
0000
1001
0000
,
0010
0100
0010
0000
1001
0000
1010
0000
,
0100
0010
0100
0010
0100
1000
0001
0100
,
0001
0100
0001
1000
0100
0010
0100
0010
,
0100
1000
0001
1000
0010
1000
0100
0010
,
0100
0010
0001
0010
0001
1000
0001
1000
,
0010
0000
1000
0000
0001
1000
0001
1000
0010
1000
0010
1000
0010
1000
0010
1000
,
0010
1000
0010
1000
0010
1000
0010
1000
0010
1000
0010
1000
0001
1000
0001
1000
,
0001
1000
0001
1000
0001
0010
0001
0010
0001
0010
0001
0010
0001
0010
0001
1000
,
0010
1000
0001
1000
0001
0010
0001
0010
0001
0010
0001
0010
0001
0010
0001
0010
,
0001
0010
0001
1010
0001
0000
0010
0000
0100
0000
0010
0000
0100
0000
0010
0000
,
0001
0000
1000
0000
0001
0000
1000
0000
0010
0000
1000
0000
1000
0001
0100
0010
,
1000
0001
0100
0010
0001
0000
0100
0000
0001
0000
0010
0000
0001
0000
0010
0000
,
0100
0000
0010
0000
0100
0000
0001
0000
1000
0000
0010
0000
1000
0001
0100
0010
,
1000
0100
0010
0001
0100
0000
1000
0000
0010
0000
1000
0000
0010
0000
0100
0000
,
0010
0000
0100
0000
0001
0000
1000
0000
0001
0000
1000
0000
0001
1000
0001
1000
,
0001
1000
0001
1000
0100
0000
0010
0000
0001
0000
1000
0000
0001
0000
1000
0000
,
0010
0000
1000
0000
1000
0100
0010
0001
1000
0100
0010
0001
1000
0010
0100
0001
,
0010
0100
1000
0000
0001
0000
0100
0000
0010
0000
0100
0000
0010
0000
0100
0000
,
1000
0000
0001
0000
1000
0000
0001
0000
0100
0000
0001
0000
0001
1000
0010
0100
,
0001
1000
0010
0100
1000
0000
0010
0000
1000
0000
0100
0000
1000
0000
0100
0000
,
0010
0000
0100
0000
0010
0000
0001
0000
0010
0100
0001
0010
0100
1000
0010
0100
,
0001
0010
0100
1000
0001
0000
0100
0000
1000
0000
0010
0000
0100
0000
0010
0000
,
0100
0000
0010
0000
1000
0000
0001
0000
1000
0000
0001
0000
0001
1000
0100
1000
,
0100
1000
0100
1000
0100
0000
0100
0000
1000
0000
0001
0000
1000
0000
0001
0000
,
0100
0000
0001
0000
0001
0010
0100
1000
0001
0010
0100
1000
0001
0100
0010
1000
,
0100
0010
0001
0000
1001
0000
0100
0000
0010
0000
0100
0000
0010
0000
0100
0000
,
0001
1000
0010
1000
0010
1000
0100
0010
,
0100
1000
0100
0010
0001
0010
0001
0010
,
0100
0000
1000
0000
0001
1000
0010
0100
0010
0100
0010
0100
0010
1000
0010
1000
,
0010
1000
0010
1000
0010
1000
0010
0000
0100
0000
1000
0000
0100
0000
0010
0000
,
0100
0010
0001
0010
0001
1000
0001
1000
,
0100
1000
0001
0010
0001
0010
0100
0010
,
0100
0000
1000
0000
0001
0010
0001
0010
0001
0010
0001
0010
0001
1000
0100
1000
,
0010
1000
0001
1000
0002
0000
0000
0000
0000
0000
0000
0000
0000
0000
0000
0000
,
0000
0000
0000
0000
,
0003
0000
0000
0000
;

//--------------- dance-single - B. M'Rey ----------------
#NOTEDATA:;
#STEPSTYPE:dance-single;
#DESCRIPTION:B. M'Rey;
#CREDIT:B. M'Rey;
#DIFFICULTY:Hard;
#METER:19;
#RADARVALUES:0,0,0,0,0;
#NOTES:
0000
0000
0000
0000
,
0000
0000
0000
0000
,
0000
0000
0000
0000
,
0000
0000
0000
0000
0001
0010
0001
0010
0001
0100
0010
1000
0010
1000
0010
0100
,
0001
0100
0001
0100
0010
1000
0010
1000
0010
0100
0001
0100
0010
0100
0001
1000
,
0001
1000
0001
0100
0010
0100
0010
0100
0001
0010
0001
0100
0001
0100
0010
1000
,
0001
1000
0001
0010
0200
0000
0000
0000
0000
0000
0000
0000
0000
0000
0000
0000
,
0000
0000
0000
0000
0301
1000
0001
1000
0001
0010
0100
0010
0100
0010
0001
1000
,
0001
1000
0001
0010
0100
0010
0100
0010
0001
1000
0001
1000
0100
1000
0100
0010
,
0100
0010
0001
0010
0001
1000
0001
1000
0010
1000
0010
0100
0010
0100
0001
0100
,
0001
1000
0001
1000
0002
0000
0000
0000
0000
0000
0000
0000
0000
0000
0000
0000
,
0000
0000
0000
0000
0013
0000
0010
0001
0010
0000
1000
0100
1000
0000
0010
0000
,
0001
0000
0010
0000
1000
0000
0100
0001
0010
0000
0100
0001
1000
0000
0010
0100
,
1000
0000
0010
0001
0010
0000
1000
0001
0010
0000
0010
0001
0010
0000
1000
0000
,
0001
1000
0020
0000
0000
0000
0000
0000
,
0000
0000
0000
0000
0130
0000
0010
0001
0010
0000
1000
0000
0100
0000
0010
0001
,
0010
0000
0010
0000
1000
0000
0010
0100
0010
0000
0001
0000
0100
0000
0100
0010
,
0100
0010
1000
0010
1000
0000
1000
0001
1000
0000
0001
0000
1000
0000
0001
0010
,
1000
0000
0100
0000
0010
0000
0100
0001
0010
0000
0001
0000
0010
0000
0001
1000
,
0001
1000
0001
1000
0001
0000
0010
0100
1000
0000
1000
0010
1000
0000
0010
0100
,
0010
0000
1000
0010
1000
0000
0010
0001
1000
0000
1000
0001
1000
0000
0100
0010
,
0100
0000
0010
0000
0001
0000
0100
0001
1000
0000
0010
0100
1000
0000
0010
0001
,
1000
0000
0010
0100
1000
0000
1000
0100
1000
0000
0010
0000
0100
0000
0010
0100
,
1000
0000
0100
0001
1000
0000
0010
0100
1000
0000
0100
0010
1000
0000
0010
0100
,
0010
0000
0100
0010
1000
0000
0100
0001
0010
0000
1000
0010
0100
0000
1000
0100
,
0010
0000
0100
0010
1000
0000
0100
0001
0010
0000
0010
0001
1000
0000
0100
0001
,
0010
0000
0100
0010
1000
0000
1000
0001
1000
0000
0100
0001
0010
0000
0010
0100
,
1000
0000
1000
0010
0100
0000
0010
0000
1000
0000
0100
0000
1000
0000
0001
0000
,
1000
0001
0100
0001
0100
0010
0100
0010
,
1000
0000
0010
0000
1000
0010
0100
0001
0100
0001
0100
0010
1000
0010
1000
0010
,
0100
0001
0100
0001
0100
0010
1000
0010
1000
0010
0100
0001
0100
0001
1000
0001
,
1000
0010
1000
0010
0100
0000
0000
0000
0010
0000
0000
0000
0100
0000
0000
0000
,
0010
1000
0100
0010
,
0001
1000
0010
1000
,
0001
0100
0001
0010
,
0001
1000
0100
0010
,
0100
0010
0100
1000
,
0010
0100
0010
1000
,
0100
1000
0010
0100
,
0001
0000
0000
0000
1000
0001
0010
0100
1000
0001
0010
0100
1000
0001
0010
0100
,
1000
0001
0010
0100
1000
0010
0100
0001
1000
0010
0100
0001
1000
0010
0100
0001
,
1000
0100
0010
0001
1000
0010
0100
0001
1000
0010
0100
0001
1000
0010
0100
0001
,
1000
0010
0100
0001
1000
0000
0100
0000
0010
0000
0100
0000
0010
0000
1000
0000
,
0010
0000
1000
0000
1000
0001
0010
0100
1000
0001
0010
0100
1000
0010
0100
0001
,
0010
0100
1000
0001
0100
0010
1000
0100
0010
0001
1000
0010
0100
0001
1000
0010
,
0100
0001
1000
0010
0100
0001
0010
0100
1000
0010
0100
0001
1000
0100
0010
0001
,
1000
0010
0100
0001
1000
0100
0010
0001
0100
0010
1000
0001
0100
0010
1000
0100
,
0001
0000
0000
0000
1001
0000
0001
1000
0001
0000
0010
0100
0010
0000
0010
1000
,
0001
0000
0001
0010
0001
0000
0100
1000
0100
0000
0100
0010
0001
0000
0001
0010
,
0100
0000
0100
1000
0100
0000
0001
1000
0001
0000
0001
0100
0010
0000
0010
0100
,
0001
0000
0100
1000
0100
0000
0001
0010
0001
0010
0100
0010
0001
0100
0001
0100
,
0001
1000
0100
1000
0100
0000
0010
0100
0010
0000
0010
1000
0001
0000
0001
1000
,
0001
0000
0010
1000
0010
0000
0010
0100
0001
0000
0010
1000
0010
0000
0010
0100
,
0001
0000
0010
0100
0010
0000
0010
1000
0001
0000
0001
0100
0001
0000
0010
0100
,
0010
0000
0010
1000
0001
0000
0001
0100
0001
0100
0010
0100
0010
1000
0010
1000
,
0100
1000
0100
0010
0100
0000
1000
0001
0100
0000
1000
0100
0010
0000
1000
0001
,
0100
0000
1000
0100
0010
0000
1000
0010
0100
0000
1000
0100
1000
0000
0100
0001
,
0010
0000
0010
0001
0100
0000
0010
0100
0010
0000
0100
0010
0100
0000
1000
0100
,
0010
0000
0010
0001
0100
0000
1000
0010
0100
0000
0010
0001
0100
0000
1000
0100
,
1000
0000
0100
0001
0010
0000
1000
0001
1000
0000
1000
0100
0010
0000
0010
0001
,
1000
0000
1000
0100
0010
0000
0010
0100
1000
0000
0100
0001
0010
0000
0100
0010
,
1000
0000
0010
0100
1000
0000
1000
0010
0100
0000
1000
0001
0010
0000
1000
0010
,
0100
0000
0010
0100
0010
0001
0100
0010
1000
0001
0010
0001
1000
0100
0010
0001
,
1000
0010
1000
0100
0010
0000
0100
0000
0010
0000
0001
0000
0010
0000
0100
0000
,
1000
0100
1000
0010
1000
0100
0010
0001
,
0100
0001
0010
0001
1000
0100
0010
0100
,
0010
0001
0100
0010
1000
0100
0010
0100
,
0010
0001
0100
0010
1000
0100
0010
0100
,
0010
0100
1000
0001
1000
0010
0100
0001
,
0100
0001
0010
0100
1000
0010
0100
0001
,
0010
0001
0100
0001
0100
0010
1000
0001
,
0010
0100
1001
0000
1001
0000
0110
0000
,
0110
1010
1001
0000
0110
0000
0110
0000
,
1100
0110
0110
0000
1001
0000
0110
0000
,
1001
0011
0110
0000
1010
0000
1001
0000
,
0110
1100
1010
0000
0101
0000
0110
0000
,
1001
0011
0110
0000
1001
0000
0110
0000
,
1100
1100
1010
0000
1001
0000
0110
0000
,
0110
1100
1010
0000
0110
0000
1100
0000
,
0011
0000
0101
0000
1000
0001
1000
0001
1000
0000
1000
0000
1000
0001
1000
0001
,
1000
0000
1000
0000
1000
0010
1000
0001
1000
0000
1000
0000
1000
0001
1000
0001
,
0010
0000
0010
0000
0010
0100
0010
0001
0010
0000
0010
0000
0010
0100
0010
0001
,
0010
0000
0010
0000
0010
0100
0010
0001
0010
0000
0010
0000
0010
0100
0010
0001
,
1000
0000
1000
0000
1000
0001
1000
0001
1000
0010
1000
0010
1000
0001
0010
0001
,
0010
0001
1000
0001
1000
0001
0010
0001
0010
0001
1000
0001
0010
0001
0100
0001
,
0100
0001
1000
0001
1000
0001
0100
0001
0100
0001
1000
0001
1000
0010
1000
0001
,
0100
0001
1000
0001
0100
0001
1000
0001
1000
0001
0010
0001
0010
0001
0100
0001
,
1000
0001
1000
0001
0010
0000
0010
0100
1000
0000
0100
0010
0100
0000
1000
0100
,
0010
0000
1000
0010
0100
0000
0010
0100
0010
0000
0010
0100
1000
0000
0100
0001
,
1000
0000
0010
0100
0010
0000
1000
0100
1000
0000
0100
0010
0100
0000
1000
0100
,
1000
0000
0100
0010
1000
0000
0100
0010
1000
0000
0100
0010
1000
0000
1000
0010
,
0100
0000
0100
0001
0100
0000
0010
0001
0100
0000
1000
0100
0010
0000
0100
0001
,
0010
0000
0100
0010
0100
0000
0100
0001
0100
0000
0100
0010
0100
0000
0010
0100
,
0010
0000
0100
0001
0100
0000
0010
0100
0010
0000
0010
0001
0100
0000
1000
0010
,
0100
0000
1000
0100
1000
0000
0100
0010
1000
0000
1000
0010
0100
0000
0010
0001
,
0100
0000
1000
0001
0010
0000
1000
0100
0010
0000
0010
0001
0010
0000
0010
0100
,
1000
0000
1000
0010
0100
0000
1000
0010
1000
0000
1000
0100
0010
0000
0100
0010
,
1000
0000
1000
0100
0010
0000
0100
0010
1000
0000
1000
0010
0100
0000
0100
0001
,
1000
0000
0100
0010
1000
0000
1000
0100
0010
0000
0010
0001
0100
0000
1000
0100
,
0010
0000
1000
0100
1000
0000
0100
0010
1000
0000
0010
0001
0100
0000
1000
0100
,
1000
0000
0010
0100
0010
0000
0100
0001
0010
0000
1000
0001
1000
0000
1000
0100
,
0010
0000
1000
0010
0100
0000
0010
0001
1000
0000
0100
0001
0010
0000
0010
0100
,
1000
0000
0100
0001
0010
0000
1000
0010
1000
0000
0010
0001
0100
0000
1000
0100
,
0010
0000
0100
0010
1000
0000
0100
0001
0010
0000
1000
0000
0010
0000
1000
0010
,
0001
0000
0100
0000
0001
1000
0100
0000
0001
0000
0010
0000
0100
0001
1000
0000
,
0100
0000
1000
0000
0100
0001
0010
0000
0001
0000
0100
0000
0010
1000
0100
0000
,
0010
0000
1000
0000
0010
0001
0010
0100
0010
0100
0010
0001
1000
0001
1000
0001
,
0100
0001
0100
0001
0010
0000
1000
0100
0001
0000
0100
0000
0001
1000
0010
0000
,
0001
0000
0010
0000
0100
1000
0010
0000
0100
0000
1000
0000
0100
0001
0010
0000
,
0001
0000
0010
0000
0001
1000
0010
0000
0100
0000
1000
0000
0100
0001
1000
0000
,
0100
0000
0010
0000
1000
0001
1000
0001
1000
0010
1000
0010
1000
0001
1000
0100
,
1000
0100
1000
0000
2002
0000
0000
0000
0000
0000
0000
0000
0000
0000
0000
0000
,
0000
0000
0000
0000
,
3003
0000
0000
0000
;

//--------------- dance-single - B. M'Rey ----------------
#NOTEDATA:;
#STEPSTYPE:dance-single;
#DESCRIPTION:B. M'Rey;
#CREDIT:B. M'Rey;
#DIFFICULTY:Challenge;
#METER:20;
#RADARVALUES:0,0,0,0,0;
#NOTES:
0000
0000
0000
0000
,
0000
0000
0000
0000
,
0000
0000
0000
0000
,
0000
0000
0000
0000
0001
1000
0001
0010
0001
0010
0100
0010
0100
1000
0100
1000
,
0001
1000
0001
0100
0001
0100
0010
1000
0010
1000
0100
1000
0100
0010
0100
0010
,
0001
0010
0001
1000
0010
1000
0001
1000
0001
0100
0001
0100
0010
0100
0001
0010
,
0100
0010
0100
0010
2000
0000
0000
0000
0000
0000
0000
0000
0000
0000
0000
0000
,
0000
0000
0000
0000
3001
0100
0010
0100
0010
0100
0001
0010
0001
0010
0100
0010
,
0100
1000
0100
1000
0010
1000
0010
0100
0001
0100
0010
0100
0010
1000
0010
1000
,
0001
0100
0001
0100
0010
0100
0010
1000
0010
1000
0001
1000
0100
0010
0100
0010
,
0100
1000
0001
0010
0200
0000
0000
0000
0000
0000
0000
0000
0000
0000
0000
0000
,
0000
0000
0000
0000
0310
0000
0010
1000
0010
0000
0001
0100
0001
0000
0010
1000
,
0010
0000
0100
1000
0001
0000
0001
0100
0001
0000
0010
1000
0010
1000
0100
0010
,
0100
0000
0100
1000
0010
0000
0010
1000
0001
0000
0001
1000
0001
0000
0100
0010
,
0100
0000
0001
1000
0020
0000
0200
0000
0000
0000
0000
0000
0000
0000
0000
0000
,
0000
0000
0000
0000
1330
0000
0010
1000
0010
0000
0001
0100
0001
0000
0010
1000
,
0001
0000
0100
0010
0100
0000
0100
1000
0010
0000
0001
0010
0001
0000
0100
0010
,
0001
1000
0100
0010
0100
0000
0010
1000
0010
0000
0001
0100
0010
0000
0001
0010
,
0001
0000
0100
1000
0010
0000
0010
0100
0001
0000
0001
0100
0010
1000
0010
0100
,
0010
1000
0001
0010
0100
0000
0100
0010
0100
0000
0001
0100
0010
0000
0010
0100
,
0001
0000
0001
0010
0100
0000
0001
0010
0100
0000
0010
1000
0010
0000
0001
0100
,
0001
1000
0100
0010
0100
0000
0100
1000
0010
0000
0010
1000
0010
0000
0100
1000
,
0100
0000
0001
1000
0100
0000
0001
1000
0001
0000
0101
0000
0110
0000
0001
0010
,
0001
0000
1000
0000
0010
0000
0001
1000
0001
0100
0010
0100
0010
0000
0001
1000
,
0001
0100
0001
0100
0010
0000
0010
1000
0010
1000
0001
1000
0100
0000
0100
0010
,
0100
1000
0001
1000
0100
0000
0100
0010
0100
0010
0001
1000
0001
0000
0001
0100
,
0010
0100
0010
0100
0001
0000
0001
1000
0001
0010
0100
0010
0100
0000
0001
1000
,
0001
1000
0001
0000
0100
0010
0100
1000
0100
0010
0001
0010
0001
0010
0100
1000
,
0010
1000
0001
1000
0010
0100
0001
0100
0001
0100
0010
1000
0010
1000
0010
0100
,
0001
0100
0001
0100
0010
1000
0010
1000
0010
0100
0001
0100
0001
0100
0010
1000
,
0010
1000
0010
0100
0001
0000
1000
0000
0001
0000
0010
0000
0001
0100
0010
0100
,
0001
0100
0010
1000
0001
0000
1000
0000
0001
0000
1000
0000
0001
0000
0100
0000
,
0010
0100
0010
0100
0001
1000
0100
1000
,
0100
0010
0100
0010
0001
0010
0001
0100
,
0001
0100
0010
0100
0010
1000
0010
1000
,
0001
1000
0001
0100
0001
0100
0010
1000
,
0010
1000
0010
0100
0001
0100
0001
0100
,
0010
1000
0001
0010
0001
0010
0001
1000
,
0010
1000
0010
1000
0001
0100
0001
0100
,
0001
0000
1000
0000
0001
1000
0001
0010
0001
0010
0100
0010
0001
0100
0001
0100
,
0001
1000
0010
0100
0010
0100
0010
1000
0001
1000
0001
1000
0010
0100
0010
0100
,
0010
1000
0100
1000
0100
1000
0001
0100
0001
0100
0010
0100
0010
1000
0010
1000
,
0100
1000
0001
0010
0200
0000
0000
0000
0001
0000
0000
0000
0010
0000
0000
0000
,
0001
0000
0000
0000
0301
1000
0100
1000
0010
1000
0010
0100
0010
0100
0001
0100
,
0001
1000
0010
1000
0010
1000
0100
0010
0100
0010
0100
1000
0010
1000
0010
1000
,
0001
0010
0100
0010
0100
0010
0001
0100
0001
0100
0001
0010
0100
0010
0100
0010
,
0001
1000
0001
1000
0001
0100
0010
0100
0001
0100
0010
1000
0010
1000
0010
0100
,
0001
0000
0000
0000
0001
1000
0001
1000
0001
1000
0001
1000
0001
1000
0100
1000
,
0100
1000
0100
1000
0100
0010
0100
0010
0100
0010
0100
0010
0100
0010
0001
0010
,
0001
1000
0100
0010
0100
0010
0100
0010
0100
0010
0100
0010
0100
0010
0100
0010
,
0100
0010
0001
1000
0001
1000
0001
1000
0100
1000
0100
1000
0100
1000
0100
1000
,
0001
1000
0001
0100
0001
0100
0001
0100
0001
1000
0010
1000
0010
1000
0010
1000
,
0010
0100
0010
0100
0010
0100
0010
0100
0010
0100
0001
0100
0010
0100
0001
0100
,
0001
1000
0100
1000
0100
0010
0100
0010
0100
0010
0100
0010
0100
0010
0100
0010
,
0100
0010
0001
0010
0001
1000
0001
1000
0010
1000
0010
1000
0010
1000
0100
0010
,
0100
0010
0001
0010
0100
0000
0001
0010
0001
0000
0001
1000
0100
0000
0001
1000
,
0001
0000
0001
0010
0100
0000
0100
1000
0100
0000
0001
1000
0010
0000
0001
0100
,
0001
0000
0010
1000
0010
0000
0010
0100
0001
0000
0001
0100
0010
0000
0010
1000
,
0010
0000
0001
0010
0001
0000
0100
0010
0001
1000
0100
0000
0100
1000
0001
0010
,
0001
0010
0100
0000
0100
1000
0100
0000
0001
0010
0001
0000
0100
1000
0001
0000
,
0001
1000
0100
0000
0100
0010
0100
0000
0001
1000
0100
0000
0100
0010
0100
0000
,
0001
1000
0001
0000
0100
1000
0100
0000
0100
1000
0001
0000
0001
0010
0001
0000
,
0100
1000
0100
0000
0010
0100
0010
0100
0010
1000
0001
1000
0001
0010
0001
0100
,
0010
0100
0010
0100
0001
0000
1000
0000
0001
0000
1000
0001
1000
0000
0100
0000
,
0010
0001
1000
0000
0010
0000
1000
0000
0010
1000
0100
0000
0001
0000
0100
0000
,
0001
0010
0100
0000
0010
0000
1000
0000
0001
0010
1000
0000
0001
0000
1000
0000
,
0010
1000
0100
0000
0010
0000
1000
0000
0010
1000
0100
0000
0001
0000
0100
0000
,
0001
0010
1000
0000
0001
0000
1000
0000
0100
0001
1000
0000
0100
0000
0010
0000
,
0100
1000
0010
0000
0001
0000
0010
0000
0001
1000
0100
0000
0001
0000
0100
0000
,
0010
0001
0100
0000
0001
0000
1000
0000
0001
0010
1000
0000
0001
0000
0100
0000
,
0010
0100
1000
0000
0010
0000
1000
0000
0010
1000
0100
0000
0001
0000
0100
0000
,
0001
0010
1000
0000
1001
0000
0100
0010
0001
0000
0001
0010
0100
0000
0100
0010
,
0100
0000
0010
1000
0001
0000
0100
0010
0001
0000
0001
0010
0100
0000
0010
1000
,
0010
0000
0001
0100
0001
0000
0010
0100
0001
0000
0010
0100
0001
0000
0100
1000
,
0010
0000
0001
0010
0100
0000
0001
0010
0100
0000
0001
0100
0010
0000
0010
0100
,
0001
0000
0100
1000
0010
0000
0010
0100
0001
0000
0100
0010
0100
0000
0100
1000
,
0001
0000
0010
0100
0001
0000
0010
1000
0001
0000
0010
0100
0010
0000
0010
1000
,
0001
0000
0100
0010
0100
0000
0001
1000
0010
0000
0010
0100
0001
0000
0010
0100
,
0001
0000
0001
0100
0010
0000
0010
0100
0001
0000
0100
1000
0001
0000
0001
0010
,
0100
0000
0001
0100
0001
1000
0100
0010
0001
0000
0010
0000
0010
1000
0001
0010
,
0001
0000
0010
0000
0010
1000
0010
0100
0001
0000
0010
0000
0001
0100
0001
0100
,
0010
0000
0100
0000
0100
1000
0001
0100
0010
0000
0001
0000
0001
0010
0001
0100
,
0010
0000
0100
0000
0100
1000
0001
0010
0001
0000
0100
0000
0100
0010
0100
0010
,
0001
0000
0001
0000
0001
0010
0001
0010
0001
1000
0100
1000
0001
1000
0001
0100
,
0001
0100
0010
0100
0010
1000
0010
1000
0001
1000
0001
0100
0001
0100
0010
1000
,
0010
1000
0010
0100
0001
0010
0001
0010
0001
0100
0010
1000
0010
1000
0010
0100
,
0001
1000
0001
1000
0001
0100
0010
0100
0010
0100
0001
1000
0001
0010
0001
0010
,
0100
0010
0100
1000
0010
0001
0010
0001
1000
0001
0100
0001
0100
0001
1000
0001
,
1000
0001
0100
0001
0100
0001
1000
0001
0100
0010
0100
0010
0100
0001
0100
0001
,
0100
0010
1000
0010
1000
0010
0100
0010
0100
0010
1000
0010
1000
0010
0100
0010
,
0100
0010
1000
0010
1000
0010
0100
0010
0100
0010
1000
0001
0100
0001
0100
0001
,
1000
0001
0010
0001
0010
0001
0100
0010
0100
0010
0100
0001
0100
0001
0100
0010
,
0100
0010
1000
0010
1000
0010
0100
0010
0100
0010
1000
0010
1000
0010
0100
0010
,
0100
0001
0100
0001
0010
0001
1000
0001
0010
0001
0010
0001
0100
0001
0100
0001
,
0010
0001
0010
0001
1000
0001
1000
0100
1000
0100
1000
0001
1000
0001
1000
0100
,
1000
0100
1000
0001
1000
0001
1000
0100
1000
0100
1000
0001
1000
0001
1000
0010
,
1000
0010
0100
0010
0100
0010
1000
0010
1000
0100
0010
0100
0010
0001
0010
0001
,
0010
0100
0010
0001
0010
0001
0010
0100
0010
0100
0010
0001
0010
0100
0010
0100
,
0010
0001
1000
0001
1000
0001
0010
0001
0010
0001
1000
0001
0010
0001
0010
0001
,
1000
0001
0100
0010
1000
0010
0100
0010
0100
0010
1000
0010
1000
0010
0100
0010
,
0100
0010
1000
0010
1000
0010
0100
0010
0100
0010
1000
0010
1000
0010
0100
0010
,
0100
0010
1000
0100
1000
0100
1000
0001
1000
0001
1000
0100
1000
0100
1000
0001
,
1000
0001
1000
0010
1000
0010
1000
0001
1000
0001
0010
0001
0010
0001
1000
0001
,
1000
0001
0100
0001
0101
1000
0010
0100
0001
0000
0010
0000
0001
1000
0001
1000
,
0010
0000
0100
0000
0010
0100
0001
0010
0100
1000
0001
0000
0010
0000
0001
0010
,
0100
1000
0010
0000
0100
0000
0100
0010
0100
1000
0010
1000
0001
0000
0001
0000
,
0010
0100
0001
0010
0001
0010
0001
0010
0001
0000
1000
0000
0010
1000
0100
0010
,
0100
0000
0100
0000
0010
1000
0010
1000
0010
0100
0001
0100
0001
0100
0010
1000
,
0010
1000
0010
0100
0001
0100
0001
0100
0010
1000
0010
1000
0010
0100
0001
1000
,
0001
0010
0100
0010
0001
0010
0001
0100
0001
0100
0010
0100
0010
1000
0010
1000
,
0100
1000
0100
0010
0100
0010
0001
0010
0001
1000
0001
1000
0010
1000
0010
0100
,
0010
0100
0001
0100
0020
0000
0000
0000
0000
0000
0000
0000
0000
0000
0000
0000
,
0000
0000
0000
0000
,
0000
0030
0000
0000
;
