#VERSION:0.83;
#TITLE:Anywhere;
#ARTIST:Rita Ora;
#GENRE:POP;
#CREDIT:B. M'Rey;
#MUSIC:Anywhere.ogg;
#BANNER:Anywhere.png;
#BACKGROUND:Anywhere-bg.png;
#CDTITLE:./CDTITLES/Dance Dance Revolution SPACE.PNG;
#SAMPLESTART:29.211;
#SAMPLELENGTH:15;
#OFFSET:-0.030;
#BPMS:0=107;

//--------------- dance-single - B. M'Rey ----------------
#NOTEDATA:;
#STEPSTYPE:dance-single;
#DESCRIPTION:B. M'Rey;
#DIFFICULTY:Beginner;
#METER:4;
#CREDIT:B. M'Rey;
#RADARVALUES:0.190143,0.429173,0.121,0,0,176,160,16,0,0,0,0.190143,0.429173,0.121,0,0,176,160,16,0,0,0;
#NOTES:
0000
0000
0000
0000
,
1000
0010
0100
0001
,
0010
0001
0100
0010
,
1000
0000
0000
0000
0000
0000
0000
0001
,
0000
0000
0000
0000
,
0100
0010
1000
0000
,
0001
0010
0100
0000
,
0010
0000
0000
0000
0000
0000
0000
0001
,
0000
0000
0000
0000
,
0100
0000
0000
0000
,
1000
0000
0000
0010
,
0000
0000
0000
0001
,
0000
0000
0000
0000
,
0001
0010
0100
1000
,
0000
0100
0010
0001
,
0000
1000
0010
0100
,
0001
0000
0000
0000
,
0010
0100
1000
0000
,
0100
1000
0010
0000
,
0001
0010
0100
0000
,
0001
0000
0010
0000
,
1000
0100
0000
0001
,
0010
0000
0100
0000
,
0010
0100
0001
1000
,
0000
0000
0010
0010
,
0001
0010
0100
1000
,
0010
0000
0010
0000
0010
0000
0010
0010
,
0010
0100
0100
0010
,
0010
0002
0003
0110
,
0100
1000
0100
0010
,
0001
0001
0001
0001
,
0100
0100
0010
0010
,
0001
0002
0003
0001
,
1000
0000
0000
0010
,
0100
0000
0000
0000
,
0001
0010
0100
0000
,
1000
1000
1000
1000
,
0100
0001
0010
0100
,
0000
1000
0010
0100
,
0000
0001
0010
0001
,
0100
0000
0010
0000
,
0000
0100
0010
0001
,
0000
1000
0010
0100
,
0000
0010
0001
0100
,
0010
1000
0100
0000
,
0010
0100
0001
0000
,
0010
0100
1000
0000
,
0010
0100
0001
0000
,
1000
0100
0010
0000
,
0010
0100
1000
0000
,
0001
0010
0100
0000
,
1000
0100
1000
0000
,
0001
0010
0100
0000
,
1000
0000
0010
0000
,
0002
0000
0000
0000
,
0103
0000
0010
0000
,
1000
0000
0010
0100
;

//--------------- dance-single - B. M'Rey ----------------
#NOTEDATA:;
#STEPSTYPE:dance-single;
#DESCRIPTION:B. M'Rey;
#DIFFICULTY:Easy;
#METER:7;
#CREDIT:B. M'Rey;
#RADARVALUES:0.296019,0.515008,0.219313,0.098313,0,274,245,29,13,0,0,0.296019,0.515008,0.219313,0.098313,0,274,245,29,13,0,0;
#NOTES:
0000
0000
0000
0000
,
0010
0100
0001
0010
,
1000
0100
1000
0010
,
0100
0000
0000
0000
0000
0000
0000
0001
,
0000
0000
0000
0000
,
0010
0100
1000
0010
,
0100
0001
0010
0001
,
0100
0000
0000
0000
0000
0000
0000
0010
,
0000
0000
0000
0000
,
1000
0100
0000
0000
,
0001
0000
0010
0000
0000
0000
0100
0010
,
0000
0000
0000
0001
,
0000
0000
0000
0000
,
1000
0010
0100
0001
,
0010
0001
0100
1000
,
0010
0100
0001
0010
,
0001
1000
0100
1000
,
0010
0000
0100
0000
0001
0010
0100
0000
,
0010
0000
1000
0000
0100
0000
1000
0100
,
0010
0001
0010
0001
,
0100
0010
1000
0100
,
0001
1000
0001
0010
,
0001
0100
1000
0100
,
0010
1000
0100
0001
,
0010
0001
2000
0000
,
3001
0100
1000
0010
,
0110
0000
0110
0000
0110
0000
0100
0010
,
0100
0000
0001
1000
0001
0000
1000
0001
,
1000
0000
0001
0010
1000
0000
0110
0000
,
0001
0000
1000
0100
1000
0000
0010
0001
,
0110
0000
1001
0000
0011
0000
0100
0010
,
0100
0000
0010
1000
0010
0000
0001
0100
,
0001
0000
0010
0100
0010
0000
0001
0000
,
1000
0100
1000
0010
,
0100
0001
0010
0001
,
0100
1000
0010
0100
,
0010
0100
0010
0100
0010
0001
1010
0000
,
0001
0000
0100
0000
0001
0000
1000
0010
,
0100
0000
0010
0000
0001
0000
0001
0010
,
0100
0000
0010
0000
0100
0000
0001
0010
,
1000
0001
0010
0100
,
0010
1000
0100
0000
0001
0000
0001
0010
,
0100
0000
0010
0000
0100
1000
0010
0000
,
0001
0000
0100
0000
0001
1000
0100
0000
,
0010
0100
0001
1000
,
0020
0000
0000
0000
0000
0000
0000
0000
0000
0000
0000
0000
0000
0000
0000
0000
0000
0000
0000
0000
0000
0000
0000
0000
0000
0000
0000
0000
0000
0000
0000
0000
0000
0000
0000
0000
0000
0000
0000
0000
0000
0000
0000
0000
0000
0000
0000
0000
0200
0000
0000
0030
0000
0000
0000
0000
0000
0000
0000
0000
0000
0000
0000
0000
0000
0000
0000
0000
0000
0000
0000
0000
0000
0000
0000
0000
0000
0000
0000
0000
0000
0000
0000
0000
0000
0000
0000
0000
0000
0000
0000
0300
0000
0000
0000
0000
0002
0000
0000
0000
0000
0000
0000
0000
0000
0000
0000
0000
0000
0000
0000
0000
0000
0000
0000
0000
0000
0000
0000
0000
0000
0000
0000
0003
0000
0000
0000
0000
0000
0000
0000
0000
0000
0000
0000
0000
0000
0000
0000
0000
0000
0000
0000
0000
1000
0000
0000
0000
0000
0000
0000
0000
0000
0000
0000
0000
0000
0000
0000
0000
0000
0000
0000
0000
0000
0000
0000
0000
0000
0000
0000
0000
0000
0000
0000
0000
0000
0000
0000
0000
0000
0000
0000
0000
0000
0000
0000
0000
0000
0000
0000
0000
,
0020
0000
0000
0000
0000
0000
0000
0000
0000
0000
0000
0000
0000
0000
0000
0000
0000
0000
0000
0000
0000
0000
0000
0000
0000
0000
0000
0000
0000
0000
0000
0000
0000
0000
0000
0000
0000
0000
0000
0000
0000
0000
0000
0000
0000
0000
0030
0000
0200
0000
0000
0000
0000
0000
0000
0000
0000
0000
0000
0000
0000
0000
0000
0000
0000
0000
0000
0000
0000
0000
0000
0000
0000
0000
0000
0000
0000
0000
0000
0000
0000
0000
0000
0000
0000
0000
0000
0300
0000
0000
0000
0000
0000
0000
0000
0000
2000
0000
0000
0000
0000
0000
0000
0000
0000
0000
0000
0000
0000
0000
0000
0000
0000
0000
0000
0000
0000
0000
0000
0000
0000
0000
0000
0000
0000
0000
0000
0000
0000
0000
0000
3000
0000
0000
0000
0000
0000
0000
0000
0000
0000
0000
0000
0000
0000
0000
0000
0000
0000
0000
0000
0000
0000
0000
0000
0000
0000
0000
0000
0000
0000
0000
0000
0000
0000
0000
0000
0000
0000
0000
0000
0000
0000
0000
0000
0000
0000
0000
0000
0000
0000
0000
0000
0000
0000
0000
0000
0000
0000
0000
0000
0000
,
0010
0100
0001
0000
0010
1000
0100
0000
,
0001
1000
0010
0100
,
0002
0000
0000
0000
0000
0000
0000
0000
0000
0000
0000
0000
0000
0000
0000
0000
0000
0000
0000
0000
0000
0000
0000
0000
0000
0000
0000
0000
0000
0000
0000
0000
0000
0000
0000
0000
0000
0000
0000
0000
0000
0000
0003
0000
0000
0000
0000
0000
0020
0000
0000
0000
0000
0000
0000
0000
0000
0000
0000
0000
0000
0000
0000
0000
0000
0000
0000
0000
0000
0000
0000
0000
0000
0000
0000
0000
0000
0000
0000
0000
0000
0000
0000
0000
0000
0000
0000
0000
0000
0000
0000
0000
0000
0000
0000
0000
0200
0000
0000
0030
0000
0000
0000
0000
0000
0000
0000
0000
0000
0000
0000
0000
0000
0000
0000
0000
0000
0000
0000
0000
0000
0000
0300
0000
0000
0000
0000
0000
0000
0000
0000
0000
0000
0000
0000
0000
0000
0000
0000
0000
0000
0000
0000
0000
0002
0000
0000
0000
0000
0000
0000
0000
0000
0000
0000
0000
0000
0000
0000
0000
0000
0000
0000
0000
0000
0000
0000
0000
0000
0000
0000
0000
0000
0000
0000
0000
0000
0000
0000
0000
0000
0000
0000
0000
0000
0000
0000
0000
0000
0000
0000
0000
,
2003
0000
0000
0000
0000
0000
0000
0000
0000
0000
0000
0000
0000
0000
0000
0000
0000
0000
0000
0000
0000
0000
0000
0000
0000
0000
0000
0000
0000
0000
0000
0000
0000
0000
0000
0000
0000
0000
0000
0000
0000
0000
0000
3000
0000
0000
0000
0000
0200
0000
0000
0000
0000
0000
0000
0000
0000
0000
0000
0000
0000
0000
0000
0000
0000
0000
0000
0000
0000
0000
0000
0000
0000
0000
0000
0000
0000
0000
0000
0000
0000
0000
0000
0000
0000
0000
0000
0000
0000
0000
0300
0000
0000
0000
0000
0000
0010
0000
0000
0000
0000
0000
0000
0000
0000
0000
0000
0000
0000
0000
0000
0000
0000
0000
0000
0000
0000
0000
0000
0000
0000
0000
0000
0000
0000
0000
0000
0000
0000
0000
0000
0000
0000
0000
0000
0000
0000
0000
0000
0000
0000
0000
0000
0000
0000
0000
0000
0000
0000
0000
0000
0000
0000
0000
0000
0000
0000
0000
0000
0000
0000
0000
0000
0000
0000
0000
0000
0000
0000
0000
0000
0000
0000
0000
0000
0000
0000
0000
0000
0000
0000
0000
0000
0000
0000
0000
0000
0000
0000
0000
0000
0000
,
0010
0001
0100
0000
1000
0010
0100
0000
,
0010
0100
1000
0000
,
0010
0000
0100
0001
1000
0000
0010
0100
,
0001
0000
0011
0000
1100
0000
0100
0100
,
0100
0000
1000
1000
1000
0000
0001
0001
,
0001
0000
0010
0010
0010
0000
0110
0000
;

//--------------- dance-single - B. M'Rey ----------------
#NOTEDATA:;
#STEPSTYPE:dance-single;
#DESCRIPTION:B. M'Rey;
#DIFFICULTY:Medium;
#METER:8;
#CREDIT:B. M'Rey;
#RADARVALUES:0.342474,0.368011,0.105875,0.09075,0,317,303,14,12,0,0,0.342474,0.368011,0.105875,0.09075,0,317,303,14,12,0,0;
#NOTES:
0000
0000
0000
0000
,
0001
0010
0100
1000
,
0010
0100
0001
0010
,
0002
0000
0000
0000
0000
0000
0000
0000
0000
0000
0000
0000
0000
0000
0000
0000
0000
0000
0000
0000
0000
0000
0000
0003
0000
0000
0000
0000
0000
0000
0000
0000
0000
0000
0000
0000
0000
0000
0000
0000
0000
0000
0000
0000
0000
0000
0000
0000
0000
0000
0000
0000
0000
0000
0000
0000
0000
0000
0000
0000
0000
0000
0000
0000
,
2000
0000
0000
0000
3000
0000
0000
0000
0000
0000
0000
0000
,
0010
0100
0001
0010
,
1000
0100
0010
0000
0001
0000
0010
0000
,
0002
0000
0000
0000
0000
0000
0000
0000
0000
0000
0000
0000
0000
0000
0000
0000
0000
0000
0000
0000
0000
0000
0000
0000
0000
0000
0000
0000
0000
0000
0000
0000
0000
0000
0000
0000
0000
0000
0000
0000
0000
0000
0000
0000
0000
0000
0000
0000
0000
0000
0000
0000
0000
0000
0000
0000
0000
0000
0000
0000
0000
0000
0000
0000
0000
0000
0000
0000
0000
0000
0000
0000
0000
0000
0000
0000
0000
0000
0000
0000
0000
0000
0000
0003
0000
0000
0000
0000
0000
0000
0000
0000
0000
0000
0000
0000
0000
0000
0000
0000
0000
0000
0000
0000
0000
0000
0000
0000
0000
0000
0000
0000
0000
0000
0000
0000
0000
0000
0000
0000
0000
0000
0000
0000
0000
0000
0000
0000
0000
0000
0000
0000
0000
0000
0000
0000
0000
0000
0000
0000
0000
0000
0000
0000
0000
0000
0000
0000
0000
0000
0000
0000
0000
0000
0000
0000
0000
0000
0000
0000
0000
0000
0000
0000
0000
0000
0000
0000
0000
0000
0000
0000
0000
0000
0000
0000
0000
0000
0000
0000
0000
0000
0000
0000
0000
0000
0000
0000
0000
0000
0000
0000
,
0200
0000
0000
0000
0000
0000
0000
0000
0000
0000
0000
0000
0000
0000
0000
0000
0000
0000
0000
0000
0000
0000
0000
0000
0000
0000
0000
0000
0000
0000
0000
0000
0000
0000
0000
0000
0000
0000
0000
0000
0000
0000
0000
0000
0000
0000
0000
0000
0000
0000
0000
0000
0000
0000
0000
0000
0000
0000
0000
0000
0000
0000
0000
0000
0000
0000
0000
0000
0000
0000
0000
0300
0000
0000
0000
0000
0000
0000
0000
0000
0000
0000
0000
0000
0000
0000
0000
0000
0000
0000
0000
0000
0000
0000
0000
0000
0000
0000
0000
0000
0000
0000
0000
0000
0000
0000
0000
0000
0000
0000
0000
0000
0000
0000
0000
0000
0000
0000
0000
0000
0000
0000
0000
0000
0000
0000
0000
0000
0000
0000
0000
0000
0000
0000
0000
0000
0000
0000
0000
0000
0000
0000
0000
0000
0000
0000
0000
0000
0000
0000
0000
0000
0000
0000
0000
0000
0000
0000
0000
0000
0000
0000
0000
0000
0000
0000
0000
0000
0000
0000
0000
0000
0000
0000
0000
0000
0000
0000
0000
0000
0000
0000
0000
0000
0000
0000
0000
0000
0000
0000
0000
0000
,
0010
1000
0000
0000
,
0001
0010
0000
0200
,
0000
0000
0000
0000
0000
0000
0000
0000
0000
0000
0000
0000
0000
0000
0000
0000
0000
0000
0000
0000
0000
0000
0000
0000
0000
0300
0000
0000
0000
0000
0000
0000
0000
0000
0000
0000
0000
0000
0000
0000
0000
0000
0000
0000
0000
0000
0000
0000
0000
0000
0000
0000
0000
0000
0000
0000
0000
0000
0000
0000
0000
0000
0000
0000
0000
0000
0000
0000
0000
0000
0000
0000
0000
0000
0000
0000
0000
0000
0000
0000
0000
0000
0000
0000
0000
0000
0000
0000
0000
0000
0000
0000
0000
0000
0000
0000
0000
0000
0000
0000
0000
0000
0000
0000
0000
0000
0000
0000
0000
0000
0000
0000
0000
0000
0000
0000
0000
0000
0000
0000
0000
0000
0000
0000
0000
0000
0000
0000
0000
0000
0000
0000
0000
0000
0000
0000
0000
0000
0000
0000
0000
0000
0000
0000
0020
0000
0000
0000
0000
0000
0000
0000
0000
0000
0000
0000
0000
0000
0000
0000
0000
0000
0000
0000
0000
0000
0000
0000
0000
0000
0000
0000
0000
0000
0000
0000
0000
0000
0000
0000
0000
0000
0000
0000
0000
0000
0000
0000
0000
0000
0000
0000
,
0000
0030
0000
0000
,
0001
0000
0010
0000
1000
0100
1000
0010
,
0000
0100
0001
0010
0001
1000
0100
0010
,
0001
0010
0100
0001
0010
1000
0001
0100
,
0000
0010
0000
0001
0000
0010
0000
1000
,
0100
0010
0100
0001
0100
0010
1000
0100
,
1000
0010
0001
0100
0010
0001
1000
0100
,
0010
0100
0001
0010
0001
1000
0100
0000
,
0010
0000
1000
0000
0010
0001
0100
0001
,
1000
0100
0000
0000
0000
0000
0010
0001
,
1000
0010
0000
0100
0000
0001
0000
0010
,
0001
1000
0100
1000
0010
0100
0001
0010
,
0001
1000
0100
0010
0001
0010
0001
1000
,
0100
0000
0010
0100
0001
0000
0010
1000
,
0110
0000
0110
0000
0110
0000
0001
0010
,
1000
0000
0001
1000
0001
0000
0001
1000
,
0001
0000
1001
1001
1001
0000
0110
0000
,
0001
0000
0010
0001
0010
0000
0100
1000
,
0100
0000
0110
0000
0110
0000
0010
0001
,
0010
0000
1000
0100
1000
0000
0001
0010
,
0100
0000
0001
0010
0001
0000
1000
0100
,
0010
0001
0100
0010
,
1000
0100
1000
0010
,
0001
0010
0100
0001
1000
0010
0100
0001
,
0010
0001
1000
0100
0010
0001
1001
0000
,
0010
0001
0100
0010
1000
0100
1000
0001
,
0100
0010
0001
1000
0100
0010
0001
0010
,
0001
1000
0100
0010
0001
0010
0100
1000
,
2000
0000
0000
0000
0000
0000
0000
0000
3000
0000
0000
0000
0000
0000
0000
0000
0200
0000
0000
0000
0000
0000
0000
0000
0000
0000
0000
0000
0000
0000
0300
0000
0020
0000
0000
0000
0000
0000
0000
0000
0000
0000
0000
0000
0000
0000
0030
0000
0002
0000
0000
0000
0000
0000
0000
0000
0000
0003
0000
0000
0000
0000
0000
0000
,
0001
0010
1000
0100
0010
0001
1000
0100
,
1000
0010
0001
0010
0001
0100
0010
0001
,
0010
1000
0100
1000
0010
0100
0001
0010
,
0100
0000
1000
0000
0100
0001
1000
0100
,
0010
0000
0001
0000
1000
0100
1000
0010
,
0100
0000
0001
0000
0010
0100
1000
0000
,
0010
0001
0100
0010
0001
0000
1000
0100
,
1000
0001
0100
0010
0001
0100
0010
1000
,
0100
0000
0010
0000
1000
0100
0010
0000
,
0001
0010
0001
0100
1000
0100
0010
0000
,
0001
0010
0100
1000
0100
0010
0001
1000
,
0100
0010
0001
0000
,
0001
0000
1000
0100
0010
0000
0001
0010
,
0110
0000
0110
0000
0110
0000
0001
1000
,
0100
0000
0010
0001
1000
0000
0010
0001
,
0100
0000
0010
0001
1000
0000
0220
0000
,
0000
0330
0000
0000
;

//--------------- dance-single - B. M'Rey ----------------
#NOTEDATA:;
#STEPSTYPE:dance-single;
#DESCRIPTION:B. M'Rey;
#DIFFICULTY:Hard;
#METER:12;
#CREDIT:B. M'Rey;
#RADARVALUES:0,0,0,0,0;
#NOTES:
0000
0000
0000
0000
,
0001
0000
0100
0000
0001
0000
0100
1000
0001
0000
0010
1000
0100
0000
0000
0000
,
0100
0000
0010
0000
0001
0000
0100
1000
0010
0000
0000
0100
0000
0000
0100
0010
,
0000
0000
0010
0000
0000
0000
0010
0000
0001
0000
0000
0000
0001
0000
1000
0010
,
0000
0000
1000
0000
0000
0000
0100
0000
0010
0000
0000
0010
0000
0000
0100
0000
,
0001
0000
0010
0000
0001
0000
0010
1000
0001
0000
1000
0000
0010
0000
0000
0000
,
0010
0100
1000
0010
0100
1000
0010
1000
0100
0000
0010
0000
0200
0000
0000
0301
,
0010
0000
0000
0010
0000
0000
1000
0000
0100
0000
0000
0000
0100
0000
0010
0100
,
0000
0000
1000
0000
0000
0000
1000
0000
0001
0000
0000
0010
0000
0000
0010
0000
,
0200
0000
0310
1000
0000
1000
0001
0000
,
0020
0000
0000
0000
0130
0000
0100
0000
0000
0000
1000
0000
0100
0000
1000
0100
,
0000
0000
1000
0000
0000
0000
0100
0000
0001
0000
1000
0000
0001
0100
1000
0100
,
0000
0002
0000
0000
0000
0000
0003
0000
,
0001
0000
1000
0000
0001
0000
1000
0001
0000
0000
0010
0000
0100
0000
0010
0001
,
0000
0000
0000
0000
0000
0000
1000
0000
0000
0000
0000
0000
0001
0000
0000
0010
0000
0000
0000
0000
0000
0100
0000
0000
0000
0000
0000
0000
0000
0000
0010
0000
0000
0000
0000
0000
0010
0000
0000
0000
1000
0000
0000
0000
0010
0000
0000
0000
,
1000
0000
0100
0000
0001
0000
0100
0001
0000
0000
1000
0010
0000
0000
1000
0100
,
0000
0001
1000
0010
1000
0100
1000
0100
,
0001
0000
1000
0000
0001
0000
1000
0000
0001
0000
0100
0000
0010
0000
0100
0010
,
0000
0000
0100
0000
0001
0000
1000
0000
0001
0000
0000
0001
0000
0010
0000
0100
,
0000
0000
0010
0000
0100
0000
0000
0010
0001
0000
0000
1000
0001
0000
0000
0010
,
0001
1000
0100
1000
0100
1000
0001
0100
,
0001
1000
0100
0000
0100
1000
0010
0100
,
0010
0100
0010
0000
0001
1000
0001
1000
,
0100
0010
0100
0010
0100
1000
0001
1000
,
0010
1000
0010
1000
0010
1000
0010
1000
0010
1000
0010
1000
0010
1000
0010
1000
,
0010
0000
0000
0000
0001
0010
1000
0000
0001
0000
0000
0000
0010
0100
0010
0000
,
0001
0000
0000
1000
0001
0000
0000
1000
0001
0000
0000
1000
0100
0000
0010
0000
,
0100
0000
0000
0000
0001
0010
1000
0000
0100
0000
0000
0000
0100
1000
0010
0000
,
0001
0000
0011
0110
1010
0000
1001
0000
,
0001
0000
0000
0000
0100
1000
0010
0000
0100
0000
0000
0000
0001
0010
0100
0000
,
0001
0000
0000
0100
0010
0000
0000
1000
0100
0000
0000
1000
0100
0000
0010
0000
,
0001
0000
0000
0000
0001
0010
1000
0000
0100
0000
0000
0000
0001
1000
0100
0000
,
0001
0000
0110
1010
1100
0000
0001
1000
,
0001
1000
0100
0001
,
0010
1000
0100
0000
0100
0000
0001
0000
,
0001
0100
0010
0100
0010
1000
0001
0100
,
0001
1000
0001
1000
0001
0010
0001
0010
0001
0010
0100
1000
0001
0000
0000
0000
,
0001
0000
1000
0000
0001
0000
1000
0001
0000
0000
0010
0000
0100
0000
0010
0001
,
0000
0000
0000
0000
0000
0000
1000
0000
0000
0000
0000
0000
0001
0000
0000
0010
0000
0000
0000
0000
0000
0100
0000
0000
0000
0000
0000
0000
0000
0000
0001
0000
0000
0000
0000
0000
0001
0000
0000
0000
1000
0000
0000
0000
0001
0000
0000
0000
,
0010
0000
0100
0000
0001
0000
0100
0001
0100
0000
1000
0010
0100
0000
1000
0100
,
0010
0000
0001
0010
1000
0000
0010
0100
1000
0000
0100
0000
1000
0000
0100
0000
,
0001
0000
1000
0000
0001
0000
1000
0000
0001
0000
0100
0000
0010
0000
0100
0010
,
0000
0000
0100
0000
0001
0000
1000
0000
0001
0000
0000
0001
0000
0010
0000
0100
,
0000
0000
0010
0000
0100
0000
0010
0001
0000
0000
1000
0001
0200
0000
0000
0000
,
0310
0000
0000
0000
0000
0000
0000
0000
0000
0100
0000
0000
0001
0000
0000
0000
0000
0000
0000
0000
0000
0010
0000
0000
1000
0000
0000
0000
0000
0000
0100
0000
0000
0000
0000
0000
1000
0000
0000
0000
0001
0000
0000
0000
0100
0000
0000
0000
,
1000
0000
0001
0000
1000
0000
0100
0000
0010
0100
0010
0000
1000
0000
0100
0000
,
1000
0000
0001
0000
0010
0000
0001
0000
0010
0001
0100
0000
1000
0000
0010
0000
,
0100
0000
0001
0000
0100
0000
0001
0000
1000
0000
0010
0000
1000
0000
0010
0100
,
1000
0000
0000
0000
0000
0000
0001
0000
0000
1000
0000
0000
0010
0000
0000
0000
0000
0000
0001
0000
0000
0100
0000
0000
0010
0000
0000
0000
0000
0000
0001
0000
0000
0000
0000
0000
0100
0000
0000
0000
0010
0000
0000
0000
1000
0000
0000
0000
,
0100
0000
0010
0000
0100
0000
0001
0000
1000
0001
1000
0000
1000
0000
0001
0000
,
0010
0100
0010
0100
0010
0001
1000
0001
,
0100
0000
0001
0000
0100
0000
0010
0000
0100
0000
0010
0000
1000
0000
0100
0010
,
1000
0000
0100
0010
1000
0000
0001
1000
0100
0000
0000
0000
0100
0000
0000
0000
,
0010
0000
0000
0000
0001
0010
1000
0000
0001
0000
0000
0000
0010
0100
0010
0000
,
0001
0000
0000
1000
0001
0000
0000
1000
0001
0000
0000
1000
0100
0000
0010
0000
,
0100
0000
0000
0000
0001
0010
1000
0000
0100
0000
0000
0000
0100
1000
0010
0000
,
0001
0000
0011
0110
1010
0000
1001
0000
;
