#TITLE:Any Kind Of Guy;
#ARTIST:Big Time Rush;
#GENRE:POP;
#CREDIT:B. M'Rey;
#MUSIC:Any Kind Of Guy.ogg;
#BANNER:Any Kind Of Guy.png;
#BACKGROUND:Any Kind Of Guy-bg.png;
#CDTITLE:./CDTITLES/Dance Dance Revolution SPACE.PNG;
#SAMPLESTART:62.709;
#SAMPLELENGTH:15;
#OFFSET:-0.030;
#BPMS:0=112;

//--------------- dance-single - B. M'Rey ----------------
#NOTES:
     dance-single:
     B. M'Rey:
     Beginner:
     3:
     0,0,0,0,0:
0000
0000
0000
0000
,
0000
0000
0000
0000
,
0000
0000
0000
0000
,
0000
0000
0000
0000
,
0000
1000
0000
0001
,
0000
0010
0000
0000
,
0000
0100
0000
0010
,
0000
1000
0000
0000
,
0000
0001
0000
0010
,
0000
0001
0000
0100
,
0000
0001
0000
1000
,
0000
0100
0000
0000
,
0000
0010
0000
0100
,
0000
1000
0000
0000
,
0000
0001
0000
0010
,
0000
1000
0000
0100
,
0000
0001
0000
0010
,
0000
0100
0000
0000
,
0000
1000
0000
0001
,
0000
1000
0000
0010
,
0000
1000
0000
0100
,
0000
0110
0000
0001
,
0000
1000
0000
0000
,
0000
0010
0000
0100
,
0000
0001
0000
0000
,
0000
1001
0000
0010
,
0000
0100
0000
0010
,
0000
1000
0000
0001
,
0000
1000
0001
1000
,
0001
1001
0000
1001
,
0000
0010
0000
0100
,
0100
0110
0000
0110
,
0000
0001
1000
0010
,
0000
0101
0000
0101
,
0000
0010
0000
1000
,
0001
0101
0000
0101
,
0000
1000
0001
0010
,
0100
0000
0000
0000
,
0000
1001
0000
1001
,
0000
0010
0000
0100
,
0000
1010
0000
1010
,
0000
0100
0010
0001
,
1000
0000
0000
0000
;

//--------------- dance-single - B. M'Rey ----------------
#NOTES:
     dance-single:
     B. M'Rey:
     Easy:
     4:
     0,0,0,0,0:
0000
0000
0000
0000
,
0000
0000
0000
0000
,
0000
0000
0000
0000
,
0000
0000
0000
0000
,
0000
0010
1000
0001
,
0100
0010
0000
1000
,
0000
0010
0100
0001
,
0100
0001
0000
0000
,
0000
0100
1000
0100
,
1000
0010
0100
0001
,
0000
0100
0010
0001
,
0100
0001
0000
0000
,
0000
0110
0000
0110
,
0000
0001
0010
0000
,
1000
0001
1000
0100
,
0000
0100
0010
0100
,
0000
0110
0000
0101
,
0000
0010
0100
0000
,
1000
0100
0010
0001
,
0000
0001
0010
0100
,
0000
0100
0010
0001
,
0000
0001
0100
0001
,
0000
0010
0100
0010
,
0000
0100
1000
0001
,
0000
0000
0110
0000
,
0110
0001
1000
0001
,
0000
0100
0010
0100
,
0000
0001
1000
0010
,
1000
0000
0110
0000
,
1001
0110
0000
1001
,
0000
0001
0010
0001
,
0000
0110
0000
0101
,
0000
0101
0000
0011
,
0000
0110
0000
0101
,
0000
0010
1000
0100
,
1000
0110
0000
0110
,
0000
1001
0000
0011
,
0000
0000
0000
0000
,
0000
0011
0000
1100
,
0000
0100
0010
0100
,
0000
1001
0000
1001
,
0000
1100
0000
0011
;

//--------------- dance-single - B. M'Rey ----------------
#NOTES:
     dance-single:
     B. M'Rey:
     Medium:
     7:
     0,0,0,0,0:
0000
0000
0000
0000
,
0000
0000
0000
0000
,
0000
0000
0000
0000
,
0000
0000
0000
1000
,
0001
0000
0010
0100
0010
0000
0100
0010
,
1000
0000
0010
0000
0100
0000
1000
0010
,
0000
0000
1000
0010
0100
0000
0010
0000
,
0010
0002
0000
0000
1000
0000
1003
0000
,
0000
0000
0100
0001
1000
0000
1000
0100
,
0010
0000
1000
0000
0010
0000
0010
0100
,
0010
0000
1000
0001
0010
0000
0100
0010
,
1000
0020
0000
0000
1000
0000
1030
0000
,
0000
0001
0100
0000
1000
0010
1000
0000
,
0100
0000
0010
0001
0000
0010
1000
0000
,
0010
0000
0010
0001
0000
1000
0000
0010
,
0000
0000
1000
0001
0000
0110
0000
0000
,
0100
0010
0100
0000
0010
0001
1000
0000
,
0100
0000
0010
0100
0000
0100
0010
0000
,
0100
0000
0100
0010
0000
1000
0000
0100
,
0000
0000
0100
0010
0100
0002
0000
0003
,
0010
0000
1000
0001
0000
0100
0010
0000
,
0100
0000
1001
0000
0110
0000
1000
0100
,
0000
0001
0000
0010
0100
0010
0100
0000
,
0010
0000
0100
0010
1000
0000
0100
0000
,
0010
0000
0100
0000
1000
0010
0000
0010
,
0100
0000
0110
0000
0011
0000
1000
0010
,
0000
0100
0000
0001
0010
0000
0011
0000
,
0100
0000
0100
0010
1000
0000
0100
0000
,
0001
0000
0000
0001
1000
0000
0000
0001
,
1000
0010
1000
0001
,
0100
0000
0010
0000
0100
0000
0001
1000
,
0100
0010
1000
0010
,
1000
0110
0110
0101
,
0101
0010
1000
0010
,
1000
0000
0001
0000
0100
0000
0001
1000
,
0010
0001
1000
0010
,
0100
0011
0011
1010
,
1010
0000
0000
0000
,
0000
0001
0010
0100
,
0010
0000
0100
0000
0010
0000
0001
1000
,
0100
0001
1000
0010
,
1000
0110
0110
1001
,
1001
0000
0000
0000
;

//--------------- dance-single - B. M'Rey ----------------
#NOTES:
     dance-single:
     B. M'Rey:
     Hard:
     10:
     0,0,0,0,0:
0000
0000
0000
0000
,
0000
0000
0000
0000
,
0000
0000
0000
0000
,
0000
0000
0000
0000
0000
0001
0010
0100
,
0010
0001
0010
0000
1000
0000
0001
0000
1100
0000
0000
0000
0010
0000
0001
0000
,
0101
0000
1000
0100
0010
0100
1000
0010
,
0100
0000
1000
0001
0100
0001
0010
0001
,
0100
0010
0200
0000
0010
0010
0310
0000
,
0110
0000
0100
0010
1010
0000
0100
0001
,
0101
0000
0010
0100
1000
0100
1000
0100
,
0000
0000
1000
0010
1000
0001
1000
0100
,
0010
0100
2000
0000
0100
0100
3100
0000
,
0000
0100
0010
0000
1000
0000
0010
0000
0100
0000
0010
0000
0100
0000
0000
0000
,
0010
0000
0000
0001
0100
0000
0010
0000
0100
0000
0002
0000
0000
0000
0003
0000
,
0100
0001
0010
0100
1000
0200
0000
0302
,
0000
0003
1000
0010
1000
0001
0100
0000
,
1000
0010
0100
0010
1000
0100
0010
0000
,
0100
0000
0000
0001
1000
0000
0100
0000
1000
0000
0010
0000
0100
0000
0000
0000
,
1000
0010
0100
0001
1000
0100
0000
1000
,
0000
0001
0010
0100
1000
0001
0000
0100
,
1000
0000
0010
0000
1000
0000
0010
0001
,
1000
0000
0001
0010
1000
0000
0100
0010
0100
0000
0100
0000
0010
0000
0001
0000
,
0100
0001
0010
0100
0010
0100
1000
0000
,
0010
0000
0000
0000
1000
0100
1000
0000
0010
0000
0100
0000
0000
0000
0010
0000
,
0000
1000
0000
0010
0100
0010
0000
0001
,
0100
0000
0010
0000
0100
0010
0100
0000
0100
0000
0001
0000
1000
0000
0010
0000
,
0000
0100
0000
0001
0010
0100
0010
0000
,
0010
0000
0100
0001
1000
0010
0000
0100
,
0000
0010
0000
0001
1000
0100
0000
0010
,
0100
0010
0100
0010
1100
0000
1000
0100
,
0110
0000
0010
0001
1000
0010
0100
0010
,
1010
0000
0100
0001
1001
0000
0010
0001
,
0110
0110
1010
1001
,
0011
0000
1000
0010
0101
0000
0100
0010
,
0101
0000
0010
0001
0100
0001
0100
0010
,
1001
0000
0010
0001
1001
0000
0010
0100
,
1001
0110
0110
0110
,
0011
0000
0000
0000
0000
0000
0000
0000
0000
0000
0000
0000
0000
0000
0010
1000
,
0010
0000
0100
0001
0110
0000
0010
0001
,
0011
0000
1000
0100
1000
0100
0010
0001
,
0101
0000
0100
0001
0110
0000
1000
0100
,
0011
1010
0110
0101
,
1001
0000
0000
0000
;
