#VERSION:0.83;
#TITLE:321 Stars (77☆'s breaks mix);
#ARTIST:DJ Simon;
#TITLETRANSLIT:321Stars (77STAR's breaks mix);
#GENRE:UPBEAT;
#CREDIT:B. M'Rey;
#MUSIC:321 Stars (77STAR's breaks mix).ogg;
#BANNER:321 Stars (77STAR's breaks mix).png;
#BACKGROUND:321 Stars (77STAR's breaks mix)-BG.png;
#CDTITLE:./CDTITLES/Dance Dance Revolution SPACE.PNG;
#SAMPLESTART:25.036;
#SAMPLELENGTH:15;
#OFFSET:-0.036;
#BPMS:0=192;

//--------------- dance-single - B. M'Rey ----------------
#NOTEDATA:;
#STEPSTYPE:dance-single;
#DESCRIPTION:B. M'Rey;
#DIFFICULTY:Beginner;
#METER:6;
#RADARVALUES:0,0,0,0,0;
#CREDIT:B. M'Rey;
#NOTES:
0000
0000
0000
0000
,
0000
1001
0000
0000
,
0000
0000
0000
0000
,
0000
0110
0000
0000
,
0100
0000
0000
0000
,
1000
0000
0000
0000
,
0100
0000
0100
0000
,
0010
0000
0000
0000
,
1000
0000
0100
0000
,
1000
0000
1000
0001
,
1000
0000
0010
0000
,
0010
0000
0010
0001
,
0100
0000
0100
0000
,
0100
0000
1000
0010
,
0100
0000
0010
0000
,
1000
0000
0100
0010
,
0110
0000
0110
0000
,
1001
0000
1001
0000
,
0020
0000
0000
0000
,
0030
0000
0000
0000
,
0100
0001
0010
0000
,
0000
0000
0010
0001
,
0100
0001
0100
0000
,
0000
0000
0010
0100
,
0010
0000
1000
0000
,
1000
0000
0010
0100
,
0020
0000
0000
0000
,
0000
0000
0000
0000
,
0130
0001
1000
0000
,
0000
0000
1000
0100
,
0010
0100
0010
0000
,
0000
0000
2000
0000
,
3001
1000
0010
0000
,
1000
0000
0010
0100
,
0020
0000
0000
0000
,
0000
0000
0000
0000
,
1030
0000
0100
0000
,
0010
0001
0000
0100
,
0010
0000
1000
0000
,
1000
0000
0100
0001
,
1000
0000
1000
0000
,
1000
0001
0000
0001
,
0100
0000
1000
0000
,
0200
0000
0000
0000
,
0310
0000
0110
0000
,
1000
0100
0010
0001
,
0110
0000
0110
0000
,
1000
0100
0010
0000
,
1001
0000
1001
0000
,
0100
0001
1000
0010
,
1001
0000
1001
0000
,
0010
0000
0000
0000
,
1000
0000
1000
0000
,
1000
0000
1000
0100
,
0010
0000
0010
0000
,
0010
0000
0010
0100
,
0001
0000
0001
0000
,
0001
0000
0001
0010
,
0100
0000
0100
0000
,
0100
0000
0100
0010
,
0101
0000
1100
0000
,
1001
0000
1001
0000
,
0020
0000
0000
0000
,
0130
0000
0000
0000
,
0000
0000
0000
1000
0000
0000
0000
0100
,
0000
0000
0000
0010
0000
0001
0000
0000
,
0000
0100
0000
0010
0000
0000
0000
1000
,
0000
0000
0000
1000
0000
0000
0000
0100
,
0000
0001
0000
1000
0000
0000
0000
1000
,
0000
0000
0000
1000
0000
0001
0000
0000
,
0000
0001
0000
0100
0000
0000
0000
1000
,
0000
0000
0000
0200
0000
0000
0000
0000
,
0000
0000
0000
0301
0000
0000
0000
1100
,
0000
0000
0000
1001
0000
0000
0000
1001
,
0000
0000
0000
0020
0000
0000
0000
0000
,
0000
0000
0000
0200
0000
0000
0000
0000
,
0000
0000
0000
0330
0000
0000
0000
0000
;

//--------------- dance-single - B. M'Rey ----------------
#NOTEDATA:;
#STEPSTYPE:dance-single;
#DESCRIPTION:B. M'Rey;
#DIFFICULTY:Easy;
#METER:9;
#RADARVALUES:0,0,0,0,0;
#CREDIT:B. M'Rey;
#NOTES:
0000
0000
0000
0000
,
0000
0110
0000
0000
,
0100
0000
0100
0000
,
0000
0101
0000
0000
,
1000
0000
0100
0000
,
0010
0000
0001
0000
,
0100
0000
1000
0000
,
0100
0000
0000
0000
,
0100
0001
1000
0010
,
0100
0010
1000
0000
,
1000
0001
0010
0100
,
0010
0001
1000
0000
,
0010
0001
0010
0100
,
0010
0001
0100
0000
,
1000
0100
1000
0100
,
0010
0001
1000
0000
,
0100
0010
0100
0010
,
1000
0001
0100
0001
,
2002
0000
0000
0000
,
3103
0000
0000
0000
,
0100
0010
1000
0000
,
1000
0000
0010
0100
,
1000
0100
1000
0000
,
0100
0000
0100
0001
,
0100
0010
1000
0100
,
0010
0001
0010
0100
,
2000
0100
0100
0100
,
0100
0100
0100
0100
,
3100
0010
1000
0000
,
0100
0000
1000
0010
,
1000
0100
1000
0000
,
0110
0000
0010
0001
,
0100
0001
0010
0001
,
0010
0100
1000
0010
,
2000
0100
0100
0100
,
0100
0100
0100
0100
,
3001
0010
0100
0010
,
0100
0001
0000
0010
,
1000
0001
0010
0100
,
0010
0001
0100
0010
,
0100
0010
0100
0001
,
0010
0100
0000
0001
,
1000
0001
0010
0001
,
0010
0100
0010
0001
,
1001
0100
1001
0001
,
0010
0001
1000
0001
,
1001
0100
0110
0001
,
1010
0101
1010
0101
,
1001
0010
0110
0010
,
1001
0001
1000
0100
,
0110
0001
0110
0001
,
0100
0000
0000
0000
,
1000
0100
1000
0100
,
0010
0001
0100
0000
,
1000
0001
0010
0100
,
1000
0001
1000
0000
,
1000
0010
0100
0001
,
0100
0001
1000
0000
,
1000
0001
0010
0100
,
1000
0001
0100
0000
,
0100
0001
1000
0100
,
1000
0010
1000
0100
,
0220
0000
0000
0000
,
1330
0001
0010
0000
,
0000
1000
0000
0100
0000
0000
0000
0001
,
0000
0010
0000
0100
0000
0000
0000
0100
,
0000
1000
0000
0001
0000
0000
0000
0001
,
0000
1000
0000
0001
0000
0000
0000
0100
,
0000
0010
0000
0001
0000
0000
0000
0100
,
0000
1000
0000
0001
0000
0000
0000
0010
,
0000
0100
0000
0010
0000
0000
0000
0001
,
0000
0000
0000
0200
0000
0000
0000
0000
,
0000
0000
0000
0310
0000
0010
0000
0001
,
0000
0001
0000
1000
0000
1000
0000
0100
,
0000
0100
0000
0002
0000
0000
0000
0000
,
0000
0000
0000
0200
0000
0000
0000
0000
,
0000
0000
0000
0303
0000
0000
0000
0000
;

//--------------- dance-single - B. M'Rey ----------------
#NOTEDATA:;
#STEPSTYPE:dance-single;
#DESCRIPTION:B. M'Rey;
#DIFFICULTY:Medium;
#METER:12;
#RADARVALUES:0,0,0,0,0;
#CREDIT:B. M'Rey;
#NOTES:
0000
0000
0000
0000
,
0000
0000
1000
0000
0001
0100
0000
0000
,
0000
0000
0000
0000
,
0000
0000
0001
0000
1000
0100
0000
0000
,
1001
0000
1001
0000
,
0101
0000
0110
0000
,
0110
0000
0011
0000
,
0001
0100
0001
0100
,
0100
0010
0000
0010
0000
1000
0000
0010
,
0000
0100
0000
0100
0010
1000
0001
0000
,
0100
1000
0000
0010
0000
1000
0000
0010
,
0000
0100
0000
1000
0100
0010
0001
0000
,
0100
1000
0000
0010
0000
0010
0000
0010
,
0000
0100
0000
0100
0001
1000
0010
0000
,
0001
0100
0000
0100
0000
1000
0000
0100
,
0000
0100
0000
0010
0001
0010
0100
0000
,
0110
0110
1001
1001
,
0011
0011
1100
1100
,
0001
1000
0001
1000
0001
1000
0001
1000
,
0001
0010
0100
1001
,
0001
0000
0100
0010
0100
0000
0010
1000
,
0000
1000
0010
0000
0010
0000
0010
1000
,
0001
0000
0010
0000
0010
0000
0010
0100
,
0000
0010
0100
0000
0100
0010
0100
1000
,
0010
0000
0001
0000
0010
0000
0001
0010
,
0000
0100
0010
0000
0001
0000
0010
0000
,
0002
0010
0100
0100
,
1000
1000
1000
0100
,
0103
0000
0010
0000
0001
0000
0001
1000
,
0000
0000
0100
0000
0001
0000
0001
0010
,
0100
0000
0100
0000
0010
0000
0001
0100
,
0010
0000
0002
0000
,
0013
0000
0001
0000
0010
0000
0001
0010
,
0000
0100
0010
0000
0001
0000
0010
0000
,
0002
0010
0100
0100
,
1000
1000
1000
0100
,
0103
0000
0001
0100
0001
0000
0100
1000
,
0001
0000
0001
0000
0000
0010
0100
1000
,
0001
0001
0001
0010
,
0010
0000
0010
0000
0001
0000
0100
1000
,
0010
0000
0010
1000
0001
0000
0001
1000
,
0010
0001
0100
0001
,
0020
0100
0100
0200
,
0000
0000
0000
0000
,
0331
0000
0010
0000
0010
0000
0001
1000
,
0000
1000
0000
0010
0100
0000
0010
0000
,
0001
0001
0100
0100
,
1001
0110
1010
0101
,
0001
0000
0010
0000
0001
0000
0001
0100
,
0000
1000
0000
1000
0010
0000
0010
0000
,
0010
0100
0100
0001
,
0010
0000
0000
0000
,
0010
0100
0010
0100
,
0001
0000
0100
0000
0001
1000
0010
0000
,
0100
0010
0001
0010
,
0100
0000
1000
0000
0100
0001
0010
0000
,
0100
0010
0001
0100
,
0010
0000
0100
0000
0010
1000
0100
0000
,
0001
0010
0100
1000
,
0100
0000
0010
0000
0100
0001
0010
0000
,
1001
1001
0110
0110
,
0011
0011
1100
1100
,
0001
1000
0001
1000
0001
1000
0001
1000
,
0001
0010
0000
0000
,
1000
0100
0000
0100
0000
0001
0100
0001
,
0000
0100
1000
0001
0000
0001
0000
0000
,
0010
0100
1000
0001
0000
0001
0000
0001
,
0000
0010
0000
0010
0000
0010
0000
0001
,
0000
0100
1000
0010
0000
0010
1000
0001
,
0000
0001
1000
0010
0000
0001
0000
0100
,
0000
0001
0000
0020
0000
0100
0000
0100
,
0000
0200
0000
0000
0000
0000
0000
0000
,
0000
0000
0330
1001
0000
1001
0000
0110
,
0000
0110
0000
0011
0000
0011
0000
1100
,
0000
1100
0000
0001
1000
0001
1000
0001
,
1000
0001
1000
0001
0000
0000
0000
0000
,
0000
0000
0000
1001
0000
0000
0000
0000
;

//--------------- dance-single - B. M'Rey ----------------
#NOTEDATA:;
#STEPSTYPE:dance-single;
#DESCRIPTION:B. M'Rey;
#DIFFICULTY:Hard;
#METER:18;
#RADARVALUES:0.701947,1.214135,0.452824,0.10598,0.351661,510,463,47,11,0,2,0.701947,1.214135,0.452824,0.10598,0.351661,510,463,47,11,0,2;
#CREDIT:B. M'Rey;
#NOTES:
0000
0000
0000
0000
,
0000
0000
1001
0000
0100
0010
0000
0000
,
0000
0000
0000
0000
,
0000
0000
0000
0000
1001
0000
0000
0000
0010
0000
0100
0000
0000
0000
0010
0001
,
0010
0000
1010
0000
,
0101
0000
1001
0000
,
0101
0000
0110
0000
,
1100
0011
1001
2002
,
3103
1000
0001
1000
0010
1000
0010
0100
,
0010
0100
0001
0010
0001
0000
0100
0000
,
0001
1000
0010
0100
0010
0100
0010
1000
,
0100
0010
0100
0010
0001
0000
0001
0000
,
0010
1000
0100
1000
0001
0100
0001
1000
,
0010
0100
0001
0010
0001
0000
0001
0000
,
0010
0100
0010
1000
0010
0100
0001
1000
,
0010
0100
0001
0100
0001
0000
0001
0000
,
0110
0101
1010
0011
,
0110
0101
0110
0101
,
0001
1000
0001
1000
0001
0100
0010
0100
0001
0100
0001
1000
0001
1000
0100
1000
,
0001
1000
0001
1000
,
1001
0000
1001
0000
0101
0000
0010
0100
,
0000
0100
0001
0000
0001
0010
0001
1000
,
0010
0000
0010
0000
0100
0000
0100
0010
,
0000
1000
0001
0000
0001
0100
0001
1000
,
0100
0000
0100
0000
0001
1000
0001
0100
,
0000
1000
0100
1000
0100
0000
0010
0000
,
0001
0010
0001
0010
0001
1000
0010
1000
0010
1000
0001
0100
0001
0100
0001
1000
,
0010
1000
0100
1000
0100
0010
0100
0010
0001
0010
0001
0100
0010
0100
0010
0100
,
1000
0000
0100
0000
0001
0100
0010
1000
,
0000
0010
0100
0010
0001
0100
0001
0100
,
0010
0000
0001
0000
0010
1000
0010
0200
,
0000
0000
0000
0000
0000
0000
0000
0000
0310
1000
0100
1000
0100
1000
0100
0010
,
0001
0000
0100
0000
0001
0100
0001
0100
,
0000
0100
0001
1000
0010
0000
0010
0000
,
0001
1000
0100
0010
0100
0010
0100
1000
0010
0100
0010
0100
0010
1000
0100
1000
,
0001
1000
0001
0100
0001
0100
0010
0100
0010
0000
1000
0000
0010
0000
0100
0000
,
0001
0000
0001
0010
0100
0000
0001
0100
,
0001
0010
0200
0000
0000
0310
0100
0010
,
0100
0000
0100
1000
0001
0010
0000
0020
,
0000
2030
0000
3020
0000
0130
0010
1000
,
0001
0000
0010
1000
0100
0000
0001
0100
,
0001
1000
0200
0000
0000
0310
0100
1000
,
0010
0000
0001
0100
0001
0100
0000
2000
,
0001
0000
0001
0000
0001
0000
3001
1000
,
0001
0000
1001
0000
0011
0000
0100
0010
,
0000
0110
0000
0100
0010
0000
0100
0000
,
0001
0100
0001
0100
0001
1000
0010
1000
0001
1000
0001
0010
0100
0010
0100
0010
,
0100
0010
0001
1001
,
1001
0000
0100
0000
0110
0000
0010
0100
,
0000
1001
0000
0100
0001
0000
0011
0000
,
0001
1000
0001
1000
0001
0010
0100
0010
0100
0010
0001
0100
0001
0100
0001
0010
,
0001
0000
0000
0000
,
0100
1000
0000
1000
0000
0010
0000
1000
,
0000
0100
0000
1000
0100
1000
0010
0100
,
0001
0010
0000
0010
0000
1000
0000
0010
,
0000
0010
0000
1000
0010
1000
0100
0010
,
0100
1000
0000
0100
0000
0010
0000
0100
,
0000
0100
0000
0010
0001
1000
0001
0010
,
0100
0010
0000
0100
0000
0010
0000
0010
,
0000
0010
0000
0100
0010
1000
0100
0010
,
1001
0110
1001
1010
,
0110
0101
1010
0011
,
0001
1000
0001
1000
0001
0010
0100
0010
0100
0010
0001
1000
0001
1000
0010
0100
,
1000
0000
0100
0010
0000
0000
0000
0000
,
0001
0010
0001
1000
0000
1000
0001
1000
,
0000
0010
0100
0010
0100
0010
0001
0000
,
0001
1000
0001
0010
0000
0010
0001
0010
,
0001
0001
0010
0010
,
0001
0100
0001
0100
0000
0010
0100
0010
,
0000
1000
0100
1000
0002
0000
0000
0000
,
0013
0100
0010
0100
0000
1000
0100
1000
,
0100
0000
0200
0010
0000
0010
0000
0010
,
0000
0010
0000
1310
0000
0110
0000
0110
,
0000
0101
0000
1010
0000
0011
0000
0101
,
0000
0000
1010
0000
0000
0000
0001
1000
0001
1000
0001
0010
0100
0010
0001
0010
,
0001
1000
0001
0100
0010
0100
1000
0000
0000
0000
0000
0000
0000
0000
0000
0000
,
0000
0000
0000
1001
0000
0000
0000
0000
;
