#VERSION:0.83;
#TITLE:22DUNK;
#ARTIST:SLAKE;
#GENRE:TECHNO;
#CREDIT:B. M'Rey;
#MUSIC:22DUNK.ogg;
#BANNER:22DUNK.png;
#BACKGROUND:22DUNK-bg.png;
#CDTITLE:./CDTITLES/beatmania IIDX Substream.png;
#SAMPLESTART:5.333;
#SAMPLELENGTH:15;
#OFFSET:-0.443;
#BPMS:0=135.028;
#BGCHANGES:1.000=22DUNK.avi=1.000=0=0=1;

//--------------- dance-single - B. M'Rey ----------------
#NOTEDATA:;
#STEPSTYPE:dance-single;
#DESCRIPTION:B. M'Rey;
#CREDIT:B. M'Rey;
#DIFFICULTY:Beginner;
#METER:4;
#RADARVALUES:0.159,0.168,0.216,0,0;
#NOTES:
0000
0000
0000
0000
,
0000
0000
0000
0000
,
0000
0000
0000
1000
,
0000
0000
0000
0010
,
0000
0000
0000
0110
,
0000
0000
0000
0001
,
0000
0000
0000
0101
,
0000
0000
0000
0010
,
0000
0000
0000
1010
,
0000
0000
0000
0100
,
0100
0100
0100
0000
,
0000
0000
0000
0001
,
0000
1000
0000
0000
,
0000
0000
0000
0010
,
0000
0100
0000
0000
,
0000
0000
0000
0001
,
0000
1000
0000
0000
,
0000
0000
0000
0100
,
0000
0010
0000
0001
,
0000
0000
0000
1001
,
0000
0000
0000
1010
,
0000
0000
0000
0110
,
0000
0000
0000
0001
,
0001
0001
0000
0001
,
0001
0001
0000
1000
,
1000
1000
0000
1000
,
0000
1000
0000
0110
,
0000
0001
0000
1001
,
0000
0010
0000
1010
,
0000
0100
0000
0101
,
0000
0010
0000
0101
,
0000
0010
0000
1010
,
0000
0100
0000
0110
,
0000
0001
0000
0101
,
0000
0010
0000
1000
,
1000
1000
0000
0100
,
0100
0100
0000
0010
,
0010
0010
0000
0001
,
0000
1000
0000
1001
;

//--------------- dance-single - B. M'Rey ----------------
#NOTEDATA:;
#STEPSTYPE:dance-single;
#DESCRIPTION:B. M'Rey;
#CREDIT:B. M'Rey;
#DIFFICULTY:Easy;
#METER:5;
#RADARVALUES:0.247,0.335,0.361,0,0;
#NOTES:
0000
0000
0000
0000
,
0000
0000
0000
0000
,
0000
0000
0000
0001
,
0000
1000
0000
0010
,
0000
0100
0100
0110
,
0000
0001
0000
0010
,
0000
1000
1000
1100
,
0000
0010
0000
0100
,
0000
0010
0010
0011
,
0000
0001
0000
1100
,
0011
1100
0101
0100
,
0000
0010
0000
0001
,
0000
1000
0000
0000
0000
0000
0010
0000
,
0000
0100
0000
0001
,
0000
1000
0000
0000
0000
0000
0010
0000
,
0000
0100
0000
0001
,
0000
0100
0000
0000
0000
0000
0010
0000
,
0000
1000
0000
0100
,
0000
0001
0000
0000
0000
0000
1001
0000
,
0000
0010
0000
0110
,
0000
1000
0000
1010
,
0000
0100
0000
0101
,
0000
0010
0000
0001
,
1000
0001
1000
0001
,
1000
0001
1000
0001
,
1000
0001
1000
0110
,
0000
0110
0000
0001
,
1000
0010
0000
0001
,
1000
0100
0000
0010
,
0100
1000
0000
0100
,
0010
0001
0000
0010
,
0100
0001
0000
1000
,
0010
0100
0000
0001
,
0010
0001
0000
0100
,
0010
1000
0000
1001
,
0110
1001
0000
0101
,
1010
0101
0000
0011
,
1100
0011
0000
1001
,
0000
0110
0000
1001
;

//--------------- dance-single - B. M'Rey ----------------
#NOTEDATA:;
#STEPSTYPE:dance-single;
#DESCRIPTION:B. M'Rey;
#CREDIT:B. M'Rey;
#DIFFICULTY:Medium;
#METER:9;
#RADARVALUES:0.398,0.447,0.26,0,0.043;
#NOTES:
0000
0000
0000
0000
,
0000
0000
0000
0000
,
0000
0000
0000
0001
,
1000
0000
0010
0100
0010
0000
0001
0000
,
1000
0000
0010
1000
0010
0000
0110
0000
,
0001
0000
0100
0001
0100
0000
0010
0000
,
0100
0000
0010
0100
0010
0000
1010
0000
,
0100
0000
0010
0100
0010
0000
0001
0000
,
0100
0000
0001
0100
0001
0000
0101
0000
,
0010
0000
1000
0010
1000
0000
0011
0000
,
1100
0000
0011
0000
1100
0000
0010
0100
,
0010
0001
0000
1000
,
0000
0000
0001
0000
0000
0000
0000
0000
0000
0000
0000
0000
0000
0010
0000
0000
,
0100
0000
0000
0000
0001
0000
0000
1000
0000
0000
0000
0000
0110
0000
0000
0000
,
0000
0000
0110
0000
0000
0000
0000
0000
0000
0000
0000
0000
0000
0001
0000
0000
,
1000
0000
0000
0000
0010
0000
0000
0100
0000
0000
0000
0000
0110
0000
0000
0000
,
0000
0000
1010
0000
0000
0000
0000
0000
0000
0000
0000
0000
0000
0001
0000
0000
,
1000
0000
0000
0000
0010
0000
0000
0100
0000
0000
0000
0000
1001
0000
0000
0000
,
0000
1001
0000
0000
0000
0000
0001
1000
,
0001
0000
0100
0000
0010
0000
0100
0010
,
0100
0000
0001
0000
1000
0000
0001
0100
,
0001
0000
0010
0000
1000
0000
0010
1000
,
0010
0000
0100
0000
0010
0000
1000
0001
,
1000
0001
1000
0100
0010
0100
0010
0100
,
1000
0001
1000
0001
1000
0010
0100
0010
,
0100
0010
1000
0001
0010
0001
0110
0000
,
0101
0000
1010
0000
0000
0000
1000
0100
,
1000
0000
0010
0000
0100
0000
1000
0010
,
1000
0000
1000
0000
0010
0000
0010
0100
,
0010
0000
1000
0000
0001
0000
1000
0001
,
0010
0000
0100
0000
0010
0000
1000
0001
,
1000
0000
1000
0000
0100
0000
0100
0010
,
1000
0000
1000
0000
0010
0000
0100
0010
,
1000
0000
0100
0000
0001
0000
0010
0100
,
1000
0000
0100
0000
0010
0000
1000
0001
,
1000
0100
1000
0100
0010
0000
0010
0001
,
0010
0001
0100
0001
0100
0000
0110
0000
,
1000
0001
0100
0001
0100
0000
0010
0000
,
1000
0010
0100
0110
;

//--------------- dance-single - B. M'Rey ----------------
#NOTEDATA:;
#STEPSTYPE:dance-single;
#DESCRIPTION:B. M'Rey;
#CREDIT:B. M'Rey;
#DIFFICULTY:Hard;
#METER:11;
#RADARVALUES:0.536,0.503,0.707,0,0.216;
#NOTES:
0000
0000
0000
0000
,
0000
0000
0000
0000
,
0000
0000
0000
0000
0000
0000
0000
0000
0000
0000
0000
0000
1001
0000
0001
0100
,
0000
0000
0001
0000
0100
0000
0001
1000
0000
0000
0100
0000
1000
0000
0100
1000
,
0000
0000
0010
0000
0100
0000
0010
0100
0000
0000
0010
0000
1001
0000
0001
1000
,
0000
0000
0001
0000
1000
0000
0100
0010
0000
0000
0100
0000
0010
0000
0100
1000
,
0000
0000
0001
0000
1000
0000
0001
1000
0000
0000
0010
0000
0110
0000
0010
0100
,
0000
0000
0010
0000
1000
0000
0001
1000
0000
0000
0001
0000
1000
0000
0010
0100
,
0000
0000
0010
0000
0100
0000
0010
1000
0000
0000
0100
0000
1100
0000
1000
0100
,
0000
0000
0001
0000
0100
0000
0010
0100
0000
0000
0010
0000
0011
0000
0000
0000
,
0110
0000
0110
0000
1001
0000
0010
0001
,
0100
0001
0010
0100
0010
0000
0110
0000
,
0000
1001
0000
0000
0000
0000
0010
0000
,
0100
0000
0010
0100
1000
0000
0110
0000
,
0000
0101
0000
0000
0000
0000
1000
0000
,
0010
0000
0100
0001
0010
0000
0110
0000
,
0000
0110
0000
0000
0000
0000
0010
0100
,
1000
0000
1000
0001
1000
0000
0011
0000
,
0000
1010
0000
0000
0000
0000
0010
0001
,
1000
0000
0101
0000
0110
0000
1000
0010
,
1000
0000
1100
0000
0110
0000
0010
0100
,
1000
0000
0110
0000
1100
0000
1000
0001
,
0010
0000
0011
0000
0110
0000
0001
1000
,
0100
1000
0100
1000
0001
0000
0100
0010
,
0100
0010
0001
1000
0100
0000
0100
1000
,
0010
0100
0010
0100
0010
0000
0100
0000
,
0010
0000
0001
0000
0100
0000
0010
1000
,
0001
0000
0000
0000
0110
0000
0000
1100
0000
0110
0000
0000
0010
0000
0100
0000
,
0001
0000
0000
0000
1100
0000
0000
1001
0000
1001
0000
0000
0010
0000
1000
0000
,
0100
0000
0000
0000
0011
0000
0000
0110
0000
0011
0000
0000
0100
0000
1000
0000
,
0100
0000
0000
0000
0011
0000
0000
0110
0000
0011
0000
0000
0001
0000
0100
0000
,
0010
0000
0000
0000
1010
0000
0000
0110
0000
1001
0000
0000
0001
0000
0100
0000
,
0001
0000
0000
0000
0011
0000
0000
0110
0000
1100
0000
0000
0001
0000
1000
0000
,
0100
0000
0000
0000
0101
0000
0000
1001
0000
1010
0000
0000
0010
0000
1000
0000
,
0100
0000
0000
0000
0110
0000
0000
0110
0000
0110
0000
0000
0010
0000
1000
0000
,
0100
1000
0100
0010
0100
0010
0000
1000
,
0100
1000
0010
1000
0001
0010
0000
0100
,
0001
0100
0010
0100
0001
1000
0010
0000
,
0100
0001
0010
0110
;

//--------------- dance-single - B. M'Rey ----------------
#NOTEDATA:;
#STEPSTYPE:dance-single;
#DESCRIPTION:B. M'Rey;
#CREDIT:B. M'Rey;
#DIFFICULTY:Challenge;
#METER:14;
#RADARVALUES:0.73,0.783,0.534,0,0.743;
#NOTES:
0000
0000
0000
0000
,
0000
0000
0000
0000
,
0000
0000
0000
0000
0000
0000
0000
0000
0000
0000
0000
0000
0001
0100
0000
0010
,
0000
1000
0010
1000
0010
1000
0000
0100
0000
0001
0100
0010
1000
0100
0000
0010
,
0000
0100
0001
0010
0100
1000
0000
0010
0000
0100
0001
0100
1010
0100
0000
0010
,
0000
0001
0010
0001
0010
0001
0000
0100
0000
1000
0100
0010
0001
0100
0000
0010
,
0000
0100
1000
0010
0100
0001
0000
0010
0000
0100
1000
0100
0010
0001
0000
0010
,
0000
0100
0001
1000
0010
0100
0000
0010
0000
0001
0010
0100
0010
1000
0000
0100
,
0000
0001
0010
0100
0010
1000
0000
0100
0000
0001
0010
0100
0010
0001
0000
1000
,
0000
0010
0100
0001
0010
1000
0000
0100
0000
0001
0010
0100
0010
0000
0000
0000
,
1100
0000
0110
0000
0101
0000
1000
0010
,
0100
0001
0010
0100
0000
0000
1001
0000
,
0000
1001
0000
0000
0000
0000
0010
0100
,
0010
1000
0100
0001
0000
0000
1100
0000
,
0000
0110
0000
0000
0000
0000
0001
1000
,
0010
0100
0010
0001
0000
0000
0110
0000
,
0000
0101
0000
0000
0000
0000
0010
1000
,
0100
0001
0100
0010
0000
0000
1100
0000
,
0000
0000
0101
0000
0000
0000
0000
0000
0000
0000
0000
0000
1000
0100
1000
0100
,
0010
0000
0100
0000
0001
0000
0010
0000
0100
0000
0010
0000
0001
0010
0001
0010
,
0001
0000
0010
0000
0100
0000
1000
0000
0010
0000
0100
0000
0010
0100
0010
0100
,
0010
0000
0001
0000
0010
0000
0100
0000
0010
0000
1000
0000
0001
0010
0001
0010
,
0001
0010
0100
0000
0010
0000
1000
0000
0001
0000
0010
0000
1000
0100
1000
0000
,
0110
0000
0011
0000
0110
0000
1100
0000
0110
0000
0101
0000
0100
0010
0100
0000
,
0011
0000
1010
0000
0110
0000
0101
0000
0110
0000
1010
0000
0100
0010
0100
0000
,
0011
0110
0011
1010
0110
0011
1000
0000
,
0001
0000
0000
0000
0100
0000
1000
0100
0000
0001
0000
0010
0100
0010
0100
0010
,
0100
0000
0001
0000
1000
0100
1000
0100
1000
0000
0010
0000
0100
0010
0100
0010
,
0100
0000
0001
0000
0010
0001
0010
0001
0010
0000
0100
0000
0010
1000
0010
1000
,
0010
0000
0100
0000
0010
0100
0010
0100
0010
0000
0001
0000
0010
0100
0010
0100
,
0010
0000
1000
0000
0001
0100
0001
0100
0001
0000
0010
0000
0001
0100
0001
0100
,
0001
0000
0010
0000
0010
1000
0010
1000
0010
0000
0100
0000
0010
0100
0010
0100
,
0010
0000
0100
0000
0001
0010
0001
0010
0001
0000
0010
0000
1000
0010
1000
0010
,
1000
0000
0100
0000
0010
0100
0010
0100
0010
0000
0001
0000
0010
0001
0010
0001
,
0010
0000
0100
0000
0010
0100
0010
0100
0010
0000
0001
0000
0010
0000
0010
0000
,
0010
0010
0010
0010
0010
0000
0110
0100
,
0100
0100
0100
0100
0100
0000
0011
0001
,
0001
0001
0001
0001
0001
0000
1001
0000
,
1001
1001
1001
0110
;
