#TITLE:Poison Arrows Mix;
#SUBTITLE:(BOSS RUSH IV);
#ARTIST:D34D M34T;
#TITLETRANSLIT:;
#SUBTITLETRANSLIT:;
#ARTISTTRANSLIT:;
#CREDIT:;
#BANNER:BOSS4.png;
#BACKGROUND:BOSS4-bg.png;
#LYRICSPATH:;
#CDTITLE:./CDTITLES/DANCE DANCE REVOLUTION EXTREME.PNG;
#MUSIC:BOSS4.ogg;
#OFFSET:-0.253;
#SAMPLESTART:74.890;
#SAMPLELENGTH:12.000;
#SELECTABLE:YES;
#DISPLAYBPM:*;
#BPMS:0.000=270.000,88.000=135.000,92.000=270.000,148.000=135.000,152.000=270.000,174.000=135.000,178.000=270.000,324.000=260.000,388.000=250.000,484.000=62.499,488.000=250.000,552.000=124.999,572.000=119.999,576.000=114.999,580.000=109.999,584.000=200.000,600.000=399.998,664.000=200.000,692.000=399.998,700.000=199.999,726.000=399.997,918.000=199.999,950.000=399.997,1046.000=299.998,1056.000=319.999,1184.000=299.998,1344.000=279.999,1376.000=299.998,1408.500=144.999,1424.000=314.998,1448.000=299.998,1456.500=139.998,1465.000=99.998,1466.000=169.998,1568.000=84.998,1583.500=339.997,1711.000=169.998,1744.000=299.998,1949.000=179.998,1993.000=301.997,2057.000=610.003,2181.000=149.998;
#STOPS:584.000=0.650
,701.000=0.150
,702.500=0.150
,703.500=0.150
,705.000=0.150
,706.000=0.150
,707.500=0.150
,709.000=0.150
,713.500=0.150
,715.000=0.150
,716.000=0.150
,717.500=0.150
,718.500=0.150
,1046.000=1.000
,1466.000=0.440
,1583.500=0.340
,1949.000=1.400
;
#BGCHANGES:;

//---------------dance-single - ----------------
#NOTES:
     dance-single:
     :
     Easy:
     6:
     0.469,0.966,0.454,0.230,0.003:
0000
0000
0000
0000
,
0000
0000
0000
0000
,
0000
0000
0000
0000
,
0000
0000
0000
0000
,
0000
0000
0000
0000
,
0000
0000
0000
0000
,
0000
0000
0000
0000
,
0000
0000
0000
0000
,
0010
1000
0010
0000
,
0001
0000
0100
0000
,
1000
0000
0010
0000
,
0001
0000
0100
0010
,
0000
1000
0000
0000
1000
0000
0000
0001
,
0000
0001
0000
0100
,
0010
0000
1000
0000
,
0001
0000
0000
0100
,
0010
1000
0010
0000
,
0100
0000
0000
0001
,
0100
0000
0010
0000
,
1000
0000
1000
0100
,
1000
0001
1000
0000
,
0010
0000
0000
0100
,
0001
0000
0000
0000
0001
0000
0000
0000
0000
1000
0000
0000
0000
1000
0000
0000
,
0100
0010
0001
0000
,
1000
0000
1000
0000
,
0100
0010
1000
0000
,
0001
0000
0001
0000
,
0100
0010
0100
0000
,
1000
0000
1000
0000
,
0001
0000
0001
0000
,
0100
0010
0000
1001
,
1000
0001
1000
0000
,
0100
0010
0000
1001
,
0001
1000
0001
0000
,
0100
0010
0000
1001
,
1000
0100
0010
0000
,
0001
0000
1000
0000
0000
1000
0000
0000
,
0100
0000
0000
0000
0000
0000
0010
0000
0000
1000
0000
0000
0000
0000
0000
0000
,
1000
0100
0000
0001
,
0100
0000
1000
0010
,
0000
0001
0010
0000
,
1000
0001
0000
0001
,
1000
0000
0100
0010
,
0000
0001
0101
1010
,
1100
0011
0001
0100
,
0000
1000
0100
0000
,
1000
0010
0000
0001
,
0010
0000
1000
0100
,
0000
1000
0010
0000
,
0001
0100
0000
0001
,
0010
0000
1000
0100
,
1000
0000
0001
0010
,
0001
0000
0100
0001
,
0100
0000
0010
1000
,
0010
0000
1000
0001
,
1000
0000
0100
0010
,
0100
0000
0010
0001
,
1000
0000
0100
0100
,
0000
0010
0010
0000
,
0001
0001
0000
1000
,
1000
0000
0010
0010
,
0000
0100
0100
0000
,
0001
1000
0000
0020
,
0000
0000
0000
0000
,
0000
0000
0000
0030
,
0001
0100
0001
0000
,
1000
0000
1000
0000
,
0100
0000
0100
0010
,
0001
0000
1000
0001
,
1000
0000
0010
0000
,
0010
0000
0100
0000
,
0001
0100
0001
0000
,
1000
0000
0000
0001
,
1000
0100
1000
0000
,
0001
0000
0001
0100
,
0000
0010
0000
1000
,
0100
0000
0001
0010
,
0000
0001
0000
0000
1000
0000
0000
0001
,
0000
0000
0100
0000
0000
0001
0000
0000
,
0000
0100
0000
0010
0000
0100
0000
0000
,
0001
0000
1000
0001
,
1000
0100
0000
0001
,
0000
0001
0000
1000
,
0001
0100
0000
1000
,
0000
1000
0000
0001
,
1000
0010
0000
0001
,
0000
0001
0000
1000
,
0001
0010
0000
1000
,
0000
1000
0000
0001
,
1000
0100
0000
0001
,
0000
0001
0000
1000
,
0001
0100
0000
1000
,
0000
1000
0000
0001
,
1000
0010
0000
0001
,
0000
0001
0000
1000
,
0010
0000
0000
0010
0000
0000
0100
0000
,
0000
0100
0000
0000
0000
0000
0001
0000
,
1001
0000
0000
0000
,
0110
0000
0000
0000
,
1001
0000
0000
0000
,
0110
0000
0000
0000
,
1000
0000
0001
0000
,
1000
0000
0100
0000
,
0001
0000
1000
0000
,
0001
0000
0100
0000
,
0010
1000
0100
0000
,
0010
0001
0100
0000
,
0010
1000
0100
0000
,
0010
0001
0100
0000
,
1100
0000
0000
0000
,
1001
0000
0000
0000
,
0101
0000
0000
0000
,
1001
0000
0000
0000
,
1000
0000
1000
0000
,
0020
0000
0030
0000
,
0001
0000
0001
0000
,
0001
0000
0100
0000
,
0001
0000
0001
0000
,
0020
0000
0030
0000
,
1000
0000
1000
0000
,
1000
0000
0100
0000
,
2002
0000
3003
0000
,
2000
0000
0000
0000
,
3000
0000
0100
0100
,
0020
0000
0000
0000
,
0030
0000
0001
0000
,
0002
0000
0000
0000
,
0003
0000
0100
0000
,
0020
0030
0000
2000
,
0000
0000
3000
0000
,
0002
0000
0000
0000
,
0003
0000
0100
0100
,
0020
0000
0000
0000
,
0030
0000
1000
0000
,
2000
0000
0000
0000
,
3000
0000
0100
0000
,
0020
0030
0000
0002
,
0000
0000
0003
0000
,
1000
0100
1000
1001
,
0001
0100
0001
1001
,
1000
0010
1000
1001
,
0001
0010
0001
1001
,
1000
1000
0100
0010
,
0001
0001
0100
0010
,
1000
1000
0010
0100
,
0001
0001
0010
0100
,
1001
1000
0100
0001
,
0100
0010
0001
1000
,
0010
0001
0010
1000
,
0001
0010
0100
1000
,
0001
0000
0100
0000
,
1000
0000
0010
0000
,
0100
0000
0001
0000
,
0010
0000
1000
0000
,
0100
0000
0010
0000
,
0001
0000
1000
0000
,
0010
0000
0001
0000
,
0100
0000
0010
0000
,
0001
0000
0100
0000
,
0010
0000
0100
0000
,
0001
0000
0100
0000
,
1000
0000
0100
0000
,
0010
0000
1000
0000
,
0100
0000
0010
0000
,
0001
0000
0100
0000
,
1000
0000
0100
0000
,
1001
1000
0010
0100
,
0001
0100
0010
1000
,
0110
0000
0000
1010
0000
1001
0000
0101
,
0000
0110
0110
0110
,
1001
0001
0010
0100
,
1000
0100
0010
0001
,
0110
0000
0000
0011
0000
0110
0000
1100
,
0000
0000
1001
0000
,
1001
0000
1001
0000
,
1000
0100
1000
0000
0001
0100
0000
0010
,
0000
0001
0100
0000
1000
0000
1000
0100
,
0000
0010
1000
0000
0001
0000
0100
0000
,
1000
0000
0010
0000
0000
1000
0001
0000
,
0010
0000
0100
0010
0000
0100
0000
0000
,
0001
0100
1000
0010
,
0001
0010
1001
0000
,
0100
0000
0100
0000
,
0001
0000
0010
0000
,
0100
0000
1000
0000
,
1000
0000
0001
0000
,
1010
0000
1010
0000
,
1010
0000
1001
0000
,
1001
0000
1001
0000
,
0010
0000
0010
0000
,
0100
0000
1000
0000
,
1000
0000
0010
0000
,
0100
0000
1001
0000
,
1001
0000
0101
0000
,
0101
0000
0101
0000
,
1000
0000
1000
0000
,
0001
0000
0100
0000
,
0100
0000
0001
0000
,
1001
0000
1001
0000
,
1001
0000
1100
0000
,
1100
0000
1100
0000
,
0100
0000
0010
0000
,
0001
0000
0011
0000
,
0011
0000
0011
0000
,
1000
0000
1000
0000
,
1000
0000
0101
0000
,
0101
0000
1000
0000
,
1000
0000
0010
0000
,
0010
0000
1001
0000
,
1001
0000
0010
0000
,
0010
0000
0110
0000
,
0110
0000
0101
0000
,
0101
0000
0010
0000
,
0010
0000
1001
0000
,
1010
0000
1100
0000
,
1001
0000
1010
0000
,
1100
0000
0010
0000
,
0001
0000
1001
0000
,
1001
0000
0001
0000
,
0101
0000
0101
0000
,
0010
0000
1010
0000
,
1010
0000
0011
0000
,
1010
0000
1001
0000
,
1001
0000
0101
0000
,
0101
0000
1100
0000
,
0101
0000
0110
0000
,
0011
0000
1100
0000
,
0101
0000
1100
0000
,
0011
0000
1010
0000
,
0011
0000
1001
0010
,
0100
0001
1000
0010
,
0100
0001
2000
0100
,
0100
3100
0002
1000
,
1000
1003
0200
0010
,
0010
0310
0002
0100
,
0100
0103
2000
0010
,
0010
3010
0200
0001
,
0001
0301
0101
0000
,
0000
1001
0000
0000
,
1100
0000
0000
1001
,
0000
0000
0110
0000
,
0110
0000
1010
0000
,
0000
1001
0000
0000
,
0011
0000
0000
1001
,
0000
0000
0110
0000
,
0110
0000
1010
0000
,
0000
1100
0000
0000
,
0011
0000
0000
0101
,
0000
0000
0000
0010
,
0000
0010
0001
0010
,
0000
0001
0000
0001
,
0000
1000
0000
0001
,
0000
0100
0000
0010
,
0000
1000
0000
0100
,
0000
0010
0000
0010
,
0000
1000
0100
1000
,
0000
0001
0000
0001
,
0000
0100
0000
0001
,
0100
0001
0100
0000
,
0010
0000
0000
1000
,
0000
0100
0000
0010
,
0000
0000
0000
0000
0000
0000
0100
0000
0000
0000
0000
0000
2002
0000
0000
0000
0000
0000
0000
0000
0000
0000
0000
3003
,
0000
0000
0000
0000
,
0000
0000
0000
0000
,
0100
0000
1001
0000
,
0010
0000
1001
0000
,
0100
0000
1001
0000
,
0010
0010
1001
0000
,
0100
0000
0100
0000
,
0010
0000
0010
0000
,
0100
0000
0100
0000
,
0001
0001
1000
1000
,
0110
0000
1001
0000
,
0110
0000
1001
0000
,
0110
0000
1001
0000
,
0110
0110
1001
0000
,
1100
0000
0101
0000
,
1100
0000
0101
0000
,
1100
0000
0101
0000
,
1100
1001
0101
1001
,
0010
0000
0000
1100
0000
0000
0000
0000
,
1000
0000
0000
0101
0000
0000
0000
0000
,
0010
0000
0000
1100
0000
0000
0000
0000
,
2002
0000
0000
3003
,
0010
0000
0000
1100
0000
0000
0000
0000
,
1000
0000
0000
0101
0000
0000
0000
0000
,
0010
0000
0000
1100
0000
0000
0000
0000
,
0220
0330
2002
3003
,
1100
0000
0000
1100
0000
0000
0000
0000
,
0011
0000
0000
0011
0000
0000
0000
0000
,
1001
0000
0000
1001
0000
0000
1001
0000
,
0110
2002
0000
3003
,
1010
0000
0000
1010
0000
0000
0000
0000
,
0101
0000
0000
0101
0000
0000
0000
0000
,
0110
0000
0000
0110
0000
0000
0110
0000
,
1001
0220
0000
0330
,
1100
0000
1100
0000
,
0010
0001
0010
0000
,
0011
0000
0011
0000
,
0100
1000
0100
1000
,
0110
0000
1001
0000
,
1000
0001
1000
0001
,
0010
0000
0000
2002
0000
0000
3003
0000
,
0100
0000
0000
2002
0000
0000
3003
0000
,
1000
0000
1000
0000
,
0001
0000
0001
0000
,
0010
0000
0010
0000
,
0100
0000
0100
0100
,
1000
0000
0001
0000
,
0010
0000
0100
0000
,
0100
0000
0010
0000
,
1000
0001
1000
0001
,
0010
0000
1001
0000
,
0010
0000
1001
0000
,
0010
0000
1000
0001
,
2002
0000
0000
3003
,
0100
0000
1001
0000
,
0100
0000
1001
0000
,
0100
0000
0001
1000
,
2002
0000
0000
3003
,
0010
0000
0011
0000
,
0010
0000
0011
0000
,
0010
0000
0011
0000
,
0010
0001
0010
0001
,
0100
0000
1100
0000
,
0100
0000
1100
0000
,
0100
0000
1100
0000
,
0100
1000
0100
1000
,
0010
0000
0011
0000
,
0100
0000
1100
0000
,
0010
0000
1001
0000
,
0010
0100
0010
0100
,
0010
0000
1100
0000
,
0100
0000
0011
0000
,
0100
0000
0110
0000
,
0010
1000
0001
0100
,
2002
0000
0000
0000
,
0000
0000
0000
3000
,
0200
0000
0300
0020
,
0000
0030
2000
3003
,
2002
0000
0000
0000
,
0000
0000
0000
0003
,
0200
0000
0300
0020
,
0000
0030
0002
3003
,
2200
0000
0000
3300
,
2002
0000
0000
3003
,
0202
0000
0300
2000
,
0000
3000
0020
0033
,
0022
0000
0000
0033
,
2002
0000
0000
3003
,
2200
0000
0300
0002
,
0000
0003
0020
3030
,
0202
0300
0020
0030
,
0200
0300
0020
0033
,
2200
0300
0020
0030
,
0200
0300
0020
3030
,
0202
0300
0020
0030
,
0200
0300
0020
0033
,
2200
0300
0020
0030
,
0200
0300
0020
3030
,
1100
0000
0101
0000
,
1100
0000
0101
0000
,
0010
1000
1010
0000
,
0001
0100
0101
0000
,
2200
3300
0202
0303
,
0022
0033
2020
3030
,
2002
0000
0000
0000
0000
0000
0000
0000
0000
0000
0000
3003
0000
0000
0000
0000
0000
0000
0000
0000
0000
0000
0000
0000
,
0101
0001
1000
0100
,
0000
1000
0100
0010
,
0000
0001
1000
0010
,
0000
0100
0001
0001
,
1000
1000
0010
0100
,
0000
0010
0100
0001
,
0000
0010
0100
1000
,
0000
0001
0010
0010
,
0100
0100
1000
0000
,
1001
0000
0010
0001
,
0100
0001
1000
0000
,
1001
0000
0100
1000
,
0010
1000
0001
0000
,
0110
0000
1000
0010
,
0100
0010
0001
0000
,
0110
0000
0001
0100
,
0010
0100
1000
0000
,
0010
0000
0001
0001
,
0010
0010
1000
0000
,
0100
0000
0001
0001
,
0100
0100
1100
0000
,
1001
0000
0110
0000
,
0101
0000
0011
0000
,
1100
0000
1000
0010
,
0100
0001
2000
0001
,
0001
3001
0002
1000
,
1000
1003
0200
0010
,
0010
0310
0020
0100
,
0100
0000
0130
0000
0000
0000
0000
1000
,
0000
0000
0000
0000
0000
0000
0000
0001
,
0000
0000
0000
0000
0000
0000
0000
0010
,
0000
0000
0000
0000
0000
0000
0000
0100
,
0000
0000
0000
1000
0000
0000
0000
0100
,
0000
0000
0000
1000
0000
0000
0000
0000
,
0000
0000
0000
0001
0000
0000
0000
0100
,
0000
0000
0000
0001
0000
0000
0000
0100
,
0000
0000
0000
0010
0000
0000
0000
0000
,
0000
0000
0000
1000
0000
0000
0000
0000
,
0000
0000
0000
0001
0000
0000
0000
0000
,
0000
0000
0000
1000
0000
0000
0000
0100
,
0000
0000
0000
0010
0000
0000
0000
0000
,
0000
0000
0000
0001
0000
0000
0000
0000
,
0000
0000
0000
1000
0000
0000
0000
0001
,
0000
0000
0000
0001
0000
0000
0000
1000
,
0000
0000
0000
1000
0000
0000
0000
0000
,
0000
0000
0000
0010
0000
0000
0000
0000
,
0000
0000
0000
0001
0000
0000
0000
0010
,
0000
0000
0000
1000
0000
0000
0000
0010
,
0000
0000
0000
0100
0000
0000
0000
0000
,
0000
0000
0000
1000
0000
0000
0000
0000
,
0000
0000
0000
0100
0000
0000
0000
0001
,
0000
0000
0000
0100
0000
0000
0000
0010
,
0000
0000
0000
1000
0000
0000
0000
0000
,
0000
0000
0000
0100
0000
0000
0000
0000
,
0000
0000
0000
0010
0000
0000
0000
0001
,
0000
0000
0000
0010
0000
0000
0000
0100
,
0000
0000
0000
1000
0000
0000
0000
0000
,
0000
0000
0000
0001
0000
0000
0000
0000
,
0000
0000
0000
0100
0000
0000
0000
0010
,
0000
0000
0000
1000
0000
0000
0000
0010
,
0000
0000
0000
0100
0000
0000
0000
0002
,
0000
0000
0000
0023
0000
0000
0000
0230
,
0000
0000
0000
2300
0000
0000
0000
3002
,
0000
0000
0000
1003
0000
0010
0000
0100
,
0000
0001
0000
0010
0000
0000
0000
0200
,
0000
0000
0000
2300
0000
0000
0000
3020
,
0000
0000
0000
0230
0000
0000
0000
0302
,
0000
0000
0000
1003
0000
0001
0000
0010
,
0000
0110
0000
0000
0000
0000
0000
0000
,
0000
0000
0000
0000
,
0000
0000
0000
0000
,
0000
0000
0000
0000
,
0000
1010
0100
1000
,
0100
0001
0100
0001
,
0100
0010
1000
0010
,
1000
0100
1000
0100
,
1000
1000
0001
1000
,
0001
1000
0100
0001
,
0100
1000
0100
0001
,
0100
1000
0001
0100
,
0001
0001
1000
0001
,
1000
0001
0100
1000
,
0100
0001
0100
1000
,
0100
0001
1000
0100
,
1000
1001
1001
0100
,
0100
0010
0001
1000
,
0001
1000
0100
0001
,
0100
1000
0100
1000
,
0001
1000
1000
0001
,
0001
0010
1000
0001
,
1000
0001
0100
1000
,
0100
0001
0100
0001
,
1000
0001
0100
0001
,
0100
1000
0100
1000
,
0100
0010
0001
0010
,
0001
0100
0001
0100
,
0001
0100
0001
1000
,
0010
1000
0010
0001
,
0010
0001
0010
0100
,
1000
0100
1000
0010
,
1000
1000
0100
1000
,
0100
0001
0100
0001
,
0100
0010
1000
0010
,
1000
0100
1000
0100
,
1000
0100
1000
0001
,
0010
0001
0010
1000
,
0010
1000
0010
0100
,
0001
0100
0001
0010
,
0001
2100
0000
0001
,
3000
0010
1000
0001
,
1000
0100
1000
0001
,
0100
0102
0000
1000
,
0003
0010
0001
1000
,
0001
0100
0001
1000
,
0100
2000
0001
0000
,
3010
1000
0001
1000
,
0100
0001
0010
0100
,
1000
0002
1000
0000
,
0013
0001
1000
0001
,
0100
0001
1000
0001
,
1000
1001
0000
0000
,
0000
0000
0000
0000
,
0000
0000
0010
0010
,
0010
0000
0001
0000
,
0001
0000
1000
0100
,
1000
0010
0100
0010
,
0100
0000
0001
0100
,
0001
0010
0100
0010
,
0100
0000
0010
0001
,
0100
1000
0001
0100
,
1001
0000
0010
0010
,
0010
1000
0100
0010
,
0001
1000
0100
0001
,
0100
1000
0001
0010
,
0001
1000
0010
0001
,
0010
0001
0100
0001
,
1000
0001
0100
1000
,
0100
0001
1000
0010
,
1000
0001
0010
1000
,
0010
1000
0100
0001
,
0010
1000
0010
0001
,
0010
1000
0001
0100
,
0001
1000
0100
0001
,
0100
0001
0010
0001
,
1000
0001
0010
1000
,
0010
0001
1000
0100
,
1000
0001
0100
1000
,
0100
0001
0000
0001
,
0000
1000
0000
0001
,
0000
0100
0000
0001
,
0000
1000
0000
0100
,
0000
1000
0000
1000
,
0000
0001
0000
1000
,
0000
0100
0000
1000
,
0000
0100
0000
0010
,
0000
0001
0000
0001
,
0000
1000
0000
0001
,
0000
0010
0000
0001
,
0000
1000
0000
0100
,
0000
1000
0000
1000
,
0000
0001
0000
1000
,
0000
0001
0000
1000
,
0000
0010
0000
0100
,
0000
0001
0000
0001
,
0000
1000
0000
0001
,
0000
0100
0000
0001
,
0000
1000
0000
0100
,
0000
1000
0000
1000
,
0000
0001
0000
1000
,
0000
0100
0000
1000
,
0000
0100
0000
0010
,
0000
0001
0000
0001
,
0000
1000
0000
0001
,
0000
0010
0000
0001
,
0000
1000
0000
0100
,
0000
1000
0000
1000
,
0000
0001
0000
1000
,
0000
0001
0000
0001
,
0000
2002
0000
0000
,
3003
0000
0000
0000
;

//---------------dance-single - ----------------
#NOTES:
     dance-single:
     :
     Medium:
     8:
     0.638,0.966,0.549,0.224,0.021:
0000
0000
0000
0000
,
0000
0000
0000
0000
,
0000
0000
0000
0000
,
0000
0000
0000
0000
,
0000
0000
0000
0000
,
0000
0000
0000
0000
,
0000
0000
0000
0000
,
0000
0000
0000
0000
,
1000
0100
0001
0100
,
1000
0010
0100
0001
,
0100
0010
1000
0001
,
0100
0000
0001
0000
0000
1000
0100
0000
,
0000
0001
0000
0000
0001
0000
0000
1000
,
0000
1000
0100
0010
,
0001
1000
0100
0000
,
0001
0000
0000
1001
,
0100
0010
0100
0001
,
1000
0000
0100
0000
0000
0010
0100
0000
,
0010
0001
0100
0010
,
1000
0000
0001
0000
0000
0100
0010
0000
,
1000
0100
0010
0001
,
0100
0000
0010
0000
0000
1000
0100
0000
,
1100
0000
0000
0000
0101
0000
0000
0000
0000
0100
0000
0000
0000
0100
0000
0000
,
0010
1000
0010
0001
,
0010
1000
0100
1000
,
0010
0100
0001
1000
,
0100
0010
0001
1000
,
0100
0001
0100
1000
,
0001
0100
0010
1000
,
0100
0000
0010
0000
0000
0001
1000
0000
,
0010
0000
1000
0100
0000
0000
0010
0000
,
0001
1000
0001
0100
,
0000
0010
0000
1000
0000
0100
0010
0000
,
0001
1000
0001
0010
,
0000
0100
0000
1000
0000
0010
0100
0000
,
0001
1000
0001
0100
,
0000
0010
0000
1000
0000
0100
0000
0000
,
1000
0000
1000
0000
0000
0000
0001
0000
0000
0001
0000
0000
0000
0000
0100
0000
,
0010
1000
0010
1000
,
0001
0100
0001
0100
,
0010
1000
0100
1000
,
0100
0010
0001
0010
,
0001
0100
0010
1000
,
0010
1000
1010
0110
,
0101
1001
1000
0100
,
0000
0010
0000
0001
0100
0000
0010
0000
,
1000
0100
0000
0000
0010
0001
0000
0000
,
0001
0100
0000
0000
0010
1000
0000
0100
,
0000
0010
0001
0000
0000
0001
0100
0000
,
0000
0100
0010
0000
0000
0010
1000
0000
,
0001
0000
0100
0010
0000
0000
1000
0000
,
1000
0100
1000
0001
,
0010
0001
0010
0100
,
1000
0001
0100
0010
,
1000
0001
0100
0010
,
1000
0001
0010
0100
,
1000
0010
0100
0001
,
0000
1000
0000
0001
0000
0100
0010
0000
,
0000
1000
0000
0001
0000
0010
0100
0000
,
0010
0001
0000
0000
1000
0000
0001
0100
,
0000
0000
0001
0000
1000
0100
0000
0000
,
0010
0000
0001
0100
0000
0000
0010
0000
,
1000
0001
1000
0000
0100
0000
0020
0000
,
0000
0000
0000
0000
,
0000
0000
0000
0030
,
0001
0100
1000
0100
,
0001
0100
1000
0100
,
0001
0000
0010
0000
0000
0001
1000
0000
,
0100
0100
1000
0010
,
1000
0000
0000
0001
0000
0100
0000
0000
,
0010
0000
0000
0100
0000
0000
0001
0000
,
1000
0100
1000
0000
1000
0001
1000
0000
,
0010
0000
0000
1001
,
1000
0100
0010
0001
,
1000
0010
0100
0001
,
1000
0000
0100
0000
0000
0010
0001
0000
,
0100
0010
1000
0010
,
0100
0001
0000
0000
0001
0000
0000
1000
,
0000
0000
1000
0000
0000
0100
0000
0000
,
0000
0010
0000
0010
0000
0010
0001
0000
,
1000
0100
1000
0001
,
1000
0100
0000
0000
0010
0000
0010
0000
,
0001
0100
0001
1000
,
0001
0100
0000
0000
0010
0000
0010
0000
,
1000
0100
1000
0001
,
1000
0010
0000
0000
0100
0000
0100
0000
,
0001
0010
0001
1000
,
0001
0010
0000
0000
0100
0000
0100
0000
,
1000
0010
1000
0001
,
1000
0100
0000
0000
0010
0000
0010
0000
,
0001
0100
1000
0100
,
0001
0100
0000
0000
0010
0000
0010
0000
,
1000
0100
0001
0100
,
1000
0010
0000
0000
0100
0000
0100
0000
,
0001
0010
1000
0010
,
0001
0000
0000
0001
0000
0000
1000
0000
,
0000
1000
0000
0000
0010
0000
0100
0000
,
0001
0001
1000
1000
,
0001
1000
0001
1000
,
0010
0010
0100
0100
,
0010
0100
0010
0100
,
0001
0010
0100
1000
,
0001
0010
0100
1000
,
0001
0001
1000
1000
,
0001
0001
1000
1000
,
0001
0000
1001
0000
,
1000
0000
1001
0000
,
0001
0000
1001
0000
,
1000
0000
1001
0000
,
0100
0100
0100
0100
,
1001
1001
1001
1001
,
0100
0100
0100
0100
,
1001
1001
1001
1001
,
1000
0001
1000
0001
,
0010
0100
0010
0000
0020
0000
0030
0000
,
0001
0100
0001
0100
0001
0000
1000
0000
,
0010
1000
0010
0100
,
0001
1000
0001
1000
,
0010
0100
0010
0000
0020
0000
0030
0000
,
1000
0100
1000
0100
1000
0000
0001
0000
,
0010
0001
0010
0100
,
2002
0000
0000
0000
0000
3003
0110
0110
,
2000
0000
0001
0000
,
3001
0000
0010
0100
,
1200
0000
0010
0010
,
0310
0000
0220
0330
,
2002
0000
0000
0000
,
0000
3003
0020
0000
,
0200
0000
0330
2002
,
0000
0000
0000
3003
,
0002
0000
1000
0000
,
1003
0000
0010
0100
,
0102
0000
0010
0010
,
0013
0000
0220
0330
,
2002
0000
0000
0000
,
0000
3003
0020
0000
,
0200
0000
0330
2002
,
0000
0000
0000
3003
,
0010
0000
1001
0000
0100
0010
0001
0100
,
0010
0000
1001
0000
0100
0010
1000
0100
,
0010
0000
0011
0000
0001
1000
0001
0100
,
0010
0000
1010
0000
1000
0001
1000
0100
,
0010
0000
0110
0000
0100
1000
0001
0100
,
0001
0000
1001
0000
0100
0001
1000
0100
,
1000
0000
0110
0000
0010
0001
0010
0100
,
1000
0000
1001
0000
1000
0001
1000
0001
,
1000
0010
0100
0000
1000
0010
0100
0000
,
0001
0010
0100
1000
0100
0010
0100
0000
,
0001
0100
0010
0000
0001
0100
0010
0000
,
0001
0100
0010
1000
0010
0100
0001
0000
,
0010
0001
1000
0000
,
1000
0100
0010
0000
,
0100
0010
0001
1000
,
0100
0000
1001
0000
,
0010
1000
0100
0000
,
0010
0100
0001
0000
,
0100
1000
0010
0100
,
0001
0100
0010
0000
,
1000
0010
0100
0000
,
0001
0100
0010
0000
,
1000
0100
0010
0001
,
0100
0000
1001
0000
,
0001
0100
1000
0000
,
0100
0010
0100
0000
,
0001
0010
0100
0010
,
0001
1000
0100
0000
,
0101
0000
1100
0000
0001
0100
0010
0000
,
1100
0000
0101
0000
0010
0100
1000
0000
,
0101
0000
0000
0011
0000
1010
0000
0110
,
0000
0000
0010
0001
0010
0001
1100
0000
,
0101
0000
0110
0000
1000
0010
0100
0000
,
0110
0000
0011
0000
0001
0010
0100
0000
,
0110
0000
0000
0110
0000
0011
0000
1010
,
0000
0000
0100
1000
,
0100
1000
0101
0000
,
0001
0100
1000
0000
0010
1000
0000
0010
,
0000
0001
0100
0000
1000
0000
0010
0100
,
0000
0001
1000
0000
0100
0010
1000
0010
,
0100
0001
1000
0010
0000
0100
0010
0000
,
0001
0000
1000
0001
0000
0100
0000
0001
,
1000
0100
0010
0001
0100
1000
0100
0001
,
0010
0100
1000
0010
1001
0000
0000
0000
,
0100
1000
0100
0000
,
0100
0001
0100
0000
,
0010
0001
0010
0100
,
1000
0100
0010
0000
,
0011
0000
1001
0000
,
1100
0000
1010
0000
,
0110
0000
0101
0000
,
0001
0100
0001
0100
,
0010
0000
1000
0100
,
1000
0100
0010
0100
,
1000
0000
1001
0000
,
0101
0000
0011
0000
,
1010
0000
0110
0000
,
0010
0001
1000
0001
,
0010
0000
0100
1000
,
0001
1000
0100
0000
,
0101
0000
1001
0000
,
1100
0000
0110
0000
,
0011
0000
1001
0000
,
0100
1000
0010
1000
,
0001
0000
0110
0000
,
1100
0000
0101
0000
,
0001
0100
1000
0100
,
0001
0000
1010
0000
,
1100
0000
0010
1000
,
0100
0000
0001
0100
,
0010
0000
0101
0000
,
0011
0000
0010
0100
,
1000
0000
1100
0000
,
0101
0000
0110
0000
,
1010
0000
1000
0010
,
0100
0000
0101
0000
,
1100
0000
0110
0000
,
0011
0000
1001
0000
,
0101
0000
0010
1000
,
0001
0000
1010
0000
,
1001
0000
0100
0000
,
0110
0000
0101
0000
,
0010
0000
1010
0000
,
0011
0000
0101
0000
,
1100
0000
0101
0000
,
0101
0000
1100
0000
,
1100
0000
1010
0000
,
0011
0000
0110
0000
,
1100
0000
1010
0000
,
0110
0000
0101
0000
,
0011
0000
1010
0000
,
0011
0000
1001
0010
,
0100
1000
0001
0000
1001
0000
0010
0000
,
0100
0001
1000
0000
1000
0000
0101
0000
,
0100
1000
0001
0000
0010
0000
1100
0000
,
0100
0001
1000
0000
0100
1000
0010
0000
,
0010
1000
0100
0000
0001
0010
0100
0000
,
0100
0010
0001
0000
0010
1000
0100
1000
,
0100
1000
0010
0100
0001
0010
0001
0010
,
0001
0100
0010
0000
0101
0000
0000
0000
,
1000
0100
0000
0100
,
1000
0000
1000
0010
,
0000
0010
0100
0000
,
0110
0000
0101
0000
,
0001
0010
0000
0010
,
0001
0000
0001
0100
,
0000
0100
0010
0000
,
1010
0000
1001
0000
,
0010
0100
0000
0100
,
0010
0000
1000
0100
,
0000
1000
0100
0010
,
0001
0000
1001
0000
,
1000
0100
0010
0000
,
0001
0100
1000
0000
,
0100
0010
1000
0000
,
0001
0100
0010
0000
,
1000
0001
0100
0000
,
1000
0100
0001
0000
,
1000
0010
0100
0000
,
0001
0010
0100
0000
,
1000
0100
0010
0000
,
0001
1000
0100
0000
,
0001
1000
0100
0010
,
0100
0000
0000
0000
0000
0000
2002
0000
0000
0000
0000
0000
0000
0000
0000
0000
0000
3003
0000
0000
0000
0000
0000
0000
,
0000
0000
0000
0000
,
0000
0000
0000
0000
,
0010
1000
0020
0000
,
0130
0001
0200
0000
,
0310
1000
0200
0000
,
0310
0001
1000
0100
,
0010
0001
0020
0000
,
0130
1000
0200
0000
,
0310
0001
0200
0000
,
0310
1000
0001
0100
,
0010
1000
0200
0000
,
0310
0001
0200
0000
,
0310
1000
0100
1000
,
0010
1000
0100
0010
,
0001
0100
0020
0000
,
1030
0100
0020
0000
,
0031
0100
0010
1000
,
0100
0010
0001
0100
,
1010
0000
0000
0101
0000
0000
1001
0000
,
0011
0000
0000
1100
0000
0000
1001
0000
,
0110
0000
0000
1001
0000
0000
0110
0000
,
1100
0202
0000
0303
,
1010
0000
0000
1100
0000
0000
1001
0000
,
0011
0000
0000
0101
0000
0000
1001
0000
,
0110
0000
0000
1001
0000
0000
0110
0000
,
1100
1001
0101
1001
,
1010
0000
0000
0011
0000
0000
1001
0000
,
0101
0000
0000
1100
0000
0000
1001
0000
,
0011
0000
0000
1010
0000
0000
1001
0000
,
0110
2002
0000
3003
,
0011
0000
0000
0110
0000
0000
1100
0000
,
1010
0000
0000
0110
0000
0000
0101
0000
,
1010
0000
0000
0011
0000
0000
0110
0000
,
1100
0202
0000
0303
,
0010
0001
0200
0000
,
0310
0000
1000
0000
0100
0010
0001
0000
,
0100
0010
2000
0000
,
3100
0000
0010
0000
0001
0100
0001
0000
,
1000
1000
0001
0001
,
0110
0000
0110
0000
1000
0001
1000
0000
,
1100
0000
0000
0011
0000
0000
1001
0000
,
0101
0000
0000
1010
0000
0000
1001
0000
,
0010
0000
0000
0202
0000
0000
0303
0000
,
0010
0000
0000
2200
0000
0000
3300
0000
,
0100
0000
0000
0022
0000
0000
0033
0000
,
0100
0000
0000
2200
0000
0000
3300
0000
,
0010
0000
0000
2002
0000
0000
3003
0000
,
0100
0000
0000
1001
0000
0000
0100
0000
,
0110
0000
0000
2002
0000
0000
3003
0000
,
0110
0000
0000
1001
0000
0000
0110
0000
,
0010
1000
0010
0001
,
0010
1000
0010
0001
,
0010
1000
0100
0010
,
2002
0000
0000
3003
,
0100
0001
0000
1000
,
0100
0001
0100
1000
,
0100
0010
1000
0001
,
2002
0000
0000
3003
,
0010
1000
0200
0000
,
0310
0001
0200
0000
,
0310
1000
0200
0300
,
2100
3100
0102
0103
,
0010
1000
0010
0000
,
0100
0001
0100
0000
,
0010
1000
0010
0000
,
0120
0130
2001
3001
,
0010
0001
1000
0000
,
0010
1000
0001
0000
,
0100
0001
1000
0000
,
1200
1300
0021
0031
,
0011
2100
0200
3300
,
1100
0012
0020
0033
,
1001
0120
0200
0330
,
1001
1100
1001
0101
,
0020
0000
0000
0000
0000
2000
0000
0000
,
0000
0000
0000
3000
0200
0000
0330
0000
,
0200
0000
0000
0000
0000
0002
0000
0000
,
0000
0000
0000
0003
0020
0000
0330
0000
,
2000
0000
0000
3200
,
0000
0000
0302
0000
,
0023
0000
0000
2030
,
0000
0000
0002
3003
,
0010
0001
0010
0001
,
1000
0100
1000
0100
,
0010
0001
1000
0100
,
0010
0002
2000
3003
,
0010
1000
0010
1000
,
0001
0100
0001
0100
,
0010
1000
0001
0100
,
0010
2000
0002
3003
,
0000
0000
0210
0000
0000
0010
0000
0000
0010
0000
0000
0010
0000
0000
0302
0000
,
0000
0000
0100
0000
0000
0100
0000
0000
0100
0000
0003
0100
0000
0000
2000
0000
,
0000
0000
0001
0000
0000
0001
0000
0000
0001
0000
3000
0001
0000
0000
0020
0000
,
0000
0000
1000
0000
0000
1000
0000
0000
1000
0000
0030
1000
0000
0000
1000
0000
,
1000
0010
1010
0000
,
0001
0010
0011
0000
,
1000
0010
0101
0000
,
0001
0010
1100
0000
,
0100
1000
0011
0000
,
0100
0001
1010
0000
,
0100
0010
1001
0000
,
1100
1001
0101
1001
,
0000
0000
2010
0000
0000
0100
0000
0000
0010
0000
0000
0001
0000
0000
3100
0000
,
0000
0000
0012
0000
0000
0100
0000
0000
0010
0000
0000
1000
0000
0000
0103
0000
,
2002
0000
0000
0000
0000
0000
0000
0000
0000
0000
0000
3003
0000
0000
0000
0000
0000
0000
0000
0000
0000
0000
0000
0000
,
2001
0000
3001
0002
0000
1000
1003
0000
,
0110
0000
0001
0000
1000
0010
0001
0000
,
0100
0000
0010
1000
0000
1000
0100
0000
,
0010
0000
0001
0000
1000
0100
0001
0000
,
0010
0000
0100
1000
0000
1000
0010
0100
,
0001
0000
1000
0000
0001
0010
1000
0000
,
0100
0000
0010
0001
0000
0001
0100
0000
,
0010
0000
1000
0000
0001
0100
1000
0000
,
0010
0000
0100
0001
0000
0001
0010
0100
,
1000
1010
0100
0101
,
1000
1100
0010
0011
,
0001
1000
0010
0000
0001
0100
1000
0100
,
0002
0000
0000
2003
0000
0100
3100
0000
,
1000
0101
0001
1100
,
1000
0011
0001
1010
,
0001
1000
0100
0000
0001
0010
1000
0010
,
0001
0000
1000
0010
0000
0100
0001
0000
,
1000
0000
0002
0000
0000
1003
0001
0000
,
0100
0000
0020
0000
0000
0130
0010
0000
,
1000
0000
0200
0000
0000
1300
0010
0100
,
0001
0000
1000
0100
0000
0010
0001
0000
,
0100
0000
0020
0000
0000
0130
0010
0000
,
1000
0000
0002
0000
0000
1003
0001
0000
,
0010
0000
0200
0000
0000
1300
0100
0010
,
0001
0000
1000
0010
0000
0100
0001
0000
,
1001
0000
0000
0000
1100
0000
0000
0000
0100
0000
0100
0000
0010
0000
0000
1001
,
0000
1001
0000
0000
0101
0000
0000
0000
0100
0000
0100
0000
0010
0000
0000
0000
,
1001
0000
0000
0000
0011
0000
0000
0000
0010
0000
0010
0000
0100
0000
0000
1001
,
0000
1001
0000
0000
0010
0000
0000
0000
0100
0000
0010
0100
0000
0110
0001
0000
,
0000
1000
0000
0100
0000
0000
0000
0010
,
0000
0000
0000
0100
0000
0100
0000
0000
,
0000
0010
0000
0010
0000
0000
0000
0001
,
0000
0000
0000
1100
0000
0000
0000
0010
,
0000
1000
0000
0001
0000
0000
0000
0010
,
0000
0100
0000
1000
0000
0000
0000
0001
,
0000
0000
0000
0010
0000
0010
0000
0000
,
0000
0100
0000
0100
0000
0000
0000
1000
,
0000
0010
0000
0001
0000
0000
0000
1000
,
0000
0010
0000
0001
0000
0000
0000
1000
,
0000
0100
0000
0001
0000
0000
0000
1000
,
0000
0000
0000
0101
0000
0000
0000
1000
,
0000
0100
0000
0001
0000
0000
0000
1000
,
0000
0010
0000
0001
0000
0000
0000
0000
,
0000
0100
0000
0000
0000
0100
0000
0000
,
0000
0011
0000
0000
0000
0000
0000
1100
,
0000
0000
0000
1000
0000
1000
0000
0000
,
0000
0001
0000
0001
0000
0000
0000
0100
,
0000
0000
0000
0010
0000
0100
0000
0001
,
0000
1000
0000
0100
0000
0000
0000
1000
,
0000
0000
0000
0001
0000
0001
0000
0000
,
0000
1000
0000
1000
0000
0000
0000
0010
,
0000
1000
0000
0010
0000
0000
0000
0100
,
0000
0001
0000
0100
0000
0010
0000
1000
,
0000
0000
0000
0100
0000
1000
0000
0100
,
0000
0010
0000
0001
0000
0000
0000
1000
,
0000
0000
0000
0100
0000
0010
0000
0001
,
0000
0010
0000
0100
0000
0000
0000
1000
,
0000
0000
0000
0010
0000
0100
0000
0001
,
0000
0100
0000
0010
0000
0000
0000
1000
,
0000
0001
0000
1000
0000
0001
0000
0010
,
0000
0100
0000
0010
0000
0100
0000
1000
,
0000
0000
0000
1001
0000
0000
0000
0110
,
0000
0000
0000
0101
0000
0000
0000
1100
,
0000
0000
0000
1000
0100
0010
0000
0001
,
0100
0010
0000
1000
0010
0100
0001
1000
,
0000
0000
0000
0110
0000
0000
0000
1001
,
0000
0000
0000
0011
0000
0000
0000
1010
,
0000
0000
0000
1000
0010
0100
0000
0001
,
0010
0100
0000
1000
0100
0010
0000
0000
,
0000
0000
0000
0000
,
0000
0000
0000
0000
,
0000
0000
0000
0000
,
0000
0000
1010
0000
0001
0000
0000
0010
,
0000
1000
0000
0010
0000
0001
0000
0010
,
0000
0001
0000
0010
0000
0100
0000
1000
,
0000
0001
0100
0000
1000
0000
0010
0000
,
1000
1000
0101
0001
,
0100
1000
0100
0001
,
0100
0001
1100
1000
,
0100
1000
0001
0100
,
0001
1000
0001
0000
1000
0000
0001
0000
,
1000
0001
0100
1000
,
0100
1001
0010
1001
,
0100
0110
0010
0110
,
0001
1000
0001
1000
,
0100
0010
0001
1000
,
0001
1000
0100
0001
,
0100
1000
0100
1000
,
0001
1000
0001
0000
1000
0000
0001
0000
,
0001
0010
1000
0001
,
1000
0000
0001
0010
0100
1000
0001
0010
,
0100
1100
1000
0001
,
0100
0000
0100
0000
1000
0100
1000
0000
,
0100
0010
1000
0010
,
1000
0001
0100
0001
,
0100
1000
0100
1000
,
0100
0000
1000
0000
0100
0000
0000
0001
,
0000
0010
0000
0001
0000
0100
0000
0001
,
0000
0100
0000
0001
0000
1000
0000
0010
,
0000
0100
0001
0000
0010
0000
0001
0000
,
0010
0000
1000
0000
0100
1000
0100
0000
,
1000
0001
0100
0001
,
0100
0010
1000
0010
,
1000
0100
1000
0100
,
1000
0000
0100
0000
1000
0000
0000
0010
,
0000
0001
0000
0010
0000
1000
0000
0010
,
0000
1000
0000
0010
0000
0100
0000
0001
,
0000
1000
0100
1000
0001
0100
0010
1000
,
0001
2100
0000
3001
,
0001
0100
0001
1000
,
0100
0000
1000
0001
1000
0000
0001
0000
,
0100
0010
1000
0001
,
0001
0100
0001
0000
0001
0000
1000
0000
,
0001
0100
0001
1000
,
0100
0102
0000
1003
,
1000
0100
1000
0001
,
1000
0100
1000
0000
0001
0000
1000
0000
,
0100
0010
0001
1000
,
0001
0000
1000
0001
0010
0000
0001
0000
,
1000
0100
1000
0001
,
0100
1001
0010
0010
,
0010
0000
0001
0000
,
0001
1100
0001
0100
,
1000
0010
0100
0010
,
0100
0101
1000
0100
,
0001
0010
0100
0010
,
0100
0000
0010
0001
,
0100
0000
0010
0000
0000
0001
0000
0000
,
0100
0000
0000
0110
0000
1000
0100
0100
,
0100
0000
0010
0000
0000
1000
0000
0000
,
0100
0000
0000
0110
0000
0001
0100
0100
,
0100
0000
1000
0001
0100
0001
1000
0000
,
0001
0100
0001
1000
0000
0000
0001
1000
,
0100
1000
0001
0000
0100
0010
1000
0000
,
0000
0000
1000
0010
0100
0001
0010
0100
,
1000
0001
1000
0000
0100
0000
0001
0000
,
1000
0001
0100
1000
,
0100
0001
1000
0010
,
1000
0000
0001
0010
0100
1000
0010
0100
,
0001
1000
0001
0000
0100
0000
0001
0000
,
0010
1000
0010
0001
,
0010
1000
0001
0100
,
0001
0000
1000
0001
0010
0001
1000
0010
,
1000
0100
0001
0000
0000
0000
0000
0000
,
0000
0101
0000
0000
,
0000
1100
0000
0000
,
0000
1100
1100
0101
,
0101
0001
0000
0001
,
0000
1000
0100
1000
,
0000
0100
0000
0001
,
0000
1000
0000
0100
,
0000
1000
0000
1000
,
0000
0001
0100
0001
,
0000
0100
0000
1000
,
0000
0100
0000
0010
,
0000
0001
0000
0001
,
0000
1000
0100
0010
,
0000
0001
0000
0001
,
0000
0010
0001
1000
,
0000
0010
0000
0010
,
0000
0100
1000
0001
,
0000
0001
0000
1000
,
0000
0010
0000
0100
,
0000
0001
0000
0001
,
0000
1000
0001
1000
,
0000
0100
0000
0001
,
0000
1000
0000
0100
,
0000
0000
0000
0001
,
0000
1000
0100
1000
,
0100
0010
0000
0001
,
0000
0100
0000
0010
,
0000
0000
0000
0100
,
0000
0001
0100
0001
,
0100
0010
0000
1000
,
0000
1000
0000
0100
,
0000
1000
0100
1000
,
0100
0001
0100
0001
,
0100
0001
1000
0001
,
1000
2002
0000
0000
,
3003
0000
0000
0000
;

//---------------dance-single - ----------------
#NOTES:
     dance-single:
     :
     Hard:
     10:
     0.917,1.000,0.482,0.175,0.063: // measure 1
0000
0000
0000
0000
,  // measure 2
0000
0000
0000
0000
,  // measure 3
0000
0000
0000
0000
,  // measure 4
0000
0000
0000
0000
,  // measure 5
0000
0000
0000
0000
,  // measure 6
0000
0000
0000
0000
,  // measure 7
0000
0000
0000
0000
,  // measure 8
0000
0000
0000
0000
,  // measure 9
1000
0100
1000
0000
0010
0000
0010
0000
,  // measure 10
1000
0100
1000
0001
0010
0000
0010
0000
,  // measure 11
0001
0100
0010
1000
0100
0000
0001
0000
,  // measure 12
1000
0000
0100
0000
1000
0001
0010
0000
,  // measure 13
1000
0100
0000
0001
0100
0000
1000
0100
,  // measure 14
0000
0001
0100
0000
0010
1000
0001
0000
,  // measure 15
1000
0000
0100
0000
0001
0010
0100
1000
,  // measure 16
0000
0000
0010
0001
,  // measure 17
0010
0001
1000
0001
0010
0000
0100
0000
,  // measure 18
1000
0000
1000
0000
0000
0001
0100
0000
,  // measure 19
0010
1000
0001
1000
0010
0000
0100
0000
,  // measure 20
0001
0000
0001
0000
0000
1000
0100
0000
,  // measure 21
0010
0001
0001
1000
,  // measure 22
1000
0000
0010
0000
0000
0010
0100
0010
,  // measure 23
1000
0001
0000
0000
0001
1000
0000
0000
0000
0100
0000
0100
0000
0010
0000
0010
,  // measure 24
0001
0100
0001
0100
0010
0000
0010
0000
,  // measure 25
1000
0100
1000
0000
0001
0000
0001
1000
,  // measure 26
0100
0010
0001
0000
0001
0100
0010
0000
,  // measure 27
1000
0100
0010
0100
0000
1000
0001
0000
,  // measure 28
0100
0010
1000
0000
0100
0010
0001
0000
,  // measure 29
1000
0010
0100
0001
0000
0001
0100
0000
,  // measure 30
0010
0000
1000
0100
0000
0010
0001
1000
,  // measure 31
0010
0000
0100
0001
0000
0000
0100
0000
,  // measure 32
0010
1000
0010
0000
0100
0001
0100
0000
,  // measure 33
0001
0000
1000
0010
0000
0100
0001
0000
,  // measure 34
0010
0001
0010
0000
0100
1000
0100
0000
,  // measure 35
1000
0000
0001
0100
0000
0010
1000
0000
,  // measure 36
1000
0001
1000
0000
0001
1000
0001
0000
,  // measure 37
0100
0000
0100
0010
0000
0010
0000
0000
,  // measure 38
1000
0100
1000
0100
0000
0000
0010
0001
0000
0001
0010
0000
0000
0000
0110
0000
,  // measure 39
1000
0001
1000
0100
0010
0000
0010
0000
,  // measure 40
0001
0000
0100
0010
1000
0100
0010
0001
,  // measure 41
1000
0000
0100
0010
0100
0000
0010
0001
,  // measure 42
0010
0000
0100
1000
0100
0000
0010
0001
,  // measure 43
0100
0010
1000
0000
0001
1000
0001
0000
,  // measure 44
0010
0100
0010
0000
1001
0000
0110
0000
,  // measure 45
1001
0000
0110
0000
1000
0100
1000
0100
,  // measure 46
0000
0010
0001
0010
0100
0010
0000
0001
,  // measure 47
0100
0001
0000
0010
0100
0010
0000
0100
,  // measure 48
1000
0100
0000
1000
0100
1000
0001
0000
,  // measure 49
1000
0100
0010
0000
0001
0100
0010
0000
,  // measure 50
1000
0100
0010
0000
0001
0100
0010
1000
,  // measure 51
0100
0000
0010
0001
0010
0001
1000
0000
,  // measure 52
0010
0000
0100
0001
0100
0001
1000
0000
,  // measure 53
0010
0000
0100
0001
0100
0001
1000
0000
,  // measure 54
0100
0000
0010
0001
0010
0001
1000
0000
,  // measure 55
0010
0000
0100
0001
0100
0010
1000
0000
,  // measure 56
0100
0000
0010
0001
0010
0100
1000
0000
,  // measure 57
0100
0000
0010
0001
1000
0100
0010
0000
,  // measure 58
0001
0100
0001
0100
0000
0010
1000
0000
,  // measure 59
1000
0100
1000
0100
0000
0010
0001
0000
,  // measure 60
0001
0100
0001
0100
0010
0000
1000
0100
,  // measure 61
0010
0001
0010
0000
0100
1000
0100
0010
,  // measure 62
0001
0000
0100
0010
1000
0100
0010
0000
,  // measure 63
0001
0100
0010
1000
0100
0000
0002
2000
,  // measure 64
0000
0000
0000
0000
,  // measure 65
0000
0000
0000
3003
,  // measure 66
1000
0100
1000
0000
0001
0000
0001
0000
,  // measure 67
0001
0100
0001
0000
1000
0100
1000
0000
,  // measure 68
0001
0010
0001
0000
0000
1000
0010
0000
,  // measure 69
1100
0011
0100
0110
,  // measure 70
0010
0001
0000
0001
1000
0000
1000
0100
,  // measure 71
0000
0100
0010
0000
0001
0000
1000
0000
,  // measure 72
1100
0110
0011
1001
,  // measure 73
0200
0000
0000
0300
,  // measure 74
0001
0100
0001
0000
1000
0000
1000
0000
,  // measure 75
0001
0000
0001
0000
1000
0010
1000
0000
,  // measure 76
0010
0100
0010
0000
0000
1000
0100
0000
,  // measure 77
1100
0110
0011
1001
,  // measure 78
1000
0001
0000
0001
0100
0000
0100
0010
,  // measure 79
0000
0010
1000
0000
0000
0001
0000
0000
,  // measure 80
0000
0100
0000
0100
0000
0100
0010
0000
,  // measure 81
1000
1001
0001
1001
,  // measure 82
1000
0100
1000
0100
0001
0100
0001
0100
,  // measure 83
0010
0001
1000
0100
0000
1000
0010
0100
,  // measure 84
0001
0100
0001
0100
1000
0100
1000
0100
,  // measure 85
0010
1000
0100
0010
0001
1000
0001
0000
,  // measure 86
1000
0010
1000
0010
0001
0010
0001
0010
,  // measure 87
0100
0001
1000
0010
0000
1000
0100
0010
,  // measure 88
0001
0010
0001
0010
1000
0010
1000
0010
,  // measure 89
0100
1000
0010
0100
0001
1000
0001
0000
,  // measure 90
0001
0100
0010
0100
1000
0100
0010
0100
,  // measure 91
0001
1000
0010
0100
0000
0001
0010
0100
,  // measure 92
1000
0100
0010
0100
0001
0100
0010
0100
,  // measure 93
1000
0001
0100
0010
1000
0001
1000
0000
,  // measure 94
0001
0010
0001
0100
0010
1000
0010
0100
,  // measure 95
0001
1000
0001
0010
0100
1000
0100
0010
,  // measure 96
0001
0100
0000
1000
0100
0000
0001
0010
,  // measure 97
0000
1000
0010
0000
0001
0100
0010
1000
,  // measure 98
1100
0101
1100
0101
,  // measure 99
0001
0010
0100
1000
0010
0100
0001
0000
,  // measure 100
0101
1100
0101
1100
,  // measure 101
1000
0001
0010
0100
0010
0001
0100
0000
,  // measure 102
0010
1000
0010
0100
0001
0010
0100
0000
,  // measure 103
1000
0010
0100
0001
0100
0010
1000
0000
,  // measure 104
0010
1000
0010
0100
0001
0010
0100
0010
,  // measure 105
0001
0100
0010
1000
0100
1000
0010
0000
,  // measure 106
0100
0001
0010
0100
1000
0010
0100
0010
,  // measure 107
1000
0100
0010
0001
1000
0001
0010
0100
,  // measure 108
0010
0001
0100
0010
1000
0001
0010
0100
,  // measure 109
1000
0100
0010
0001
1000
0010
0100
0000
,  // measure 110
0101
1010
1100
0011
,  // measure 111
1001
0110
1001
0110
,  // measure 112
1100
0011
0101
1010
,  // measure 113
0110
1001
0110
1001
,  // measure 114
1000
0001
1000
0010
0100
0001
1000
0001
,  // measure 115
0010
1100
0101
0000
,  // measure 116
1000
0010
1000
0001
0010
0001
0100
0000
,  // measure 117
0010
1000
0001
0010
0000
0001
0100
0010
,  // measure 118
1000
0100
1000
0001
0100
0001
0010
0100
,  // measure 119
1000
1010
0011
0000
,  // measure 120
0001
0010
0100
1000
0010
0100
0001
0000
,  // measure 121
1000
0100
1000
0001
0000
0010
0100
1000
,  // measure 122
2002
0000
0000
0000
0000
0000
0000
0000
0000
0000
3003
0000
1000
1000
0001
0001
,  // measure 123
0220
0000
0000
0000
0330
0000
0010
0100
,  // measure 124
1000
0001
0010
0100
1100
0000
0101
0000
,  // measure 125
2002
0000
0000
0000
3003
0000
1000
0001
,  // measure 126
0010
0100
1000
0010
0220
0000
0330
0000
,  // measure 127
2002
0000
0000
0000
3003
0000
0001
1000
,  // measure 128
0001
0100
0010
1000
2020
0000
3030
0000
,  // measure 129
0022
0000
0033
1001
,  // measure 130
1000
0001
1000
0001
1000
0001
0100
0000
,  // measure 131
0010
1000
0010
0100
0001
0100
0001
0010
,  // measure 132
0001
0100
0010
1000
0100
1000
0001
0000
,  // measure 133
0011
0000
1100
0100
0010
0001
1000
0000
,  // measure 134
1010
0000
0101
0001
1000
0100
0010
0001
,  // measure 135
1000
0010
0100
0001
0100
0010
1000
0001
,  // measure 136
0010
0100
1000
0001
1000
0010
0100
0001
,  // measure 137
1000
0100
0010
0100
1000
0001
0010
0000
,  // measure 138
0011
1100
1001
1001
,  // measure 139
1001
0000
0001
0000
1000
0000
0001
0010
0100
1000
0001
0000
0110
0000
0000
0000
,  // measure 140
1001
0000
1000
0000
0001
0000
1000
0010
0100
0001
1000
0000
0110
0000
0001
0000
,  // measure 141
1000
0000
0001
0000
1000
0000
0010
1000
0001
0100
0010
0000
1001
0000
0000
0000
,  // measure 142
0001
0000
1000
0000
0001
0000
0010
0001
1000
0100
0010
0000
1001
0000
1000
0000
,  // measure 143
0100
1000
0101
0001
0100
0001
1100
1000
,  // measure 144
0001
0000
0100
0000
0010
1000
0010
1000
0100
0000
1000
0000
0001
0010
0001
0010
,  // measure 145
0100
1000
0011
0001
0100
0001
1010
1000
,  // measure 146
0001
0000
1000
0000
0001
0100
0010
1000
0001
0000
1000
0000
0001
0010
0100
1000
,  // measure 147
1001
1000
0100
0010
0001
0000
0100
0010
,  // measure 148
1000
0010
0100
0000
0001
0010
0100
1000
,  // measure 149
0100
0001
0100
1000
0010
0000
0100
0010
,  // measure 150
0100
1000
0100
0000
0001
0010
0001
1000
,  // measure 151
0100
0010
0100
1000
,  // measure 152
0001
0000
0010
0001
,  // measure 153
0010
0100
1000
0000
,  // measure 154
0010
1000
0001
1000
,  // measure 155
0100
0001
0100
1000
,  // measure 156
0010
0000
0100
0001
,  // measure 157
0100
0010
0100
0000
,  // measure 158
0001
0100
0010
1000
,  // measure 159
0100
1000
0010
0100
,  // measure 160
0001
0100
0010
1000
,  // measure 161
0010
0001
0010
1000
,  // measure 162
0100
0010
0001
0100
,  // measure 163
0001
1000
0010
1000
,  // measure 164
0100
0001
0100
1000
,  // measure 165
0010
0100
0001
1000
,  // measure 166
0010
0100
0001
0010
,  // measure 167
0001
0000
1000
0100
0001
0000
0100
0010
,  // measure 168
0100
1000
0100
0000
0010
0001
0100
0010
,  // measure 169
0100
0000
0010
1000
0001
0000
0100
0010
,  // measure 170
1000
0001
0100
0000
0010
1000
0010
0100
,  // measure 171
0001
0000
0010
0001
0100
0000
0001
1000
,  // measure 172
0100
1000
0010
0100
0001
0010
0001
1000
,  // measure 173
0001
0100
0001
0010
1000
0010
0100
0010
,  // measure 174
0001
1000
0010
0100
,  // measure 175
0001
1000
0001
1000
,  // measure 176
0010
0100
0001
0010
0001
1000
0100
1000
,  // measure 177
0010
1000
1000
0001
0100
0100
0001
0001
,  // measure 178
1000
0100
0100
0100
1000
0010
0100
0001
,  // measure 179
0010
0100
1000
0001
0001
0100
0010
0010
,  // measure 180
1000
0001
0010
0010
0010
0100
0100
1000
,  // measure 181
0010
0001
0010
1000
0100
0001
0100
1000
,  // measure 182
0001
0000
0100
0000
0001
0010
0100
1000
0001
0000
0000
0000
0000
0000
0000
0000
,  // measure 183
0010
0001
0000
0000
0100
0010
0000
0000
,  // measure 184
1000
0010
0000
0000
1000
0100
0000
0000
,  // measure 185
0001
0100
0000
0000
1000
0010
0000
0000
,  // measure 186
0100
0001
0000
0000
1000
0010
0000
0000
,  // measure 187
0100
0010
0000
0000
0001
1000
0000
0000
,  // measure 188
0100
0010
0000
0000
0001
0100
0000
0000
,  // measure 189
0001
0010
0000
0000
0100
1000
0000
0000
,  // measure 190
0010
0100
0000
0000
0001
0000
0010
0000
,  // measure 191
0010
0000
0100
0000
0100
1000
0000
0000
,  // measure 192
0010
0100
0100
0001
,  // measure 193
0001
1000
0000
0000
0010
0100
0000
0000
,  // measure 194
0001
1000
0000
0000
0010
0100
0000
0000
,  // measure 195
0001
0100
0000
0000
0010
1000
0000
0000
,  // measure 196
0100
0010
0000
0000
0001
0010
0000
0000
,  // measure 197
1000
0010
0000
0000
0100
0001
0000
0000
,  // measure 198
0100
1000
0000
0000
0100
0001
0000
0000
,  // measure 199
1000
0010
0000
0000
1000
0001
0000
0000
,  // measure 200
1000
0100
0000
0000
0010
0001
0000
0000
,  // measure 201
0010
0100
0000
0000
0010
1000
0000
0000
,  // measure 202
0010
0001
0001
0100
,  // measure 203
0100
1000
0000
0000
0100
0001
0000
0000
,  // measure 204
0100
1000
0000
0000
0100
0001
0000
0000
,  // measure 205
1000
0010
0010
0100
,  // measure 206
0100
0000
0001
0000
0001
0010
0000
0000
,  // measure 207
0100
1000
1000
0010
,  // measure 208
0010
0001
0000
0000
0010
1000
0000
0000
,  // measure 209
0100
0010
0000
0000
0001
1000
0000
0000
,  // measure 210
0100
0010
0000
0000
0001
0100
0000
0000
,  // measure 211
0010
1000
1000
0100
,  // measure 212
0100
0000
0010
0000
0010
0001
0000
0000
,  // measure 213
0010
0100
0100
0010
,  // measure 214
0010
0001
0000
0000
1000
0010
0000
0000
,  // measure 215
1000
0001
0000
0000
1000
0100
0000
0000
,  // measure 216
0001
0010
0000
0000
0001
1000
0000
0000
,  // measure 217
0001
0100
0000
0000
0010
0100
0000
0000
,  // measure 218
0010
0001
0000
0000
0010
1000
0000
0000
,  // measure 219
1100
0100
0010
0001
,  // measure 220
0010
0100
0000
0000
0101
0000
0100
0000
,  // measure 221
0010
0000
1000
0000
0010
0100
0000
0000
,  // measure 222
0011
0001
0100
0010
,  // measure 223
1100
0100
0010
0001
,  // measure 224
0110
0000
0100
0000
1000
0100
0000
0000
,  // measure 225
1001
1000
0100
0001
,  // measure 226
0100
0010
0000
0000
1100
0000
1000
0000
,  // measure 227
0010
0000
0001
0000
0010
0100
0000
0000
,  // measure 228
0101
0010
1000
0100
,  // measure 229
0010
0001
0000
0000
0001
1000
0000
0000
,  // measure 230
1000
0100
0000
0000
1000
0000
0201
0000
,  // measure 231
1300
0001
0010
1000
0100
0000
0021
0000
,  // measure 232
1030
0001
0100
1000
0010
0000
1200
0000
,  // measure 233
0301
1000
0010
0001
0100
0000
1020
0000
,  // measure 234
0031
1000
0100
0001
1000
0010
0100
0001
,  // measure 235
0010
0001
0100
0010
1000
0010
0100
0001
,  // measure 236
0010
1000
0010
0001
0100
0001
1000
0100
,  // measure 237
0010
0100
1000
0001
0100
0001
1000
0100
,  // measure 238
0010
0000
0100
1000
0001
0000
0100
0001
1000
0000
0001
0000
1000
0000
0000
0000
,  // measure 239
0001
0100
0001
1000
,  // measure 240
0010
0100
0001
0100
,  // measure 241
0010
1000
0100
0001
,  // measure 242
0100
1000
0100
0010
,  // measure 243
0100
1000
0001
0010
,  // measure 244
0001
0100
0010
1000
,  // measure 245
0010
0100
0001
0010
,  // measure 246
0100
1000
1010
0100
,  // measure 247
0001
0100
1001
0010
,  // measure 248
1000
0001
1100
0001
,  // measure 249
0100
0010
0101
0010
,  // measure 250
1000
0000
0001
0000
0110
0000
0001
0100
,  // measure 251
0001
1000
0001
0000
0100
0000
0010
0000
,  // measure 252
1000
0000
0100
0000
0001
0000
0100
1000
,  // measure 253
0100
0010
0100
0000
1000
0010
0100
0000
,  // measure 254
0001
1000
0100
0000
1000
0000
0001
0010
,  // measure 255
0001
1000
0001
0000
0100
0000
0010
0000
,  // measure 256
1000
0000
0010
0000
0100
0000
0001
0100
,  // measure 257
0010
1000
0010
0000
0100
0001
1000
0000
,  // measure 258
0010
0100
0001
0000
1000
0000
0100
0010
,  // measure 259
0001
0010
0100
0000
1000
0000
0010
0000
,  // measure 260
0100
0000
0010
0000
0001
0000
0010
0100
,  // measure 261
0010
1000
0010
0000
1000
0010
0100
0001
,  // measure 262
1000
0000
0000
0100
0000
0000
0010
0000
0000
0002
0000
0000
2000
0000
0000
0000
0000
0000
0000
0000
0000
0000
3003
0000
,  // measure 263
0000
0000
0000
0000
,  // measure 264
0000
0000
0000
0000
,  // measure 265
1000
0010
0100
0001
,  // measure 266
1000
0100
0010
0001
,  // measure 267
1000
0010
0100
0001
,  // measure 268
0010
0000
0001
0000
0000
1000
0000
1000
,  // measure 269
0010
0000
0100
0000
0001
0100
0001
0000
,  // measure 270
0010
0000
0100
0000
1000
0100
1000
0000
,  // measure 271
0001
0000
1000
0000
0010
0100
0010
0000
,  // measure 272
0100
0000
0001
1000
0000
1000
0001
0000
,  // measure 273
0100
0000
0001
0000
1000
0100
1000
0000
,  // measure 274
0100
0000
1000
0000
0001
0100
0001
0000
,  // measure 275
0100
0000
0010
0000
1000
0001
1000
0000
,  // measure 276
0100
0000
0010
0000
0100
0000
0001
1000
,  // measure 277
0100
0000
0010
0000
0100
0000
1000
0001
,  // measure 278
0010
1001
0100
1001
,  // measure 279
0010
0001
0010
0000
0100
1000
0100
0000
,  // measure 280
0010
0001
0100
0010
1000
0100
0010
0001
,  // measure 281
0011
0000
0000
0101
0000
0000
1001
0000
,  // measure 282
1010
0000
0000
1100
0000
0000
1001
0000
,  // measure 283
0011
0000
0001
0100
0000
0000
0001
0100
,  // measure 284
0010
1000
2002
0000
0000
0000
3003
0000
,  // measure 285
1010
0000
1000
0100
0000
0000
1001
0000
,  // measure 286
0011
0000
0001
0100
0000
0000
1001
0000
,  // measure 287
0101
0000
0010
1000
0000
0000
1001
0000
,  // measure 288
1100
1001
0101
1001
,  // measure 289
0010
0001
0010
0001
0000
0000
1000
0000
,  // measure 290
0010
1000
0010
1000
0000
0000
0001
0000
,  // measure 291
0010
0001
0000
1000
0100
0000
1001
0000
,  // measure 292
0010
1000
0001
0000
0110
0000
0110
0000
,  // measure 293
0010
0001
1000
0100
0000
0000
1000
0000
,  // measure 294
0010
1000
0001
0100
0000
0000
0001
0000
,  // measure 295
1000
0100
0000
0010
0001
0000
1001
0000
,  // measure 296
0010
0001
1000
0000
0110
0000
0110
0000
,  // measure 297
0010
1000
0100
0000
0010
0001
0100
0000
,  // measure 298
0010
1000
0100
0010
0001
0100
0010
0000
,  // measure 299
0100
0001
0010
0000
0100
1000
0010
0000
,  // measure 300
0100
0001
1000
0000
1000
0100
0010
0001
,  // measure 301
0100
0010
1000
0000
0100
0010
0001
0000
,  // measure 302
0100
0010
1000
0100
0010
0001
0100
0000
,  // measure 303
0100
0000
0010
0100
0000
0000
1001
0000
,  // measure 304
0100
0000
0010
0100
0000
0000
0000
0000
,  // measure 305
1000
0010
1000
0010
,  // measure 306
1000
0000
0010
0000
0100
0001
0010
0000
,  // measure 307
0001
0010
0001
0010
,  // measure 308
0001
0000
0010
0000
0100
1000
0010
1000
,  // measure 309
0010
1000
0001
0100
,  // measure 310
0010
0000
1000
0000
0001
1000
0100
0000
,  // measure 311
0010
0001
1000
0100
,  // measure 312
0010
0001
0010
0001
1000
0100
1000
0100
,  // measure 313
0010
0000
0010
0002
0000
1003
0000
1000
,  // measure 314
0010
0000
0010
2000
0000
3001
0000
0001
,  // measure 315
0010
0000
0001
2000
0000
3100
0000
0100
,  // measure 316
0010
0001
0000
0100
0000
0010
0000
1000
,  // measure 317
0010
0000
0010
2000
0000
3001
0000
0001
,  // measure 318
0010
0000
0010
0002
0000
1003
0000
1000
,  // measure 319
0010
0000
1000
0002
0000
0103
0000
0100
,  // measure 320
0010
1000
0000
0100
0000
0010
0000
0001
,  // measure 321
0100
0000
0100
0002
0000
1003
0000
1000
,  // measure 322
0100
0000
0100
2000
0000
3001
0000
0001
,  // measure 323
1000
0000
1000
0002
0000
0103
0000
0100
,  // measure 324
0101
1001
1100
1001
,  // measure 325
0010
0000
0100
2000
0000
3001
0000
0001
,  // measure 326
0100
0000
0010
2000
0000
3001
0000
0001
,  // measure 327
0010
0000
0001
2000
0000
3100
0000
0100
,  // measure 328
1100
1001
0101
1001
,  // measure 329
1000
0010
1000
0020
0000
1030
0000
1000
,  // measure 330
0001
0010
0001
0020
0000
0031
0000
0001
,  // measure 331
1000
0001
1000
0002
0000
0103
0000
0100
,  // measure 332
0110
1100
0110
0101
,  // measure 333
0001
0100
0001
2000
0000
3001
0000
0001
,  // measure 334
1000
0100
1000
0002
0000
1003
0000
1000
,  // measure 335
0010
0100
0010
0200
0000
0301
0000
0001
,  // measure 336
1000
0010
0100
0001
1000
0010
0100
0001
,  // measure 337
2000
0001
3000
0002
0100
0003
0200
0010
,  // measure 338
0300
0020
1000
0000
1000
0000
1030
0000
,  // measure 339
0002
1000
0003
2000
0010
3000
0020
0100
,  // measure 340
0030
0200
0001
0000
0001
0000
0301
0000
,  // measure 341
0020
0001
0030
0002
0100
0003
0200
0010
,  // measure 342
0300
0020
2000
0030
0001
0000
3001
0000
,  // measure 343
2000
0010
3000
0020
0100
0030
0200
0001
,  // measure 344
0300
0001
1000
0000
0010
1000
0001
0100
,  // measure 345
0010
1000
0010
0000
0100
0001
0100
0000
,  // measure 346
0010
1000
0010
0000
0100
0001
0100
0000
,  // measure 347
0010
1000
0010
0000
0100
0001
0100
0000
,  // measure 348
0010
1000
0010
0000
0100
0001
0100
0000
,  // measure 349
0010
1000
0100
0000
0010
0001
0100
0000
,  // measure 350
0010
1000
0100
0000
0010
0001
0100
0000
,  // measure 351
0010
1000
0100
0000
0010
0001
0100
0010
,  // measure 352
1000
0100
0010
0001
1000
0010
0100
0001
,  // measure 353
0000
0000
0200
0000
0000
0002
0300
0000
0020
0003
0000
0200
0030
0000
2000
0300
,  // measure 354
0000
0000
3020
0000
0000
2000
0030
0000
0002
3000
0000
0200
0003
0000
0010
0300
,  // measure 355
0010
0000
2000
0000
0000
0200
3000
0000
0020
0300
0000
0002
0030
0000
0200
0003
,  // measure 356
0000
0000
0320
0000
0000
2000
0030
0000
0200
3000
0000
0010
0300
0000
0001
0000
,  // measure 357
0100
0000
0010
1000
0000
0010
0100
0000
,  // measure 358
0001
0100
0000
0001
0010
0000
0011
0000
,  // measure 359
0100
0000
0010
0001
0000
0010
0100
0000
,  // measure 360
1000
0100
0000
1000
0010
0000
1010
0000
,  // measure 361
0100
0000
0001
0100
0000
0010
1000
0000
,  // measure 362
0001
0100
0000
0010
1000
0000
1010
0000
,  // measure 363
0010
1000
0010
0000
0100
0001
0100
0000
,  // measure 364
0010
1000
0100
0010
0001
0100
0010
1000
,  // measure 365
0000
0000
0001
1000
0000
1000
0100
0000
0100
0010
0000
0010
0001
0000
1000
0000
,  // measure 366
0001
0000
0010
0001
0000
0001
0100
0000
0100
0010
0000
0010
1000
0000
0001
0000
,  // measure 367
2002
0000
0000
0000
0000
0000
0000
0000
0000
0000
0000
0000
0000
3003
0000
0000
0000
0000
0000
0000
0000
0000
0000
0000
,  // measure 368
1001
0000
0100
0010
0000
1001
1001
0000
,  // measure 369
0110
0000
1000
0000
0100
1000
0010
0000
,  // measure 370
0100
0000
0001
0010
0100
0010
0001
0100
,  // measure 371
0001
0000
1010
0000
0100
0001
0010
0000
,  // measure 372
0100
0000
1000
0001
0000
1001
1001
0000
,  // measure 373
0110
0000
0001
0000
0010
0001
0100
0000
,  // measure 374
0010
0000
1000
0100
0010
0100
1000
0010
,  // measure 375
1000
0000
0101
0000
0010
1000
0100
0000
,  // measure 376
1000
0000
1100
0000
0000
0110
0000
0000
,  // measure 377
0001
0000
0011
0010
0100
1000
1100
0000
,  // measure 378
0101
0000
0000
0000
1010
0000
0000
0010
0100
0000
0001
0000
0101
0000
0001
0000
,  // measure 379
0010
0000
1100
1000
0001
0100
0101
0000
,  // measure 380
1001
0000
0010
1001
0000
0110
0110
0000
,  // measure 381
1000
0000
1100
0100
0010
0001
0011
0000
,  // measure 382
1010
0000
0101
0100
0010
1000
1010
1000
,  // measure 383
0100
0000
0011
0001
1000
0010
1010
0000
,  // measure 384
0100
0000
0000
0000
0101
0000
0000
0001
0010
0000
0100
0000
1000
0001
1000
0001
,  // measure 385
1000
0000
0110
0000
0001
0100
0010
1000
,  // measure 386
0001
0000
1000
0000
0110
0000
0000
0001
1000
0001
1000
0000
0100
0000
0000
0000
,  // measure 387
0011
0000
0101
0000
1000
0010
0100
0001
,  // measure 388
0010
0000
0000
0100
1001
0110
0110
0000
,  // measure 389
1010
0000
0101
0000
1000
0100
0010
0001
,  // measure 390
1000
0000
0001
0000
0110
0000
0000
1000
0001
1000
0001
0000
0100
0000
0000
0000
,  // measure 391
1010
0000
1100
0000
1000
0100
0010
0001
,  // measure 392
0110
0000
0000
0000
1001
0000
0000
0100
0010
0100
0010
0000
0100
0000
0010
0000
,  // measure 393
1001
0000
0100
0000
0010
0000
1000
0000
0100
0000
1000
0000
0010
0000
0100
1000
,  // measure 394
0100
0001
0100
0000
0010
0000
1000
0000
0100
0000
0010
0000
0001
0000
1000
0000
,  // measure 395
1001
0000
0001
0000
0010
0000
0100
0000
1000
0000
0010
0000
0100
0000
0001
0100
,  // measure 396
1000
0100
0001
0000
1000
0000
0001
0000
1001
0000
0010
0100
0000
1001
1001
0000
,  // measure 397
0100
1000
0000
0010
0000
1000
0100
1000
,  // measure 398
0100
1000
0000
0010
1000
0100
1000
0100
,  // measure 399
1000
0001
0100
0001
0100
0001
1000
0001
,  // measure 400
1000
0100
0000
0100
0010
0001
1000
0001
,  // measure 401
0000
1000
0000
0001
0000
0010
0100
0010
,  // measure 402
0100
1000
0000
1000
0010
1000
0010
0100
,  // measure 403
0000
0100
0001
0000
0001
1000
0001
1000
,  // measure 404
0000
0110
0000
0110
0000
1000
1000
0001
,  // measure 405
0010
0001
0010
0100
0000
0100
1000
0100
,  // measure 406
1000
0010
0000
0010
0010
0100
0001
0100
,  // measure 407
0010
1000
0010
0100
0001
1000
0001
0100
,  // measure 408
0010
1000
0000
0001
0000
1000
1000
0001
,  // measure 409
0000
1000
0000
0001
0000
1000
0100
0010
,  // measure 410
0100
0010
0000
0100
0010
0100
0010
0001
,  // measure 411
0000
1000
1000
0000
0001
0001
0000
0100
,  // measure 412
0001
0010
0100
1000
0001
0100
0010
1000
,  // measure 413
0000
0001
0000
1000
0000
0100
1000
0010
,  // measure 414
1000
0010
0000
0010
0100
0001
1000
0001
,  // measure 415
1000
0100
1000
0100
1000
0001
0100
0001
,  // measure 416
0100
0010
0000
0100
0000
0001
1000
1000
,  // measure 417
0000
1000
0000
0001
0000
0010
0001
0010
,  // measure 418
0001
1000
0000
1000
0001
1000
0010
0100
,  // measure 419
0001
1000
0001
0010
0100
1000
0001
1000
,  // measure 420
0000
1001
0000
1001
0000
0010
1000
0100
,  // measure 421
0000
1000
0000
0100
0000
1000
0010
0100
,  // measure 422
0001
0010
0000
0010
0001
0010
0100
1000
,  // measure 423
0100
0010
0001
0010
0100
1000
0010
0100
,  // measure 424
0001
0010
0000
0001
0000
0010
0100
0100
,  // measure 425
0000
1000
0000
0100
0000
1000
0100
0010
,  // measure 426
0001
0100
0000
0100
0100
0001
1000
0010
,  // measure 427
1000
0001
0100
0001
0010
0100
1000
0001
,  // measure 428
0000
1001
0000
1001
0000
1000
0002
0100
,  // measure 429
0000
0100
0000
0100
0000
0203
0000
0001
,  // measure 430
0000
0302
0000
1000
0000
2003
0000
0100
,  // measure 431
0000
0100
0000
0100
0000
0100
0000
3100
,  // measure 432
0000
1001
0000
0000
0110
0000
0000
0102
,  // measure 433
0000
0100
0000
0100
0000
0100
0000
0203
,  // measure 434
0000
0010
0000
0320
0000
1000
0000
2030
,  // measure 435
0000
0001
0000
0001
0000
0001
0000
3001
,  // measure 436
0000
1001
0000
0000
0110
0110
0000
0000
,  // measure 437
1100
0011
1001
1100
,  // measure 438
0110
1001
1100
1001
,  // measure 439
1100
0000
0010
0001
1000
0001
0010
0001
,  // measure 440
0100
0001
0010
0000
0001
0000
0000
1010
,  // measure 441
0000
1001
0000
1100
0000
0110
0000
1001
,  // measure 442
0000
1100
0000
1001
0000
1100
0000
1000
,  // measure 443
0000
1000
0010
1000
0001
1000
0010
1000
,  // measure 444
0100
0000
1000
0000
0100
0000
0010
0001
,  // measure 445
0000
0010
0001
0000
0100
0000
0010
1000
,  // measure 446
0000
0010
1000
0000
0001
0000
1000
0100
,  // measure 447
0000
1000
0010
1000
0001
1000
0010
1000
,  // measure 448
0100
0000
1000
0000
0100
0000
0010
0001
,  // measure 449
0000
0010
0001
0000
0100
0000
0010
1000
,  // measure 450
0000
0010
1000
0000
0001
0000
1000
0100
,  // measure 451
0000
1000
0010
1000
0001
1000
0010
1000
,  // measure 452
0100
0000
0100
0000
0001
0010
0001
0010
,  // measure 453
0001
0010
0001
0000
1000
0010
1000
0010
,  // measure 454
1000
0010
0100
0000
0001
0010
0001
0010
,  // measure 455
0001
0010
0001
1000
0010
0100
0001
0100
,  // measure 456
0010
0100
0001
0000
1000
0010
1000
0010
,  // measure 457
1000
0010
1000
0000
0001
0010
0001
0010
,  // measure 458
0001
0010
0100
1000
0100
0010
0001
0010
,  // measure 459
0001
0000
0001
0010
0001
0000
0010
1000
,  // measure 460
0010
0001
0010
0001
,  // measure 461
0010
0011
1001
1100
,  // measure 462
0110
1001
1100
1001
,  // measure 463
1100
0000
0010
0001
1000
0001
0010
0001
,  // measure 464
0100
0001
1000
0000
0100
0000
0000
0011
,  // measure 465
0000
1001
0000
0101
0000
0110
0000
1001
,  // measure 466
0000
1100
0000
1001
0000
0101
0000
0001
,  // measure 467
0000
0001
0010
0001
1000
0001
0010
0001
,  // measure 468
0100
0001
1000
0000
0100
0000
1000
0000
,  // measure 469
0100
1100
1001
0011
,  // measure 470
0110
1001
0011
1001
,  // measure 471
0011
0000
0010
1000
0001
1000
0010
1000
,  // measure 472
0100
0010
0001
1000
0001
1000
0001
1000
,  // measure 473
0001
1000
0100
0010
0001
1000
0001
0010
,  // measure 474
0100
1000
0100
0010
0001
0100
0010
0100
,  // measure 475
0001
1000
0100
1000
0001
0100
0010
1000
,  // measure 476
0001
2100
0000
3001
,  // measure 477
0001
0100
0001
1000
,  // measure 478
0100
0000
1000
0001
1000
0000
0001
0000
,  // measure 479
0100
0000
0010
1000
0001
0100
0001
1000
,  // measure 480
0001
0100
0001
0000
0001
0000
1000
0000
,  // measure 481
0001
0100
0001
1000
,  // measure 482
0100
0102
0000
1003
,  // measure 483
1000
0000
0001
1000
0100
1000
0001
0010
,  // measure 484
0100
1000
0001
1000
0100
1000
0001
0100
,  // measure 485
0001
0100
0001
0000
1000
0100
1000
0001
,  // measure 486
1000
0000
0001
0100
0001
0000
0010
0000
,  // measure 487
1000
0001
1000
0010
1000
0100
1000
0000
,  // measure 488
0001
0000
1100
0000
0001
0000
0100
0001
,  // measure 489
1000
0000
0010
0000
0100
1000
0001
0100
,  // measure 490
1000
0000
0101
0000
1000
0000
0100
1000
,  // measure 491
0001
0000
0010
0000
0100
0001
1000
0100
,  // measure 492
0001
0010
0010
1001
,  // measure 493
0001
0100
0010
0000
1010
0000
0101
0000
,  // measure 494
0000
0000
0010
0001
0001
0001
0010
0001
,  // measure 495
0001
0000
0010
1000
1000
1000
0010
1000
,  // measure 496
1000
0000
0100
1000
0100
1000
1000
1000
,  // measure 497
1000
0000
0100
0001
0100
0001
0001
0001
,  // measure 498
0001
0010
1000
0100
,  // measure 499
0001
0000
1000
0001
0100
0001
1000
0000
,  // measure 500
0001
0100
0001
1000
0000
0000
0001
1000
,  // measure 501
0100
1000
0001
0000
0100
0010
1000
0000
,  // measure 502
0000
0001
1000
0010
0100
0001
0000
0100
,  // measure 503
0000
0001
1000
0100
0000
1000
0000
1000
,  // measure 504
0001
0100
0000
0001
1000
0000
0010
0001
,  // measure 505
0010
0000
1000
0000
1000
0010
0000
0001
,  // measure 506
0100
0001
0100
0000
1000
0100
1000
0000
,  // measure 507
1000
0100
0000
0001
0000
1000
0000
0000
,  // measure 508
0001
0100
0001
0100
0001
0000
0001
1000
,  // measure 509
0000
1000
0010
0100
0001
0000
0001
0100
,  // measure 510
0001
0000
1000
0100
1000
0000
0100
0000
,  // measure 511
0001
1000
0001
0000
0000
1000
0000
0000
,  // measure 512
0010
1000
0000
0001
0100
0001
0000
0000
,  // measure 513
0010
0000
0100
0010
0100
0000
0100
0000
,  // measure 514
0001
0000
0001
0100
0010
1000
0001
0100
,  // measure 515
0001
0100
0001
0000
0100
0000
0001
0000
,  // measure 516
0100
0001
1000
0001
,  // measure 517
1000
0100
1000
0100
,  // measure 518
1000
0001
1000
0001
,  // measure 519
0100
0001
0100
0001
,  // measure 520
0100
0001
1000
0001
,  // measure 521
1000
0010
1000
0001
,  // measure 522
1000
0010
1000
0100
,  // measure 523
1000
0100
0010
0001
,  // measure 524
0010
0001
1000
0001
,  // measure 525
1000
0010
1000
0010
,  // measure 526
1000
0010
0100
0010
,  // measure 527
0100
0010
1000
0010
,  // measure 528
1000
0001
1000
0001
,  // measure 529
1000
0010
1000
0001
,  // measure 530
1000
0010
1000
0010
,  // measure 531
1000
0001
0010
0100
,  // measure 532
1000
0001
1000
0001
,  // measure 533
0100
0001
0100
0010
,  // measure 534
1000
0100
0010
0001
,  // measure 535
0100
0001
1000
0001
,  // measure 536
1000
0001
0100
0001
,  // measure 537
0100
0010
1000
0001
,  // measure 538
1000
0010
1000
0100
,  // measure 539
1000
0100
1000
0010
,  // measure 540
0100
0001
0100
0010
,  // measure 541
0100
0010
1000
0001
,  // measure 542
0010
0001
1000
0100
,  // measure 543
1000
0001
0100
0001
,  // measure 544
1000
0001
0100
0010
,  // measure 545
0100
0001
0100
0001
,  // measure 546
1000
1002
1000
1000
,  // measure 547
0000
1000
0000
1000
,  // measure 548
0000
1003
0000
0000
;
