#TITLE:MINUS WORLD Mix;
#SUBTITLE:(BOSS RUSH SN2);
#ARTIST:D34D M34T;
#TITLETRANSLIT:;
#SUBTITLETRANSLIT:;
#ARTISTTRANSLIT:;
#CREDIT:;
#BANNER:BOSS-SN2.png;
#BACKGROUND:BOSS-SN2-bg.png;
#LYRICSPATH:;
#CDTITLE:./CDTITLES/Dance Dance Revolution SuperNOVA 2.png;
#MUSIC:BOSS-SN2.mp3;
#OFFSET:0.732;
#SAMPLESTART:83.270;
#SAMPLELENGTH:15.000;
#SELECTABLE:YES;
#BPMS:0.000=300.000,260.000=75.000,268.000=150.000,332.000=310.000,364.000=320.000,396.000=160.000,583.500=85.000,585.000=160.000,599.000=68.480,600.500=68.500,601.000=137.000,607.000=274.000,767.000=75.000,777.000=115.000,782.000=120.000,786.000=130.000,790.000=150.000,794.000=170.000,797.000=274.000,900.000=548.000,906.000=100.000,913.000=800.002,921.000=399.997,981.000=800.002,989.000=399.998,1053.000=99.999,1069.000=109.999,1083.000=114.999,1098.500=119.999,1110.500=114.999,1122.500=199.999,1157.000=219.999,1182.000=199.999,1245.000=99.999,1260.000=800.001,1268.000=399.997,1328.000=99.998,1329.000=399.996,1357.000=99.998,1358.000=399.996,1386.000=99.997,1386.250=49.997,1393.500=219.998,1429.000=222.198,1432.000=119.998,1438.750=124.998,1446.000=129.998,1454.000=134.998;
#STOPS:1075.750=0.400
,1083.000=0.580
,1090.750=0.295
,1122.500=2.260
,1157.000=0.300
,1168.000=0.200
,1393.500=0.840
,1400.500=0.140
,1403.500=0.140
,1404.000=0.270
,1407.000=0.140
,1411.000=0.140
,1413.500=0.270
,1416.500=0.140
,1419.000=0.080
,1420.000=0.270
,1421.500=0.140
,1422.500=0.270
,1426.500=0.270
,1427.500=0.270
,1428.500=0.310
,1438.750=0.380
,1446.000=0.500
,1454.000=0.280
;
#BGCHANGES:;

//---------------dance-single - ----------------
#NOTES:
     dance-single:
     :
     Hard:
     12:
     0.804,1.000,0.675,0.083,0.354: // measure 1
0000
0000
0000
0000
,  // measure 2
0000
0000
0000
0000
,  // measure 3
0000
0000
0000
0000
,  // measure 4
0000
0000
0000
0000
,  // measure 5
0000
0000
0000
0000
,  // measure 6
1000
0100
1000
0000
0001
0100
0001
0000
,  // measure 7
1010
0100
1001
0100
,  // measure 8
0001
0010
0001
0000
1000
0010
1000
0000
,  // measure 9
0101
0010
1001
0010
,  // measure 10
0100
1000
0100
0000
0010
0000
0011
0000
,  // measure 11
0100
1000
0010
0001
0010
0000
1100
0000
,  // measure 12
0010
0001
0010
0000
0100
0000
1100
0000
,  // measure 13
0010
0001
0100
1000
0100
0000
0011
0000
,  // measure 14
0100
0001
0100
0000
0010
0000
1010
0000
,  // measure 15
0100
0001
0010
1000
0010
0000
1100
0000
,  // measure 16
0010
1000
0010
0000
0100
0000
1100
0000
,  // measure 17
0010
1000
0100
0001
0100
0000
0011
0000
,  // measure 18
1010
0100
0011
0100
,  // measure 19
0010
0000
0101
0000
0010
1000
0001
0000
,  // measure 20
0011
0100
1010
0100
,  // measure 21
0010
0000
1100
0000
0010
0001
1000
0000
,  // measure 22
1100
0010
0101
0010
,  // measure 23
0100
0000
0011
0000
0100
1000
0001
0000
,  // measure 24
0101
0010
1100
0010
,  // measure 25
0100
1000
0010
0000
0100
0001
1000
0000
,  // measure 26
0010
0000
0000
0001
0100
0000
0000
1000
,  // measure 27
0100
0000
0000
0001
0010
0000
0000
1000
,  // measure 28
0010
0000
0000
0100
0001
0000
0000
0100
,  // measure 29
1000
0000
0000
0010
0001
0000
1001
0000
,  // measure 30
0100
0000
0000
1000
0010
0000
0000
0001
,  // measure 31
0010
0000
0000
1000
0100
0000
0000
0001
,  // measure 32
0100
0000
0000
0010
1000
0000
0000
0010
,  // measure 33
0001
0000
0000
0100
1000
0000
1001
0000
,  // measure 34
0010
1000
0100
0000
0001
0000
0101
0000
,  // measure 35
0100
0000
0000
0010
1000
0000
1100
0000
,  // measure 36
0010
0001
0100
0000
1000
0000
1100
0000
,  // measure 37
0100
0000
0000
0010
0001
0000
0101
0000
,  // measure 38
0100
1000
0010
0000
0001
0000
0011
0000
,  // measure 39
0010
0000
0000
0100
1000
0000
1010
0000
,  // measure 40
0100
0001
0010
0000
1000
0000
1010
0000
,  // measure 41
0010
0000
1000
0000
0010
0001
0010
0000
,  // measure 42
0101
0000
0011
0000
0100
1000
0100
0000
,  // measure 43
1010
0100
0011
0000
,  // measure 44
1100
0000
1010
0000
0100
0001
0100
0000
,  // measure 45
0011
0100
1100
0000
,  // measure 46
0011
0000
0101
0000
0010
1000
0010
0000
,  // measure 47
1100
0010
0101
0000
,  // measure 48
1010
0000
1100
0000
0010
0001
0010
0000
,  // measure 49
0101
0010
1100
0000
,  // measure 50
0011
0100
1010
0100
,  // measure 51
0010
0001
0010
0000
0010
1000
0010
0000
,  // measure 52
0101
0010
1100
0010
,  // measure 53
0100
0001
0100
0000
0100
1000
0100
0000
,  // measure 54
0101
0010
1100
0010
,  // measure 55
0100
1000
0100
0000
0100
0001
0100
0000
,  // measure 56
0011
0100
1010
0100
,  // measure 57
0010
1000
0010
0000
0010
0001
0010
0000
,  // measure 58
0101
0110
1010
0000
,  // measure 59
1000
0010
0100
0001
0100
0010
1000
0000
,  // measure 60
1010
0110
0101
0000
,  // measure 61
0001
0100
0010
1000
0010
0100
0001
0000
,  // measure 62
0011
0110
1100
0000
,  // measure 63
1000
0100
0010
0001
0010
0100
1000
0000
,  // measure 64
1100
0110
0011
0000
,  // measure 65
0001
0010
0100
1000
0100
0010
0001
1000
,  // measure 66
0110
0000
0000
0000
0001
0100
1000
0100
0110
0000
0000
0000
1000
0010
0001
0010
,  // measure 67
0110
0000
0000
0000
1000
0010
0001
0010
0110
0000
0000
0000
0001
0100
1000
0100
,  // measure 68
1000
0100
0001
0100
0000
0000
0010
0000
1000
0100
0000
0001
,  // measure 69
1000
0010
0001
0010
0000
0000
0100
0000
0001
0010
0000
1000
,  // measure 70
0010
1000
0010
0001
0000
0000
0100
0000
1000
0010
0000
0001
,  // measure 71
0100
1000
0100
0001
0000
0000
0010
0000
0001
0100
0000
1000
,  // measure 72
0001
0000
0001
0100
0000
0100
1000
0000
1000
0100
0000
0100
,  // measure 73
0001
0000
0001
0010
0000
0010
1000
0000
1000
0010
0000
0010
,  // measure 74
0001
0000
0001
0100
0000
0100
1000
0000
1000
0010
0000
0010
,  // measure 75
0001
0000
0001
0100
0000
0100
1000
0000
1000
0010
0000
0010
,  // measure 76
0001
0100
0001
0010
0001
0100
1000
0100
,  // measure 77
0010
0000
1000
0001
0010
0000
0001
1000
0100
0000
1000
0001
0100
0000
0010
0000
,  // measure 78
1000
0100
1000
0010
1000
0100
0001
0100
,  // measure 79
0010
0000
0001
1000
0010
0000
1000
0001
0100
0000
0001
1000
0100
0000
0010
0000
,  // measure 80
1010
0000
0001
0100
0010
1000
0011
0000
,  // measure 81
0101
0000
1000
0010
0100
0001
1100
0000
,  // measure 82
0011
0000
1000
0100
0010
0001
1010
0000
,  // measure 83
1100
0000
0001
0010
0100
1000
0101
0000
,  // measure 84
1000
0100
0001
0100
,  // measure 85
0010
1000
0010
0001
0100
0010
1000
0000
,  // measure 86
0001
0100
1000
0100
,  // measure 87
0010
0001
0010
1000
0100
0010
0001
0000
,  // measure 88
1000
0010
0001
0010
,  // measure 89
0100
1000
0100
0001
0010
0100
1000
0000
,  // measure 90
0001
0010
1000
0010
,  // measure 91
0100
0001
0100
1000
0010
0100
0001
0000
,  // measure 92
1000
0100
0001
0010
,  // measure 93
0100
0001
0100
1000
0010
0100
0001
0000
,  // measure 94
1000
0010
0001
0100
,  // measure 95
0010
0001
0010
1000
0100
0010
0001
0000
,  // measure 96
0001
0100
1000
0010
,  // measure 97
0100
1000
0100
0001
0010
0100
1000
0000
,  // measure 98
0001
0010
1000
0100
,  // measure 99
0010
1000
0010
0001
0100
0010
1000
0000
,  // measure 100
0100
0010
0100
1000
0100
0001
0000
0001
,  // measure 101
1000
0010
0000
1000
0001
0100
0000
1001
,  // measure 102
0100
0010
1000
0001
0100
1000
0000
0101
,  // measure 103
0000
1100
0000
0101
1100
0000
0010
0010
,  // measure 104
0100
0001
0100
1000
0100
0010
1000
0100
,  // measure 105
0001
0100
0010
0000
0100
0010
0000
0010
,  // measure 106
0100
1000
0100
0001
0100
1010
0000
0011
,  // measure 107
0000
0101
0000
1100
0000
1001
0100
0100
,  // measure 108
0001
0010
0000
1001
0000
0010
0100
1000
,  // measure 109
0001
1000
0100
0010
0001
1000
0000
0001
,  // measure 110
1000
0010
0000
1100
0000
0101
0000
0010
,  // measure 111
0100
0010
0000
0001
0100
1000
0100
0010
,  // measure 112
1000
0001
0000
1010
0000
0011
0000
0101
,  // measure 113
0000
1100
0000
0110
0000
0010
1000
0100
,  // measure 114
0001
0000
1000
0100
0000
0001
0100
0000
0001
0000
1000
0010
0000
0001
0010
0000
,  // measure 115
1000
0000
0001
0010
0000
1000
0010
0000
1000
0000
0001
0000
0100
0010
0100
0000
,  // measure 116
0001
0000
0100
1000
0100
0000
0010
0000
1000
0000
0100
0001
0100
0000
0010
0000
,  // measure 117
0001
0000
0010
1000
0010
0000
0100
0000
1000
0100
0001
0000
0100
0000
1001
0000
,  // measure 118
0000
1010
0000
1100
0000
0101
0000
0011
,  // measure 119
1000
0010
1000
0000
0101
0000
0100
1000
,  // measure 120
0000
0011
0000
1010
0000
0100
0001
1000
,  // measure 121
0110
0000
0011
0000
1010
0000
0110
1001
,  // measure 122
0100
0000
1000
0000
0010
0001
0010
0000
0100
0000
0001
0000
0010
1000
0010
0000
,  // measure 123
0100
0000
0001
0000
1000
0100
0010
0000
0100
0000
1000
0000
0001
0100
0010
0000
,  // measure 124
0100
0000
0100
0000
0010
0001
1000
0000
0000
0000
0001
0000
0100
0000
0010
0000
,  // measure 125
0100
0000
1000
0000
0001
0100
0010
0000
0100
0000
0001
1000
0010
0000
0100
0000
,  // measure 126
0010
0000
0010
0000
0001
1000
0001
0000
0000
0000
1100
0000
0101
0000
1001
0000
,  // measure 127
0010
0000
0001
0000
1000
0010
0100
0000
0010
0000
1000
0000
0001
0010
0100
0000
,  // measure 128
0010
0000
0010
0000
0100
0001
1000
0000
0000
0000
0001
0000
0010
0000
0100
0000
,  // measure 129
0010
0000
1000
0000
0001
0010
0100
0000
0010
0000
1001
0000
0110
0000
0000
0000
,  // measure 130
1100
0000
0011
0000
0100
0010
1000
0000
0100
0010
0001
0000
0100
0010
0100
0000
,  // measure 131
1000
0000
0010
0000
0001
0000
0000
0000
0101
0000
0010
1000
0010
0000
0001
0000
,  // measure 132
0000
0000
1100
0000
0000
0000
0011
0000
0000
0000
0100
0010
1000
0000
0001
0000
,  // measure 133
1000
0000
0100
0000
0001
0000
0000
0000
0001
0000
0100
1000
0100
0000
0001
0000
,  // measure 134
0000
0000
1010
0000
0000
0000
0101
0000
0000
0000
0010
0100
0001
0000
1000
0000
,  // measure 135
0100
0000
0010
0000
0010
0000
0000
0000
0010
0000
1000
0001
1000
0000
0010
0000
,  // measure 136
0000
0000
1000
0000
0000
0000
0001
0000
0000
0000
0100
0010
0100
0000
1001
0000
,  // measure 137
0100
0000
0010
0000
0010
0000
0000
0000
0010
0000
0001
1000
0001
0000
0010
0000
,  // measure 138
0000
0000
0001
0000
0000
0000
1000
0000
0000
0000
0010
0100
0010
0000
1001
0000
,  // measure 139
1100
0000
0010
0000
0000
0000
0001
0100
0001
0000
1010
0000
0001
0000
1100
0000
,  // measure 140
0001
0110
0001
1010
0001
1100
0001
0110
,  // measure 141
1000
0000
0101
0000
1000
0010
0100
0000
1000
0000
0011
0000
1000
0010
0100
0000
,  // measure 142
1001
0000
0000
0000
0010
0000
0110
0000
0100
0000
0001
1000
0001
0000
0010
0000
,  // measure 143
1100
0001
0000
1100
0110
0001
0110
1000
,  // measure 144
0101
0010
1100
0010
0101
1000
1100
0001
,  // measure 145
0110
0000
1000
0000
0001
0100
0010
0000
0110
0000
0001
0000
1000
0100
0010
0000
,  // measure 146
0001
0000
0100
0010
1000
0000
0010
0100
0001
0000
0100
0010
1000
0000
0010
0000
,  // measure 147
0000
0100
0000
0000
0010
0000
1000
0010
0001
0000
0001
0010
1000
0000
1000
0010
,  // measure 148
0001
0000
0001
0010
0100
0000
1000
0100
0001
0000
0001
0100
1000
0000
1000
0100
,  // measure 149
0001
0000
0001
0100
0010
0000
0001
0100
1000
0000
1000
0100
0001
0000
0001
0100
,  // measure 150
1000
0000
1000
0100
0010
0000
0001
0010
1000
0000
0200
0000
0000
0000
0000
0000
,  // measure 151
0000
1000
0000
0001
0000
0000
0010
0000
,  // measure 152
0000
1000
0000
0000
0301
0000
1000
0000
,  // measure 153
0100
1000
0000
0101
,  // measure 154
0010
0100
1000
0000
,  // measure 155
0100
0001
0010
0000
,  // measure 156
1000
0010
0001
0100
,  // measure 157
0000
1001
0000
0100
,  // measure 158
0010
0001
0010
0000
,  // measure 159
0100
1000
0001
1100
,  // measure 160
0000
0000
0101
0000
0000
0000
0010
1000
,  // measure 161
0010
0000
1100
0000
0010
0001
0010
0000
,  // measure 162
0101
0000
0010
1000
0010
0000
0100
0001
,  // measure 163
0100
0000
0011
0000
0100
1000
0100
0000
,  // measure 164
1010
0000
0100
0001
0100
0000
0010
0100
,  // measure 165
1000
0000
1000
0100
0001
0000
0010
0100
,  // measure 166
0001
0000
0001
0100
1000
0000
0010
0100
,  // measure 167
0000
0001
0010
0000
0100
1000
0000
0100
,  // measure 168
0010
0000
0011
0000
1100
0000
0010
0001
,  // measure 169
0010
0100
0000
0000
0000
0100
0010
1000
,  // measure 170
0010
0100
0000
0000
0000
1000
0001
0000
,  // measure 171
0100
0000
0100
0000
0001
1000
0001
0000
,  // measure 172
0100
0000
0010
0001
0010
0100
1000
0001
,  // measure 173
1000
0000
0000
0000
0000
1000
0001
1000
,  // measure 174
0010
0100
0000
0000
0001
0100
0000
0100
,  // measure 175
0010
0000
0010
1000
0000
0000
0001
0100
,  // measure 176
1000
0100
0001
0010
0100
0000
0001
0000
,  // measure 177
0100
0001
0000
1100
,  // measure 178
0010
0100
0001
0000
,  // measure 179
0100
1000
0010
0000
,  // measure 180
0001
0010
1000
0100
,  // measure 181
0000
1001
0000
0100
,  // measure 182
0010
1000
0010
0000
,  // measure 183
0100
0001
1000
0101
,  // measure 184
0000
0000
1100
0000
0000
0000
0010
0001
,  // measure 185
0010
0000
0001
0100
0001
0000
0010
1000
,  // measure 186
0010
0000
1000
0100
1000
0000
0010
0001
,  // measure 187
0000
0010
0100
0000
0010
1000
0000
1010
,  // measure 188
0100
0000
0011
0000
1100
0000
0010
0100
,  // measure 189
0010
0000
1000
0000
1100
0000
0010
0100
,  // measure 190
0010
0001
0101
0010
,  // measure 191
1000
0001
0000
0010
0100
0000
1000
0001
,  // measure 192
0000
0110
1001
2000
,  // measure 193
3200
0000
0302
0000
0023
0000
0031
0100
,  // measure 194
0002
0203
2300
3020
,  // measure 195
1030
0000
0000
0100
0000
0000
0010
0000
0000
0000
0000
1000
0000
0000
0000
0000
0001
0000
0100
0000
0000
0000
0000
1000
,  // measure 196
0000
0000
0001
0010
0000
0000
0000
0000
1000
0000
0000
0000
,  // measure 197
0000
0001
0000
0000
0000
0000
0010
0000
0000
0000
0000
0100
0000
0000
0000
0000
0001
0000
0000
0000
0000
0000
0000
0000
,  // measure 198
0000
0000
0000
0000
0000
1000
0000
0000
0000
0000
0000
0000
0000
0000
0000
0000
0000
0000
0000
0000
0000
0000
0000
0000
,  // measure 199
0000
0100
0000
0010
0000
0000
0000
0000
0000
0011
0000
0000
0000
0000
0000
1100
,  // measure 200
0000
1000
0001
0010
,  // measure 201
0000
0110
1000
0010
,  // measure 202
0001
0000
1000
0010
,  // measure 203
0001
0000
0100
0010
,  // measure 204
1000
0001
0000
1010
,  // measure 205
0000
0000
0000
0000
0100
0000
0000
0000
0000
0011
0000
0000
0000
0000
1010
0000
,  // measure 206
0000
0100
0001
0010
,  // measure 207
1000
0010
0000
1001
,  // measure 208
0000
0000
0010
1000
0000
1000
0010
0000
,  // measure 209
0101
0000
0010
0001
0000
0001
0010
0000
,  // measure 210
1100
0000
0100
0001
0000
0001
0100
0000
,  // measure 211
1010
0000
0100
1000
0000
1000
0100
0000
,  // measure 212
0011
0000
0100
0010
0100
0000
0001
1000
,  // measure 213
0001
0000
0010
0100
0010
0000
1000
0001
,  // measure 214
1000
0000
0010
1000
0100
1000
0010
0001
,  // measure 215
0010
1000
0100
0001
0100
0010
0001
0100
,  // measure 216
1000
0100
0010
1000
0010
0001
0010
1000
,  // measure 217
0100
0001
0100
1000
0010
0001
0010
1000
,  // measure 218
0100
0001
0100
0010
0001
0100
1000
0100
,  // measure 219
0001
1000
0010
0100
1000
0100
0001
0010
,  // measure 220
0100
1000
0010
0100
0010
0001
0010
0100
,  // measure 221
0010
1000
0001
0100
0001
1000
0001
0010
,  // measure 222
0001
1000
0100
0010
0100
0001
0100
0010
,  // measure 223
0100
1000
0010
1000
0010
0100
0010
0001
,  // measure 224
0010
0100
1000
0100
1000
0001
0010
0001
,  // measure 225
0010
1000
0100
0010
0100
0001
0100
0010
,  // measure 226
0001
0000
0000
0000
,  // measure 227
0000
0000
0000
0000
0000
0000
0000
0000
1100
0000
0000
0001
0100
0000
0000
1001
,  // measure 228
0000
0000
0110
0000
0000
0000
1000
0000
0100
0000
0000
0000
0110
0000
0000
0000
1001
0000
0000
0000
0000
0000
1000
0000
0010
0000
0000
0000
0100
0000
0000
0001
,  // measure 229
0010
0001
0100
0010
1001
0000
0000
0000
0000
0000
0000
0000
0000
0000
0000
0000
,  // measure 230
0000
0000
0000
0000
,  // measure 231
0000
0110
0000
0000
,  // measure 232
0100
1000
0000
0000
,  // measure 233
0101
0000
1010
0000
,  // measure 234
0001
0010
0000
0100
,  // measure 235
1000
0010
0100
0001
,  // measure 236
0010
0100
1000
0010
,  // measure 237
0100
0001
1000
0000
0010
0000
0100
0000
,  // measure 238
0001
0000
1001
0000
0000
0000
0100
0010
,  // measure 239
0100
0010
0100
0000
0000
0000
0010
0000
,  // measure 240
1000
0001
0000
0000
,  // measure 241
1100
0000
0011
0000
,  // measure 242
0100
1000
0000
1001
,  // measure 243
0000
0000
0100
0010
0100
0010
0100
0000
,  // measure 244
0001
1001
0000
0110
,  // measure 245
0000
1000
0010
0000
0100
0000
0001
0000
,  // measure 246
1000
2002
0000
0000
,  // measure 247
0000
0000
0000
0000
,  // measure 248
3003
0110
0000
0000
,  // measure 249
1000
1001
0000
0000
,  // measure 250
0011
0000
1100
0000
,  // measure 251
1000
1001
0000
1000
,  // measure 252
0001
0100
0010
1000
,  // measure 253
0001
0010
0100
1000
,  // measure 254
0010
0100
0001
0000
1000
0000
0010
0000
,  // measure 255
0100
0000
0001
0000
1000
0000
0001
1000
,  // measure 256
0001
1000
0001
0000
0100
0000
0010
0000
,  // measure 257
1000
0100
0010
0001
,  // measure 258
1000
0010
0100
0001
,  // measure 259
1000
0100
0010
0001
,  // measure 260
1000
0000
0000
0010
0000
0100
0000
0001
0000
1000
0000
0100
,  // measure 261
0000
0010
0000
0001
0000
1000
0000
0010
0000
0100
0000
0001
,  // measure 262
0000
0010
0000
0100
0000
1000
0000
0001
0000
0100
0000
0010
,  // measure 263
0000
1000
0000
0001
0000
0010
0000
0100
0000
1000
0000
0001
,  // measure 264
0000
0100
0000
0020
0000
0000
1000
0000
0000
0001
0000
0000
,  // measure 265
1030
0100
0201
0000
1000
0000
0001
0000
,  // measure 266
1300
0000
0001
0000
0010
0001
1000
0001
0000
1001
0000
1000
0100
0010
0100
1000
,  // measure 267
0001
0010
0100
0000
0001
0010
0001
1000
0000
1001
0000
0001
0100
0010
0100
0001
,  // measure 268
1000
0010
0100
0000
1000
0000
0001
0100
1000
0000
0001
0100
0001
0000
1000
0100
,  // measure 269
0000
0000
0000
0000
0001
0000
1000
0010
0001
0000
1000
0010
1000
0000
0001
0010
,  // measure 270
0000
0100
0000
1000
0010
0100
0000
0001
0010
0100
0000
1000
0001
0000
0000
0000
,  // measure 271
0000
0010
0000
1000
0100
0010
0000
0001
0100
0010
0000
1000
0001
0010
0000
0100
,  // measure 272
1000
0010
0000
0000
0000
0100
0010
0100
0000
0001
0000
1000
0000
0001
0000
0010
,  // measure 273
0100
1000
0000
0000
0000
0001
0100
0010
0000
1000
0000
0001
0000
0010
0100
0000
,  // measure 274
0000
0000
1000
0010
0100
0000
0010
0000
1000
0000
0100
0000
0000
0010
0100
0000
,  // measure 275
0000
0000
1000
0001
1000
0000
0100
0000
0010
0000
0001
0000
0100
0010
0100
0000
,  // measure 276
0001
1000
0001
0000
0100
0000
0001
0000
1000
0100
1000
0000
0001
0010
0001
0000
,  // measure 277
0100
0000
0010
0000
1000
0001
1000
0000
0010
0100
0010
0000
1000
0000
0001
0000
,  // measure 278
0010
0100
0010
0000
0001
1000
0001
0000
0100
0000
0010
1000
0100
0010
0001
0000
,  // measure 279
0100
0010
0100
0000
0010
0000
1000
0000
0100
1000
0100
0000
0010
0000
0001
0010
,  // measure 280
0001
0000
0100
0010
1000
0100
0010
0000
0001
1000
0001
0000
0100
0000
0010
0000
,  // measure 281
1000
0100
1000
0000
0010
0000
0100
0001
0100
0000
1001
0000
1000
0000
0100
0000
,  // measure 282
1000
0001
1000
0100
1000
0001
1000
0100
,  // measure 283
1000
0000
0001
0000
0000
0200
0010
0000
0310
0000
0000
0000
2000
0000
0010
0000
,  // measure 284
3010
0000
0200
0010
0310
0000
2000
0010
,  // measure 285
3010
0000
0002
0010
0013
0000
1000
0100
,  // measure 286
0010
0100
1000
0010
0100
0010
1000
0100
,  // measure 287
0010
0100
2000
0010
3010
0000
0100
0100
,  // measure 288
0000
1001
0000
0000
0000
0011
0000
1100
,  // measure 289
0000
0011
0000
1001
0000
0000
0000
0110
,  // measure 290
0000
1000
0001
0000
0110
0000
0001
0000
,  // measure 291
1000
0100
0000
0000
0001
0100
0000
0000
,  // measure 292
1010
0101
0011
1100
,  // measure 293
1001
0000
0110
0000
1001
0000
0000
0010
,  // measure 294
0100
0010
0000
0000
1000
0001
0100
0000
,  // measure 295
0010
1000
0000
0100
0000
0010
0001
0000
,  // measure 296
0000
1001
0000
0000
1000
0100
1000
0010
,  // measure 297
1000
0001
0000
0010
0100
1000
0101
0000
,  // measure 298
1100
0000
0001
0010
0100
1000
0101
0000
,  // measure 299
1100
0000
0000
0000
1001
0000
0000
0100
0002
0000
0003
2000
0010
0000
3000
0100
,  // measure 300
0002
0000
0000
0003
1001
0000
1000
0000
0001
0000
0100
0000
0001
0000
0010
0000
,  // measure 301
0001
1000
0000
0010
0100
0001
1100
0000
,  // measure 302
0101
0000
1000
0010
0100
0001
1100
0000
,  // measure 303
0101
0000
0000
0000
1001
0000
0000
0010
2000
0000
0000
3002
0100
0000
0003
0010
,  // measure 304
2000
0000
0000
3000
1001
0000
0100
0000
0001
0000
0010
0000
0001
0000
0100
0000
,  // measure 305
0001
1000
0000
0010
0100
0001
0110
0000
,  // measure 306
1001
0000
1000
0010
1000
0001
0110
0000
,  // measure 307
1001
0000
0000
0000
0110
0000
0000
2000
0010
0000
3000
0002
0100
0000
0003
2000
,  // measure 308
0010
3000
1001
0010
0100
0001
0100
1000
,  // measure 309
0100
0010
0000
0001
0010
0100
0011
0000
,  // measure 310
0100
0010
1100
0001
1000
0100
0010
0001
,  // measure 311
1000
0001
0101
1000
1100
0001
0011
1000
,  // measure 312
1010
0000
0001
0000
1001
0000
0000
0100
0100
0000
0000
0011
0000
1010
0000
0100
,  // measure 313
0100
0000
0000
0000
1001
0000
0000
0000
0100
0010
1000
0001
0100
0000
0010
0000
1000
0000
0001
0000
0000
0000
0100
0000
0001
0000
1000
0000
0100
0000
0010
0000
,  // measure 314
0001
0000
0000
0000
0000
1000
0100
0010
0001
0000
0000
0000
0000
0000
0100
0000
0100
0000
0000
0000
0000
0000
1010
0000
0000
0000
0011
0000
0000
0000
0100
0000
,  // measure 315
0100
0000
0000
0000
1001
0000
0000
0000
0110
0000
0000
0000
0000
0000
0100
0000
0100
0000
0000
0000
0001
0000
0000
0010
0100
0000
1000
0000
0010
0000
0100
0000
,  // measure 316
0110
0000
0000
0000
,  // measure 317
0000
0000
0000
0000
,  // measure 318
0001
0100
1000
0000
,  // measure 319
0001
0100
1000
0000
,  // measure 320
0010
0001
0100
0000
,  // measure 321
0010
1000
0100
0000
,  // measure 322
0001
0010
1000
0000
,  // measure 323
0001
0010
1000
0000
,  // measure 324
0100
0001
0010
0000
,  // measure 325
0100
1000
0010
0000
,  // measure 326
1000
0001
0100
0010
,  // measure 327
1000
0001
0001
0010
,  // measure 328
0100
1000
0010
0100
,  // measure 329
0001
0010
0000
0010
0001
0000
1000
0010
,  // measure 330
0100
0001
0010
0100
,  // measure 331
0010
0100
1000
0010
,  // measure 332
0100
0001
1000
0001
,  // measure 333
1001
0110
1001
0000
1000
0000
0100
0000
,  // measure 334
0001
0100
1000
0010
,  // measure 335
0100
0001
0010
0100
,  // measure 336
1000
0000
0010
0100
0000
0100
0010
0000
,  // measure 337
1000
0001
0100
0000
1000
0000
0100
0000
,  // measure 338
0001
0010
0100
1000
,  // measure 339
0001
0100
0010
1000
,  // measure 340
0001
0000
0011
0110
1100
0000
0100
0000
,  // measure 341
0010
1000
0010
0001
,  // measure 342
0100
0010
1000
0001
,  // measure 343
0010
0000
0000
0000
0100
0000
0000
0000
1000
0001
0000
0000
0000
0001
0010
0000
,  // measure 344
0000
0000
0000
0000
0010
0100
0000
0000
1000
0000
0000
0000
0001
0000
0000
0000
,  // measure 345
0100
0010
0001
0010
,  // measure 346
1000
0100
0010
0001
,  // measure 347
1000
0000
0000
0000
0000
0000
0000
0000
0001
0000
0000
0000
0000
0000
0000
0000
0110
0000
0000
0000
0000
0010
0001
0000
0101
0000
1100
0000
0000
0000
0001
0100
,  // measure 348
0000
1000
0100
0000
0000
0010
0001
0000
1100
0000
0101
0000
0010
0000
1000
0000
0100
0000
0010
0000
0001
0000
1000
0000
0110
0000
1001
0000
1000
0000
0100
0000
,  // measure 349
0010
0001
0100
0010
1001
0110
0000
0000
0000
0000
0001
0000
1000
0000
0100
0000
,  // measure 350
0010
0000
0000
0000
0011
0000
1000
0100
,  // measure 351
0010
0000
0000
0000
0000
1001
0000
0110
,  // measure 352
1001
1100
0011
1100
,  // measure 353
0000
0001
0010
0000
0000
1100
0000
0000
,  // measure 354
0110
1010
0000
1001
,  // measure 355
0100
0000
0010
0001
0010
0000
0000
1000
,  // measure 356
0001
0100
0000
0100
0010
1001
0100
0000
,  // measure 357
0000
0000
0000
0100
0000
0000
0010
0000
0001
0000
0100
0000
0001
0000
1000
0000
,  // measure 358
0001
2000
0000
0000
0000
0000
3000
0000
,  // measure 359
0001
0000
0010
0000
0100
0000
1000
0001
0100
0000
0010
1000
0000
0001
0000
0001
,  // measure 360
1000
0000
0010
0000
0100
0000
0001
1000
0100
0000
0010
0001
0000
1000
0000
0100
,  // measure 361
0000
0010
0000
0001
1000
0010
0000
0100
0001
0000
1000
0000
1000
0001
0000
0100
,  // measure 362
0000
0010
0000
1000
0001
0010
0000
0100
1000
0001
0000
0100
0010
1000
0000
0000
,  // measure 363
0000
0100
0000
1000
0000
0010
0000
0100
0000
0001
0000
0010
0100
1000
0000
0000
,  // measure 364
0000
0001
0000
0100
0000
0010
0000
0100
0000
0001
1000
0000
0000
0000
0100
0010
,  // measure 365
0100
0000
1001
0000
1001
0000
0110
0000
0000
0001
1000
0000
0000
0000
0010
0100
,  // measure 366
0001
0000
1100
0000
0011
0000
0000
0000
2200
0000
0000
3300
0000
0000
2020
0000
,  // measure 367
0000
0000
0000
3030
0000
0000
0202
0000
0000
0000
0000
0000
0000
0000
0000
0000
,  // measure 368
0000
0303
0000
0000
0000
0000
0000
0000
;

//---------------dance-single - ----------------
#NOTES:
     dance-single:
     :
     Challenge:
     14:
     0.937,1.000,0.670,0.094,0.576:
0000
0000
0000
0000
,
0000
0000
0000
0000
,
0000
0000
0000
0000
,
0000
0000
0000
0000
,
0000
0000
0000
0000
,
0010
1000
0100
0000
0010
0001
0100
0000
,
1000
0100
0010
0001
0100
0000
1010
0000
,
0100
0001
0010
0000
0100
1000
0010
0000
,
0001
0010
0100
1000
0010
0000
0101
0000
,
0010
1000
0010
0000
0100
0001
0100
0000
,
0010
1000
0100
0001
0100
1000
0010
0000
,
0100
0001
0100
0000
0010
1000
0010
0000
,
0100
0001
0010
1000
0010
0001
0100
0000
,
0010
0001
0010
0000
0100
1000
0100
0000
,
0010
0001
0100
1000
0100
0001
0010
0000
,
0100
1000
0100
0000
0010
0001
0010
0000
,
0100
1000
0010
0001
0010
1000
0100
0000
,
0010
0001
0100
0000
0010
0000
0101
0000
,
0010
0000
1100
0000
0010
0001
1000
0000
,
0010
1000
0100
0000
0010
0000
1100
0000
,
0010
0000
0101
0000
0010
1000
0001
0000
,
0100
0001
0010
0000
0100
0000
0011
0000
,
0100
0000
1010
0000
0100
0001
1000
0000
,
0100
1000
0010
0000
0100
0000
1010
0000
,
0100
0001
0010
0000
0100
1000
0001
0000
,
0010
0000
0000
1000
0100
0000
0000
0001
,
0100
0000
0000
1000
0010
0000
0000
0001
,
0010
0000
0000
0100
1000
0000
0000
0100
,
0001
0000
0000
0010
1000
0010
0001
0010
,
0100
0000
0000
0001
0010
0000
0000
1000
,
0010
0000
0000
0001
0100
0000
0000
1000
,
0100
0000
0000
0010
0001
0000
0000
0010
,
1000
0000
0000
0100
0001
0100
1000
0100
,
0010
0001
0100
0010
1000
0000
1100
0000
,
0100
0000
0000
0010
0001
0000
0101
0000
,
0010
1000
0100
0010
0001
0000
0101
0000
,
0100
0000
0000
0010
1000
0000
1100
0000
,
0100
0001
0010
0100
1000
0000
1010
0000
,
0010
0000
0000
0100
0001
0000
0011
0000
,
0100
1000
0010
0100
0001
0000
0011
0000
,
0010
0001
1000
0100
0010
1000
0010
0001
,
1100
0000
1010
0000
0100
0001
0100
1000
,
0011
0100
1010
0000
,
0101
0000
0011
0000
0100
1000
0100
0001
,
1010
0100
0101
0000
,
1010
0000
1100
0000
0010
0001
0010
1000
,
0101
0010
1100
0000
,
0011
0000
0101
0000
0010
1000
0010
0001
,
1100
0010
0101
0000
,
1010
0100
0011
0100
,
0010
1000
0010
0001
0010
1000
0010
0001
,
1100
0010
0101
0010
,
0100
1000
0100
0001
0100
1000
0100
0001
,
1100
0010
0101
0010
,
0100
1000
0100
0001
0100
1000
0100
0001
,
1010
0100
0011
0100
,
0010
1000
0010
0001
0010
1000
0010
0001
,
1100
0110
0011
0000
,
0001
0010
0100
1000
0100
0010
0001
1000
,
0011
0110
1100
0000
,
1000
0100
0010
0001
0010
0100
1000
0001
,
1010
0110
0101
0000
,
0001
0100
0010
1000
0010
0100
0001
1000
,
0101
0110
1010
0000
,
1000
0010
0100
0001
0100
0010
1000
0001
,
0110
0000
0000
0000
0100
0000
0000
0000
0010
1000
0100
1000
0001
0010
0100
1000
0110
0000
0000
0000
0010
0000
0000
0000
0100
0001
0010
0001
1000
0100
0010
0001
,
0110
0000
0000
0000
0100
0000
0000
0000
0010
0001
0100
0001
1000
0010
0100
0001
0110
0000
0000
0000
0010
0000
0000
0000
0100
1000
0010
1000
0001
0100
0010
1000
,
0001
0100
1000
0100
0000
0000
0010
0001
0010
1000
0010
1000
,
0001
0010
1000
0010
0000
0000
0100
0001
0100
1000
0100
1000
,
0010
0001
0010
1000
0000
0000
0100
0001
0100
1000
0100
0010
,
0100
0001
0100
1000
0000
0000
0010
0001
0010
1000
0010
0100
,
0010
1000
0100
0100
1000
0010
0100
0001
0010
0010
0001
0100
,
0001
0100
1000
1000
0100
0001
0001
0010
1000
1000
0010
0001
,
1000
1000
1000
0100
0100
0100
0001
0001
0001
0010
0010
0010
,
0001
0001
0001
0100
0100
0100
1000
1000
1000
0010
0010
0010
,
0100
0000
0001
1000
0010
0000
1000
0001
0100
0000
0001
1000
0010
0000
1000
0001
,
0100
0000
1000
0001
0010
0000
0001
1000
0100
0000
1000
0001
0010
0000
0001
1000
,
0001
0000
0100
0010
1000
0000
0010
0100
0001
0000
0100
0010
1000
0000
0010
0100
,
0001
0000
0100
0010
1000
0000
0010
0100
0001
0000
0100
0010
1000
0000
0010
0100
,
0011
0000
0000
0000
1000
0000
0100
0000
0010
0000
0001
0100
1010
0000
0000
0000
,
1100
0000
0000
0000
0001
0000
0010
0000
0100
0000
1000
0010
0101
0000
0000
0000
,
1010
0000
0000
0000
0001
0000
0100
0000
0010
0000
1000
0100
0011
0000
0000
0000
,
0101
0000
0000
0000
1000
0000
0010
0000
0100
0000
0001
0010
1100
0000
0000
0000
,
0001
0100
1000
0100
0001
0010
0100
1000
,
0010
0001
0010
1000
0100
0010
0001
1000
,
0100
0001
0100
1000
0010
1000
0100
0001
,
0100
1000
0010
0001
0010
1000
0100
0010
,
0001
0010
1000
0010
0001
0100
0010
1000
,
0100
0001
0100
1000
0010
0100
0001
1000
,
0010
0001
0010
1000
0100
1000
0010
0001
,
0010
1000
0100
0001
0100
1000
0110
0010
,
1000
0100
0001
0100
1000
0010
0100
0001
,
0010
1000
0010
0001
0100
0010
1000
0001
,
0100
1000
0100
0001
0010
0001
0100
1000
,
0100
0001
0010
1000
0010
0001
0100
0010
,
1000
0010
0001
0010
1000
0100
0010
0001
,
0100
1000
0100
0001
0010
0100
1000
0001
,
0010
1000
0010
0001
0100
0001
0010
1000
,
0010
0001
0100
1000
0100
0001
0110
0000
,
0100
0000
1000
0000
0100
0000
0001
0000
0010
0000
0100
1000
0100
0000
0001
0000
,
0010
0000
0100
0001
0100
0000
1000
0000
0010
0000
1000
0100
1000
0000
0011
0000
,
0100
0000
0001
0000
0100
0000
1000
0000
0100
0000
0010
1000
0000
0000
0010
0001
,
0000
0000
0100
1000
0000
0000
0100
0001
0100
0000
0010
0000
1000
0000
1000
0000
,
0100
0000
0010
1000
0010
0000
0100
0000
0010
0000
0100
0001
0100
0000
0010
0000
,
1000
0000
0001
0100
0001
0000
0000
0000
0100
0000
1010
0000
0000
0000
0101
0000
,
0010
0000
1000
0100
1000
0000
0001
0100
0001
0000
0010
1000
0000
0000
0010
0001
,
0000
0000
0100
1000
0000
0000
0100
0001
0000
0000
0010
0000
0100
0000
1000
0000
,
0100
0000
0001
0000
0010
0000
0100
0010
1000
0000
0001
0000
0100
0000
0010
0000
,
1000
0000
0001
0100
0010
0000
1000
0000
0100
0000
0001
0000
0000
0000
0010
0000
,
0100
0000
0010
0001
0000
0000
0010
1000
0000
0000
0010
0001
0000
0000
0100
0000
,
0010
0000
1000
0001
1000
0000
0100
0000
0010
0000
1000
0000
0010
0000
0001
0000
,
1000
0000
1000
0100
0000
0000
0001
0100
0000
0000
1000
0010
0000
0000
0001
0010
,
0000
0000
0100
1000
0000
0000
0100
0001
0000
0000
0010
0000
0100
0000
0010
0000
,
1001
0000
0010
1000
0000
0010
0001
0000
0110
0000
1000
0100
0000
0001
0010
0000
,
1001
0000
0100
0010
0000
0010
0100
0000
1001
0000
0100
0000
0010
0001
0010
0000
,
1000
0000
0001
0100
0010
0000
0100
0000
0001
0000
1000
0100
0010
0000
0100
0000
,
1000
0000
0001
0100
1000
0000
0100
0000
1000
0100
0001
0000
0010
0000
0100
0000
,
0000
0000
0010
1000
0000
0000
1000
0100
0000
0000
1100
0001
0000
0000
0010
0000
,
0100
0000
1000
0100
1000
0000
0010
0000
0001
0010
0001
0000
0100
0000
0010
0000
,
0000
0000
1000
0100
0000
0000
0001
0100
0000
0000
0010
0100
0010
0000
0100
0000
,
0001
0010
0000
0000
1000
0010
0000
0000
0100
0010
0000
0000
1100
0000
0101
0000
,
0010
0000
0100
0000
1000
0100
1000
0000
0010
0000
0100
0000
0001
0100
0001
0000
,
0010
0000
1000
0000
0001
0100
0010
0000
0100
0000
0001
0000
1000
0100
0010
0000
,
0001
0000
0100
0000
0010
1000
0100
0000
0000
0000
1010
0000
0100
0000
0011
0000
,
0100
0000
1000
0000
0001
0010
0100
0000
0010
0000
0001
0000
1000
0010
0100
0000
,
0001
0000
0010
0000
0100
1000
0010
0000
0000
0000
1100
0000
0010
0000
0101
0000
,
0010
0000
1000
0000
0001
0100
0010
0000
0100
0000
0001
0000
1000
0100
0010
0000
,
0001
0000
0100
0000
0010
1000
0100
0000
0000
0000
1010
0000
0100
0000
0011
0000
,
0100
0000
1000
0000
0001
0010
0100
0000
0010
0000
0001
0000
0000
0000
1100
0000
,
0101
0000
1100
0000
0010
0001
0010
0000
0100
1000
0100
0000
0010
0001
0010
0000
,
0001
0000
1000
0100
1000
0000
0001
0000
0100
0000
0001
0010
0000
0001
0100
0000
,
0000
0000
1000
0010
0000
0000
0001
0010
0000
0000
0100
0010
0100
0000
0001
0000
,
1000
0000
0001
0100
0001
0000
1000
0000
0100
0000
1000
0010
0000
1000
0100
0000
,
0000
0000
0001
0010
0000
0000
1000
0010
0000
0000
0100
0010
0100
0000
1000
0000
,
0001
0000
1000
0010
1000
0000
0001
0000
0010
0000
0001
0100
0000
0001
0010
0000
,
0000
0000
1000
0100
0000
0000
0001
0100
0000
0000
0010
0100
0010
0000
0001
0000
,
1000
0000
0001
0010
0001
0000
1000
0000
0010
0000
1000
0100
0000
1000
0010
0000
,
0000
0000
0001
0100
0000
0000
1000
0100
0000
0000
0010
0100
0010
0000
1000
0000
,
0100
0000
0010
0000
0100
0000
1000
0100
1000
0000
0100
0000
0001
0000
0100
0010
,
0100
0000
1000
0000
0100
0000
0001
0100
0001
0000
0100
0000
0010
0000
1000
0100
,
1000
0000
0001
0000
0010
0100
0010
0000
0001
0000
0100
0000
0010
1000
0010
0000
,
0110
0000
0000
0000
1000
0000
0001
0000
0110
0000
1000
0001
1000
0000
0100
0000
,
0010
0000
0001
0000
0000
0000
0010
1000
0010
0000
0001
0000
0100
0000
0010
0001
,
0010
0000
1000
0000
0100
0000
0001
0010
0001
0000
0100
0000
1000
0000
0010
0100
,
0010
0000
0001
0000
0100
1000
0100
0000
0010
0000
0001
0000
1000
0010
1000
0000
,
0100
0000
0001
0010
0001
0000
1000
0100
1000
0000
0010
0100
0010
0000
1000
0000
,
0000
0000
0000
0100
0000
0000
0000
0000
0000
0000
0000
0000
0010
0000
0000
0000
0100
0000
0000
0000
0001
0000
0000
0000
0010
0000
0000
0000
0100
0000
0000
0000
1000
0000
0000
0000
0010
0000
0000
0000
0100
0000
0000
0000
0001
0000
0000
0000
,
0010
0100
1000
0001
0100
0001
1000
0100
1000
0001
0100
0001
,
1000
0010
1000
0100
0010
0001
0100
0010
1000
0100
0010
0001
,
0100
0000
1000
0000
0100
0000
0001
0000
1000
0000
0010
0000
0001
0000
0000
0020
0000
0000
0000
0000
0000
0000
0000
0000
,
0000
1000
0000
0001
0000
0000
0100
0000
,
0000
1000
0000
0000
0031
0000
1000
0100
,
1000
0011
0100
1100
,
0010
0001
1000
0000
1001
0000
0100
0000
,
0010
1000
0001
0000
1001
0000
0010
0000
,
0100
0010
1001
0000
0100
0000
0101
0000
,
0010
0000
1001
0000
0100
0000
0010
0100
,
0010
0101
0010
1001
,
0100
0010
0001
0000
0100
0000
1010
0000
,
0100
0000
1001
0000
0010
0000
1000
0100
,
1000
0000
1010
0000
0001
0100
0001
0000
,
0011
0000
1000
0001
1001
0000
1000
0010
,
1000
0000
1100
0000
0001
0010
0001
0000
,
0101
0000
1000
0001
1001
0000
1000
0100
,
1100
0000
1000
0001
1001
0000
0010
0001
,
0011
0000
0010
0100
0110
0000
1000
1100
,
0000
0001
0101
0000
0010
1010
0000
0010
,
0011
0000
0110
0000
1001
0000
0010
1000
,
0001
0101
0000
0000
0000
0100
0010
0001
,
1000
1100
0000
0000
0000
0001
1100
0000
,
1001
0000
0101
0000
0010
1000
1010
0000
,
1001
0000
0100
0001
0100
0010
0100
1000
,
0110
0000
0000
0000
0000
0100
0010
1000
,
0100
0001
0000
0000
0001
0101
0000
0010
,
1010
0000
0100
0110
0000
0000
0001
0100
,
0010
1000
0100
0010
1001
0000
1000
0100
,
1000
0011
0100
1100
,
0010
0001
1000
0000
1001
0000
0100
0000
,
0010
1000
0001
0000
1001
0000
0010
0000
,
0100
0010
1001
0000
0100
0000
0101
0000
,
0010
0000
1001
0000
0100
0000
0010
0100
,
0010
0101
0010
1001
,
0100
0010
0001
0000
0100
0000
1010
0000
,
0100
0000
1001
0000
0010
0000
0100
0010
,
1001
0000
0010
0100
1001
0000
1000
0001
,
0110
0000
0001
1000
0110
0000
0001
0110
,
0000
1000
0110
0000
0001
0110
0000
1000
,
0110
0000
1001
0000
1001
0000
1000
0100
,
1001
0000
0110
0000
0101
0000
0001
0100
,
1001
0110
1100
0110
,
0001
0101
0000
1000
1100
0000
0001
0101
,
0000
0000
1010
0100
1001
0000
0002
0000
,
0023
0000
2030
0000
3200
0000
1300
0010
,
2000
3020
0032
0203
,
0301
0000
0000
0010
0000
0000
0100
0000
0000
0000
0000
0001
0000
0000
0000
0000
1000
0000
0010
0000
0000
0000
0000
0001
,
0000
0000
1000
0100
0000
0000
0000
0000
0001
0000
0000
0000
,
0000
1000
0000
0000
0000
0000
0100
0000
0000
0000
0000
0010
0000
0000
0000
0000
1000
0000
0000
0000
0000
0000
0000
0000
,
0000
0000
0000
0000
0000
0001
0000
0000
0000
0000
0000
0000
0000
0000
0000
0000
0000
0000
0000
0000
0000
0000
0000
0000
,
0000
0010
0000
0100
0000
0000
0000
0000
0000
1100
0000
0000
0000
0000
0000
0011
,
0000
0000
1000
0100
1000
0000
0011
0000
,
0100
0000
1100
0000
0010
0001
1000
0000
,
1001
0000
0100
0000
0010
1000
0001
0000
,
1001
0000
0010
0000
0100
0010
1001
0000
,
0100
0101
0010
1001
,
0100
0000
0000
0000
1001
0000
0000
0000
0000
0110
0000
0000
0000
0000
1001
0000
,
0000
1010
1001
0101
,
1001
0000
0000
0000
1000
0100
0000
0000
0000
0000
0000
0000
0001
0100
0000
0000
,
0000
0000
1000
1010
0000
0001
0011
0000
,
0110
0000
1000
0100
0000
0001
0100
0000
,
0110
0000
0001
0011
0000
1000
1010
0000
,
0110
0000
0001
0101
0000
1000
1100
0000
,
0110
1001
0101
1001
,
1100
1001
0011
1001
,
1010
0000
0100
1000
0010
1000
0100
0001
,
0100
1000
0010
0001
0010
0100
0001
0010
,
1000
0010
0100
1000
0100
0001
0100
1000
,
0010
0001
0010
1000
0100
0001
0100
1000
,
0010
0001
0010
0100
0001
0010
1000
0010
,
0001
1000
0100
0010
1000
0010
0001
0100
,
0010
1000
0100
0010
0100
0001
0100
0010
,
0100
1000
0001
0010
0001
1000
0001
0100
,
0001
1000
0010
0100
0010
0001
0010
0100
,
0010
1000
0100
1000
0100
0010
0100
0001
,
0100
0010
1000
0010
1000
0001
0100
0001
,
0100
1000
0010
0100
0010
0001
0010
0100
,
0001
0000
0000
0000
,
0000
0000
0000
0000
0000
0000
0000
0000
1020
0000
0000
0100
0100
0000
0000
0001
,
0000
0000
0130
0000
0000
0000
1000
0000
0100
0000
0000
0000
1001
0000
0000
0000
0021
0000
0000
0000
0000
0000
0100
0000
0100
0000
0000
0000
0031
0000
0000
1000
,
0100
0001
0100
1000
2002
0000
0000
0000
0000
0000
0000
0000
0000
0000
0000
0000
,
0000
0000
0000
3003
,
0000
0210
0000
0000
,
1000
1300
0000
0000
,
0011
0000
1100
0000
,
0001
1000
0000
0010
,
0001
0010
1000
0001
,
0010
0100
1000
0010
,
0001
0010
1000
0000
0100
0000
0010
0000
,
0001
0000
1001
0000
0000
0000
1000
0001
,
0010
0100
1000
0000
0000
0000
0001
0000
,
0100
0100
0000
0000
,
1010
0000
0101
0000
,
1000
0001
0000
0110
,
0000
0000
0001
1000
0100
0010
0001
0000
,
1000
1100
0000
0011
,
0000
0100
1000
0000
0010
0000
0100
0000
,
0001
2002
0000
0000
,
0000
0000
0000
0000
,
3003
0110
0000
0000
,
1001
1001
0000
0000
,
0011
0000
1100
0000
,
1001
1001
0000
0010
,
0001
0100
1000
0100
,
0010
1000
0001
0010
,
0100
1000
0010
0000
1000
0000
0100
0000
,
0001
0000
0100
0000
1000
0000
0010
0100
,
0001
1000
0010
0000
0001
0000
0010
0000
,
1000
0100
0010
1000
,
0010
0001
0100
0010
,
1000
0100
0010
0001
,
1000
0000
0000
0010
0000
0001
0000
0010
0000
0100
0000
1000
,
0000
0100
0000
0010
0000
1000
0000
0010
0000
0100
0000
0001
,
0000
0010
0000
1000
0000
0010
0000
0100
0000
0001
0000
0100
,
0000
1000
0000
0010
0000
0100
0000
0001
0000
0010
0000
0100
,
0000
0000
0000
0000
1000
0000
0000
0000
0000
0000
0000
0000
0001
0000
0000
0100
0000
0000
0001
0000
0000
0000
0000
0000
1010
0000
0000
0000
0000
0000
0000
0000
0000
0000
0000
0000
0100
0000
0000
1000
0000
0000
0100
0000
0000
0000
0000
0000
,
0011
0000
1100
0000
0010
1000
0010
0000
0101
0000
0000
0000
0010
0001
0010
0000
,
1100
0000
0011
0000
0010
0100
1000
0010
1000
0001
0100
0000
0010
0100
0001
1000
,
0010
1000
0100
0000
0010
0001
1000
0010
1000
0100
0010
0000
0001
1000
0100
0001
,
0100
1000
0010
0000
0001
0100
0001
1000
0100
0000
0100
1000
0001
1000
0010
0100
,
0000
0100
0101
0000
0010
1000
0100
0010
0001
0000
0001
1000
0100
0010
0001
1000
,
0000
1000
0100
0010
0001
1000
0000
1000
0010
0100
0001
0010
0100
0000
0100
1000
,
0100
0010
0001
1000
0010
0100
0000
0001
1000
0001
0100
0010
1000
1000
0001
0100
,
0010
1000
0000
1000
0100
0010
0001
1000
0010
0000
0010
0100
0010
1000
0001
0010
,
0100
1000
0000
1000
0010
0100
0001
0010
0100
1000
0000
0101
0000
1000
0100
0000
,
0100
0010
0001
1000
0010
0100
0000
0100
0001
0100
0010
1000
0100
0010
0001
0000
,
0001
0100
1000
0100
0001
1000
0000
1000
0100
1000
0001
0000
0100
0000
0010
0000
,
1000
0000
1000
0100
1000
0000
1000
0000
0010
0000
0100
0000
0001
0000
0001
0010
,
0001
0000
0001
0000
1000
0000
0100
0000
0010
0000
0001
1000
0001
0000
0001
0000
,
0100
0000
0010
0000
1000
0000
1000
0001
1000
0000
1000
0100
0001
0100
1000
0001
,
0100
1000
0100
0001
1000
0000
0001
0100
1000
0100
0001
1000
0100
0010
0001
0100
,
1000
0000
0001
0010
1000
0010
0001
1000
0010
0001
0010
1000
0001
0000
1000
0010
,
0001
0010
1000
0001
0010
0100
1000
0010
0100
0000
1001
0000
0010
0000
0100
0000
,
0010
1000
0010
0100
0010
0001
0010
1000
,
0010
0100
0010
1001
0110
0000
0011
0101
,
1001
0000
1010
1100
1001
0000
0011
1100
,
0110
0000
1010
0101
1001
0000
0100
0000
,
0010
0100
0010
0100
,
0010
0000
1001
0110
1001
0000
1000
0001
,
1000
0010
1000
0100
0010
0001
0100
0020
,
1000
0000
0100
0000
0031
0000
1000
0100
,
0010
0002
0100
0003
1000
0010
0100
0001
,
0020
0100
0030
0001
1000
0010
0100
0001
,
0020
0100
0030
0001
1000
0010
0100
0001
,
2100
0000
3001
0100
0010
1000
0200
0010
,
0000
1000
0000
0001
0300
1000
0010
0100
,
0001
1000
0200
0010
1000
0010
1000
0310
,
0000
1001
0000
0000
1000
0100
1000
0010
,
1000
0001
0000
0010
0100
1000
0101
0000
,
1100
0000
0001
0010
0100
1000
0101
0000
,
1100
0000
0000
0000
1001
0000
0000
0100
0002
0000
0000
2003
0010
0000
3000
0100
,
0002
0000
0000
0003
1001
0000
1000
0000
0001
0000
0100
0000
0001
0000
0010
0000
,
0001
1000
0000
0010
0100
0001
1100
0000
,
0101
0000
1000
0010
0100
0001
1100
0000
,
0101
0000
0000
0000
1001
0000
0000
0010
2000
0000
0000
3002
0100
0000
0003
0010
,
2000
0000
0000
3000
1001
0000
0100
0000
0001
0000
0010
0000
0001
0000
0100
0000
,
0001
1000
0000
0010
0100
0001
0110
0000
,
1001
0000
1000
0010
1000
0001
0110
0000
,
1001
0000
0000
0000
0110
0000
0000
2000
0010
0000
3000
0002
0100
0000
0003
2000
,
0010
3000
1001
0010
0100
0001
0100
1000
,
0100
0010
0000
0001
0010
0100
0011
0000
,
0100
0010
1100
0001
1000
0100
0010
0001
,
1000
0001
0101
0010
1010
0100
1100
0010
,
0011
0000
1000
0000
1001
0000
0000
0100
0100
0000
0000
0011
0000
1010
0000
0100
,
0100
0000
0000
0000
1001
0000
0000
0000
0100
0001
0100
1000
0100
0000
0010
0000
1000
0000
0001
0000
0000
0000
0100
0000
0001
0000
1000
0000
0100
0000
0010
0000
,
0001
0000
0000
0000
0000
0001
1000
0100
0001
0000
0000
0000
0000
0000
0100
0000
0100
0000
0000
0000
0000
0000
1010
0000
0000
0000
0011
0000
0000
0000
0100
0000
,
0100
0000
0000
0000
1001
0000
0000
0000
0110
0000
0000
0000
0000
0000
0100
0000
0100
0000
0000
0000
0001
0000
0000
0010
1000
0000
0010
0000
0001
0000
0100
0000
,
0110
0000
0000
0000
,
0000
0000
0000
0000
,
0001
0000
0100
0000
,
1000
0000
0100
0000
,
0001
0000
0100
0000
,
1000
0000
0100
0000
,
0001
0100
1000
0100
,
0001
0100
1000
0100
,
0001
0100
1000
0100
,
0001
0010
1000
0010
,
0001
1000
0100
0001
,
0100
0010
0001
1000
,
0010
0100
0001
0010
,
0100
1000
0000
0001
0010
0000
0100
1000
,
0010
0001
0010
1000
,
0010
0100
0001
0100
,
1000
0100
0001
0010
,
2100
0010
3001
0000
0100
0000
0010
0000
,
1000
0100
0010
0001
,
1000
0010
0100
0001
,
1000
0000
0100
0010
0000
0001
1000
0000
,
0010
0100
0001
0000
1000
0000
0100
0000
,
0010
0001
1000
0010
,
0001
0010
1000
0100
,
0001
0000
0201
0010
1300
0000
0100
0000
,
0010
1000
0010
0001
,
0100
0010
1000
0001
,
0010
0000
0000
0000
0100
0000
0000
0000
1000
0001
0000
0000
0000
0000
0100
0010
,
0000
0000
0000
0000
1000
0001
0000
0000
0010
0000
0000
0000
0001
0000
0000
0000
,
0100
0010
1000
0001
,
0100
0010
1000
0100
,
0010
0000
0000
0000
0000
0000
0000
0000
0001
0000
0000
0000
0000
0000
0000
0000
1100
0000
0000
0000
0000
0010
0001
0000
1000
0000
0100
0000
0000
0000
0010
0001
,
0000
0100
0010
0000
0000
1000
0001
0000
0100
0000
0010
0000
1000
0100
1000
0001
1000
0100
0010
0001
0100
0010
0100
0001
0000
0001
0010
0001
0100
0010
0100
0001
,
1000
0100
0010
0001
1000
0010
0100
0001
0000
0001
0010
0100
0000
0000
0000
0000
0000
0000
0000
0000
1000
0000
0000
0000
0100
0000
0000
0000
0010
0000
0000
0000
,
0001
0100
1000
0100
0001
0010
1000
0010
,
0001
0100
0010
1000
0001
0010
0100
1000
,
0001
0100
0010
1000
0100
1000
0001
0100
,
0010
1000
0001
0010
0100
1000
0001
0100
,
0010
1000
0001
0010
0100
0001
0100
1000
,
0010
0100
0010
0001
0010
1000
0001
0010
,
0100
1000
0100
0001
1000
0001
0100
0010
,
1000
0100
1000
0010
0001
0010
1100
0000
,
0011
0000
0000
0000
0000
0000
1000
0000
0001
0000
1000
0000
,
0001
0100
0001
1000
0001
0000
0001
1000
0001
0100
0010
1000
0000
1000
0100
1000
,
0001
0100
0001
1000
0001
0000
1000
0100
1000
0001
0010
0100
0000
0001
0100
1000
,
0100
0001
0000
0001
0010
1000
0010
0001
1000
0000
1000
0001
1000
0001
0100
1000
,
0100
0001
0000
1000
0010
0001
0010
1000
0100
0010
0001
0100
0001
1000
0000
1000
,
0100
0001
0010
1000
0001
0000
0001
0100
0001
1000
0100
1000
0001
1000
0000
1000
,
0100
0001
0010
1000
0001
0010
0000
1100
0000
0001
0100
0000
0010
1000
0100
0010
,
0001
1000
0000
1000
0100
0010
0001
0100
0010
1000
0100
0000
1000
0001
0100
0010
,
1000
0001
0000
1000
0010
0100
0000
0000
2002
0000
0000
0000
3003
0000
0220
0000
,
0000
0000
0000
0330
0000
0000
2002
0000
0000
0000
0000
0000
0000
0000
0000
0000
,
0000
0000
0000
3003
0000
0000
0000
0000
;

//---------------dance-single - ----------------
#NOTES:
     dance-single:
     :
     Easy:
     7:
     0.478,0.735,0.529,0.090,0.058:
0000
0000
0000
0000
,
0000
0000
0000
0000
,
0000
0000
0000
0000
,
0000
0000
0000
0000
,
0000
0000
0000
0000
,
1000
0100
0001
0000
,
0001
0000
1000
0000
,
0001
0100
1000
0000
,
1000
0001
0000
0000
,
1000
0100
1000
0001
,
0010
0100
1100
0000
,
1000
0010
1000
0001
,
0100
0010
1010
0000
,
1000
0010
1000
0001
,
0100
0010
1010
0000
,
1000
0100
1000
0001
,
0010
0100
1100
0000
,
0010
0100
0010
1000
,
0001
0000
1000
0100
,
0001
0100
0010
0001
,
1000
0000
0100
0001
,
0100
0010
0100
1000
,
0001
0000
1000
0010
,
0001
0010
0100
0001
,
1000
0000
0010
0001
,
1100
0000
0101
0000
,
1100
0000
0101
0000
,
1100
0000
0101
0000
,
0110
0000
0001
1000
,
0011
0000
1010
0000
,
0011
0000
1010
0000
,
0011
0000
1010
0000
,
0110
0000
1000
0001
,
1000
0100
0001
0100
,
1000
0000
1100
0011
,
1000
0010
0001
0010
,
1000
0000
1010
0101
,
0001
0100
1000
0100
,
0001
0000
0101
1010
,
0001
0010
1000
0010
,
0001
0000
0011
1100
,
0010
0100
1000
1000
,
0100
0011
1001
0000
,
0010
0100
0001
0001
,
0100
1010
1001
0000
,
0100
0010
1000
1000
,
0010
0101
1001
0000
,
0100
0010
0001
0001
,
0010
1100
1001
0000
,
1000
0100
1000
0001
,
0010
0010
0010
0010
,
0001
0100
0001
1000
,
0010
0010
0010
0010
,
1000
0010
1000
0001
,
1000
1000
1000
1000
,
0001
0010
0001
1000
,
0001
0001
0001
0001
,
0100
1000
0100
0000
,
1010
1000
1010
1000
,
0010
0001
0010
0000
,
0101
0001
0101
0001
,
0010
1000
0010
0000
,
1100
1000
1100
1000
,
0100
0001
0100
0000
,
0011
0001
0011
0001
,
0100
1001
0010
1001
,
1000
0110
0001
0110
,
1000
1000
0100
0100
,
0001
0001
0100
0100
,
1000
1000
0010
0010
,
0001
0001
0010
0010
,
1000
0100
0001
0010
,
1000
0100
0001
0010
,
0001
0100
1000
0010
,
0001
0100
1000
0010
,
0100
1010
0101
0100
,
0100
1100
0011
0100
,
0100
0011
1100
0100
,
0100
0101
1010
0100
,
0010
1100
0011
0010
,
0010
1010
0101
0010
,
0010
0101
1010
0010
,
1010
0011
1100
0101
,
1000
0100
0001
0100
,
1000
0100
0001
0100
,
1000
0010
0001
0010
,
1000
0010
0001
1000
,
0001
0100
1000
0100
,
0001
0100
1000
0100
,
0001
0010
1000
0010
,
0001
0010
1000
0001
,
1000
0100
0001
0010
,
0001
0100
1000
0010
,
0001
0100
1000
0010
,
1000
0010
0001
0100
,
1000
0010
0001
0100
,
0001
0010
1000
0100
,
0001
0010
1000
0100
,
1000
0010
0001
0100
,
0000
0100
0000
0010
0000
1000
0000
0000
,
0000
1100
0000
0000
0000
0011
0000
0000
,
0000
0100
0000
0010
0000
1000
0000
1000
,
0000
0001
0000
0001
0000
0000
0000
0000
,
0000
0100
0000
0010
0000
0001
0000
1000
,
0000
0000
0100
0000
0000
0010
0000
0101
,
0000
0010
0000
0010
0000
0100
0000
0110
,
0000
1100
0000
0101
0000
0110
0000
0000
,
0001
0000
1000
0000
,
0100
1010
0100
0011
,
1000
0000
0001
0000
,
1100
0010
0101
0000
,
0001
0000
1000
0000
,
0000
0100
0000
0100
0000
0010
0000
0000
,
1100
0000
0011
0000
,
1010
0011
1010
0011
,
0110
0000
1001
0000
,
1100
0101
0110
0000
,
0000
0100
0000
0100
0000
0100
0000
0000
,
0010
0000
0010
0110
,
0000
1100
0000
0010
0000
0011
0000
0000
,
0100
1010
0100
0011
,
0110
0000
1001
0000
,
1000
0100
1000
0000
,
1000
0000
0011
0000
,
0001
0100
0001
0000
,
0001
0000
1010
0000
,
1000
0010
0001
0000
,
1000
0000
0101
0000
,
0001
0010
1000
0000
,
1000
0110
0001
0110
,
1000
0010
0101
0000
,
0000
1100
0000
0011
0000
1010
0000
0000
,
0001
0010
1100
0000
,
0000
0101
0000
1010
0000
0011
0000
0000
,
1000
0100
0011
0000
,
0000
1010
0000
0101
0000
1100
0000
0000
,
0001
0100
1010
0000
,
0000
0011
0000
1100
0000
0101
0000
0000
,
0110
0000
0100
1000
,
0101
1100
0101
1100
,
1010
0110
0101
0110
,
1100
0101
1001
0000
,
0110
0000
0010
1001
,
0011
1010
0011
1010
,
1100
0110
0011
0110
,
1010
0011
1001
0000
,
0000
0100
0000
0000
1000
0000
0000
0000
0100
0000
0000
0000
0001
0000
0000
0000
,
0000
0001
0100
1000
,
0000
1000
0010
0001
,
0000
0000
0010
0000
0000
0200
0000
0000
,
0000
0001
0000
1000
0000
0000
0001
0000
,
0000
1000
0000
0000
0301
0000
1010
0000
,
0000
0101
0000
0000
,
0100
0010
1000
0000
,
1000
0001
0010
0000
,
0001
0000
1001
0100
,
0000
0110
0000
0000
,
0100
0001
0010
0000
,
0010
1000
0001
0100
,
0000
1010
0000
1000
,
0000
0000
1000
0000
,
0001
1001
0000
0001
,
0000
0000
0001
0000
,
0000
1000
1001
1010
,
0000
1001
0000
0101
,
0000
1001
0000
0010
,
0000
0000
0110
0000
,
0000
0001
1001
0010
,
1010
0000
0000
0000
0000
1000
0000
1100
,
0000
0000
0000
0100
,
0010
1001
0000
0000
,
0000
0100
0010
0011
,
0000
0000
0000
0000
0000
0001
0000
0101
,
0000
0000
1010
0000
,
1001
0000
0000
0100
,
0000
1001
0000
0101
,
0000
1010
0000
0000
,
0010
0100
0001
0000
,
0001
1000
0100
0000
,
1000
0000
1001
0010
,
0000
0110
0000
0000
,
0010
1000
0100
0000
,
0100
0001
1000
0010
,
0000
0101
0000
0110
,
0000
1001
0000
0110
,
0000
1001
0000
1100
,
0000
1001
0000
0000
0011
0000
0000
1001
,
0000
0100
0110
1000
,
0000
0010
1001
0001
,
0000
0100
1001
1010
,
0000
1001
0000
0000
0101
0000
0000
1001
,
0000
0010
0110
1000
,
0100
0001
0100
1000
,
0001
0100
1000
0100
,
0001
0100
0000
0010
,
0000
0100
0000
0000
,
0000
1000
0000
0000
,
0000
0001
0000
0000
,
0000
0000
0000
0000
,
0000
1010
0000
0101
,
0000
0000
0100
0010
,
1000
0000
1000
0001
,
0010
0000
0001
0000
,
1001
0100
0000
0110
,
0000
0000
0000
0000
0000
0000
0000
0000
0000
0010
0000
0000
0000
0000
0010
0000
,
0000
0010
0001
1000
,
0000
0110
0000
1001
,
0000
0000
1000
0000
0000
1010
0000
0000
,
0000
0000
0001
0000
0000
0011
0000
0000
,
0000
0000
0010
0000
0000
1010
0000
0000
,
0000
0000
0010
0000
0000
0011
0000
0000
,
0000
1100
0000
1001
,
0000
0101
0000
1001
,
0000
1000
0100
1000
,
0001
1000
0010
1000
,
0001
1000
0010
1000
,
0001
1000
0100
1000
,
0001
0100
0010
0100
,
1000
0100
0010
0100
,
0001
1000
0100
1000
,
0001
1000
0100
1000
,
0001
1000
0010
1000
,
0001
0010
0100
0010
,
1000
0010
0100
0010
,
0001
0010
1000
0100
,
0010
0000
0000
0000
,
0000
0000
1100
0100
,
1000
0000
0010
0000
1000
0000
0001
1000
,
0100
1000
0020
0000
0000
0000
0000
0000
,
0000
0000
0000
0030
,
0000
0100
0000
0000
,
0000
0001
0000
1000
,
0000
0001
0000
0010
,
0000
0001
0000
1000
,
0001
1000
0010
1000
,
0010
0100
0001
0100
,
0001
0010
0100
0010
,
0100
1000
0000
0001
,
1000
0001
0000
0000
,
0010
0100
0000
0000
,
0010
0000
0001
0000
,
0010
1000
0000
0000
,
0000
0010
0100
0010
,
0001
1000
0000
0001
,
0000
1000
0100
0010
,
0001
2000
0000
0000
,
0000
0000
0000
3000
,
0000
0001
0000
0000
,
0010
0100
0000
0000
,
1000
0000
0010
0000
,
0100
0001
0000
0100
,
0001
1000
0001
0010
,
0001
1000
0001
1000
,
0001
0001
1000
0010
,
0100
0001
0000
0100
,
0001
0100
0001
0010
,
0100
1000
0010
0100
,
0001
1000
0100
1000
,
0001
0010
0001
1000
,
0001
2000
0000
3200
,
0000
0302
0000
0203
,
0000
2300
0000
3020
,
0000
0032
0000
0023
,
0000
0000
0000
0000
0230
0000
0000
0300
0002
0000
0000
0003
0200
0000
0000
0300
,
2000
0000
0000
3000
0200
0000
0000
0300
0002
0000
0000
0003
0020
0000
0000
0030
,
2000
0000
0000
3000
0020
0000
0000
0030
0002
0000
0000
0003
0200
0000
0000
0300
,
2000
0000
0000
3000
0200
0000
0000
0300
0002
0000
0000
0003
0020
0000
0000
0030
,
0002
0000
0000
0003
0010
0000
0010
0000
0100
0000
0000
0000
0010
0000
0010
0000
,
0100
0000
0010
0010
0100
0000
0010
0000
,
0010
0010
1000
0000
0001
0000
1000
0000
,
1000
0001
1000
0001
,
0001
1000
0000
0000
0000
0001
0000
0000
0000
1000
0000
0000
0000
1000
0000
0000
,
0000
0001
0000
0000
0000
1000
0000
0000
0000
0001
0000
0000
0000
1000
0000
0000
,
0000
0100
0000
0000
0000
0010
0000
0000
0000
0010
0000
0000
0000
0001
0000
0000
,
0000
0100
0000
0000
0000
0010
0000
0000
0000
0010
0000
0000
0000
0000
1001
0000
,
0000
0100
0000
0100
0000
0010
0000
1001
,
0000
0100
0000
0100
0000
0010
0000
0001
,
0000
0100
0000
0001
0000
0010
0000
0100
,
0000
0100
0000
1000
0000
0010
0000
1000
,
0000
0100
0000
0010
0000
0010
0000
0001
,
0100
0000
0010
1000
0000
0100
0010
0000
,
0001
1000
0000
0100
0010
0000
0001
0100
,
0000
0010
1000
0000
0100
0010
0000
0000
,
0001
0000
0001
1000
,
0100
1000
0100
0000
,
0010
0000
0010
0001
,
0100
0010
1000
0000
,
1000
0000
1000
0000
,
0010
0000
0000
0000
0010
0000
0000
0100
,
0000
0100
0000
0000
0000
0001
0000
0001
,
0000
0001
0000
0000
0000
0000
0000
1000
,
0000
0001
0000
0000
0100
0000
0010
0000
,
0100
0000
0001
0000
,
1000
0100
0010
0000
,
0000
0000
0001
0000
1000
0000
0000
0010
,
0000
0010
0000
0000
0100
0000
0100
0000
,
0010
0000
0000
1000
0000
0001
0000
0000
,
0000
1001
0100
0000
0010
0000
1000
0000
,
0001
0110
1001
1001
,
1001
0110
1000
0001
,
0010
0100
1000
0010
,
0100
0001
0010
0001
,
0100
1010
0101
0101
,
0101
1010
0001
0100
,
1000
0100
0001
0010
,
1000
0010
0001
1000
,
0001
0110
1001
1001
,
1001
0110
0001
0010
,
0100
0001
0100
1000
,
0010
0100
1000
0100
,
0001
0011
0101
1001
,
0010
0100
0001
0100
,
1000
0100
0010
0100
,
1001
0110
1000
0100
,
0001
0100
1000
0001
,
0020
0000
0000
0000
,
0000
0000
0030
0000
,
0002
0000
0000
0003
,
2000
0000
0000
3000
,
0200
0000
0000
0300
,
0002
0000
0000
0003
,
0200
0000
0000
0300
,
2000
0000
0000
3000
,
0020
0000
0000
0030
,
0002
0000
0000
0003
,
0010
1000
0010
1000
,
0100
1000
0100
1000
,
0100
0001
0100
0001
,
0100
0000
1000
0000
,
1000
0100
1000
0100
,
1000
0010
1000
0010
,
0001
0010
0001
0010
,
1000
1001
1000
0000
0100
0000
0010
0000
,
0001
1000
0100
0010
,
0001
1000
0100
0010
,
0001
1000
0000
0001
,
0000
1000
0010
0100
,
0001
0010
0100
1000
,
0010
0100
0001
0010
,
0100
0000
1000
1001
0001
0000
0010
0000
,
0100
1000
0001
0010
,
0100
1000
0001
0010
,
0100
0000
1000
0000
0001
0000
0000
1000
,
0000
0001
0001
0010
,
0001
1000
0010
1000
,
0001
0100
0001
1000
,
0100
0000
1000
0000
0001
0100
0010
0100
,
0010
0000
0100
0000
0010
0000
1000
0000
0001
0000
1000
0000
0010
0100
0001
0000
,
1000
0000
0001
0000
0010
0100
0000
0000
0000
0000
0000
0000
0001
0000
0000
0000
,
0001
0000
1000
1000
,
1000
0000
0000
0000
0000
0010
0000
0100
,
0000
0000
0000
1000
0000
0000
0000
0001
0000
0000
0000
1000
0000
0000
0000
0000
,
0000
0100
0000
0000
0000
0000
0000
0000
0000
0010
0000
0000
0000
0000
0000
0100
,
0000
0000
0000
0100
0000
0000
0000
0000
0000
0000
0000
0010
0000
0000
0000
0100
,
0000
0000
0000
0000
0001
0000
0000
0000
1000
0000
0000
0000
0000
0000
0000
0100
,
0000
1000
0000
0001
0100
0000
0000
0000
,
0000
0000
0000
0010
0000
0000
1001
0000
,
1001
0000
0000
0000
,
1000
0001
0100
0000
0001
1000
0000
0000
,
0001
0000
1000
0000
0100
0000
0000
0000
1000
0000
0001
0000
0000
0010
0000
0100
,
0000
1000
0000
0000
0000
0001
0000
0100
0000
0000
0000
0000
0000
0010
0000
1000
,
0000
0100
0000
0000
0000
0010
0000
0001
0000
1000
0000
0010
0000
1000
0000
0000
,
0000
0001
0000
0000
0000
1000
0000
0000
0000
0001
0000
0010
0000
0001
0000
0000
,
0000
1000
0000
0000
0000
0001
0000
0000
0000
0000
1000
0000
0000
0000
0010
0000
,
0100
0001
0100
0000
0000
0001
0000
0010
,
0100
1000
0100
0000
0020
0030
0000
0200
,
0000
0300
0000
1001
0000
0000
0000
0000
;

//---------------dance-single - ----------------
#NOTES:
     dance-single:
     :
     Medium:
     9:
     0.641,1.000,0.656,0.085,0.179:
0000
0000
0000
0000
,
0000
0000
0000
0000
,
0000
0000
0000
0000
,
0000
0000
0000
0000
,
0000
0000
0000
0000
,
1000
0001
0100
0010
,
1100
0000
1001
0000
,
0001
1000
0100
0010
,
0101
0000
1001
0000
,
0100
1100
0100
0101
,
0010
0001
0010
0000
0100
0000
1100
0000
,
0010
0011
0010
1010
,
0100
1000
0100
0000
0010
0000
0011
0000
,
0100
0101
0100
1100
,
0010
1000
0010
0000
0100
0000
0101
0000
,
0010
1010
0010
0011
,
0100
0001
0100
0000
0010
1000
0010
0000
,
1000
1100
1000
1001
,
1000
0000
1010
0000
1000
0001
1000
0000
,
0010
1000
0010
0000
0001
0000
0110
0000
,
1100
0101
0011
1010
,
0001
0101
0001
1001
,
0001
0000
0011
0000
0001
1000
0001
0000
,
0010
0001
0010
0000
1000
0000
0110
0000
,
0101
1100
1010
0011
,
0100
0000
0000
0010
1000
0000
0000
0010
,
0001
0000
0000
0010
1000
0000
0000
0000
,
0010
0000
0000
0100
1000
0000
0000
0100
,
0001
0000
0000
0100
1000
0000
0010
0000
,
0100
0000
0000
0010
0001
0000
0000
0010
,
1000
0000
0000
0010
0001
0000
0000
0000
,
0010
0000
0000
0100
0001
0000
0000
0100
,
1000
0000
0000
0100
0001
0000
0010
0000
,
0100
1000
0100
0000
0101
0000
0010
0000
,
1100
0000
0000
0001
0100
0000
1010
0000
,
0100
0001
0100
0000
1100
0000
0010
0000
,
0101
0000
0000
1000
0100
0000
0011
0000
,
0010
1000
0010
0000
0011
0000
0100
0000
,
1010
0000
0000
0001
0010
0000
1100
0000
,
0010
0001
0010
0000
1010
0000
0100
0000
,
0011
0000
0000
1000
0010
0000
0101
0000
,
1010
0000
1100
0000
0001
0010
0001
0000
,
1010
0100
1001
0000
,
0011
0000
0101
0000
1000
0010
1000
0000
,
0011
0100
1001
0000
,
1100
0000
1010
0000
0001
0100
0001
0000
,
1100
0010
1001
0000
,
0101
0000
0011
0000
1000
0100
1000
0000
,
0101
0010
1001
0000
,
1100
0101
1100
0001
,
0010
1000
0100
0000
0011
0000
0000
0000
,
0101
1100
0101
1000
,
0010
0001
0100
0000
1010
0000
0000
0000
,
1010
0011
1010
0001
,
0100
1000
0010
0000
0101
0000
0000
0000
,
0011
1010
0011
1000
,
0100
0001
0010
0000
1100
0000
0000
0000
,
1100
0101
0011
0000
,
1000
0010
1000
0000
1100
0000
0110
0000
,
0101
1100
1010
0000
,
0001
0010
0001
0000
0101
0000
0110
0000
,
1010
0011
0101
0000
,
1000
0100
1000
0000
1010
0000
0110
0000
,
0011
1010
1100
0000
,
0001
0100
0001
0000
1000
0100
1000
0000
,
0101
0000
1000
1000
0101
0000
1000
1000
,
1100
0000
0001
0001
1100
0000
0001
0001
,
0100
0000
1000
0100
0000
0000
0010
0000
0001
0100
0000
1000
,
0100
0000
0001
0010
0000
0000
0100
0000
1000
0010
0000
0001
,
0010
0000
1000
0010
0000
0000
0100
0000
0001
0010
0000
1000
,
0010
0000
0001
0100
0000
0000
0010
0000
1000
0100
0000
0001
,
1000
0000
1000
0100
0000
0100
0001
0000
0001
0100
0000
0100
,
1000
0000
1000
0010
0000
0010
0001
0000
0001
0010
0000
0010
,
1000
0000
1000
0100
0000
0100
0001
0000
0001
0010
0000
0010
,
1000
0000
1000
0100
0000
0100
0001
0000
0001
0010
0000
0010
,
1000
0100
1000
0010
1000
0100
0001
0100
,
1000
0010
1000
0100
1000
0010
0001
0100
,
0001
0100
0001
0010
0001
0100
1000
0100
,
0001
0010
0001
0100
0001
0010
1000
0100
,
0011
0000
1001
1100
0010
0100
0001
0000
,
1010
0000
1001
0101
0010
0100
1000
0000
,
0101
0000
1001
1010
0100
0010
0001
0000
,
1100
0000
1001
0011
0100
0010
1000
0000
,
0001
0100
1000
0100
,
0001
0000
0100
0000
0001
0010
0001
0000
,
1000
0100
0001
0100
,
1000
0000
0100
0000
1000
0010
1000
0000
,
0001
0010
1000
0010
,
0001
0000
0010
0000
0001
0100
0001
0000
,
1000
0010
0001
0010
,
1000
0000
0010
0000
1000
0100
1000
0000
,
0001
0100
1000
0010
,
0001
0000
0100
1000
0100
0000
0001
0010
,
1000
0100
0001
0010
,
1000
0000
0100
0001
0100
0000
1000
0010
,
0001
0010
1000
0100
,
0001
0000
0010
1000
0010
0000
0001
0100
,
1000
0010
0001
0100
,
1000
0000
0010
0001
0010
0000
1000
0100
,
0000
0010
1000
0001
0000
1000
0000
0010
,
0000
0001
0000
0010
0000
1000
0000
0001
,
0000
0100
1000
0001
0000
0100
0000
1000
,
0000
0100
0000
0001
0100
0000
0100
0010
,
0000
0100
1000
0100
0001
0100
0010
0100
,
1000
0100
0001
0000
1000
0001
0000
0010
,
0000
0100
0001
0100
1000
0011
0000
1010
,
0000
1100
0000
0101
0000
0010
0100
0000
,
0100
0010
0000
1000
0000
0001
0100
0000
,
0000
0010
1000
0000
0010
0001
0000
0100
,
0010
1000
0000
0001
0000
1000
0000
0010
,
0100
0001
0000
0100
0010
1001
0000
0010
,
0100
1000
0000
1000
0000
0001
0000
0001
,
0000
1000
0000
1000
0000
0001
0100
0001
,
1010
0000
0000
1001
0000
0000
1100
0000
0011
0000
0000
1001
0000
0000
0101
0000
,
1010
0000
0000
1000
0000
0000
0101
0000
1010
0000
0110
0000
0011
0000
0000
0000
,
0000
0010
0100
0011
0000
0010
0100
1010
,
0000
0010
0100
0011
0000
0010
0100
1010
,
0000
1100
0000
0101
0000
0011
0000
1010
,
0100
0000
0110
0000
0010
0000
0001
1000
,
0000
1100
0000
0101
0000
0010
1000
0001
,
1100
0000
0101
0000
1100
0000
0100
0001
,
0010
1000
1100
0000
0010
0001
0101
0000
,
0000
0100
1000
0010
0100
0001
0000
0100
,
0000
0100
0001
0010
0000
0101
0000
1100
,
0100
0010
0001
0100
0010
1000
0000
0010
,
0000
0010
1000
0100
0000
1010
0100
0011
,
0010
0010
1000
0100
0010
0001
0000
0010
,
0000
0010
0001
0100
0000
0011
0000
1010
,
0010
0100
0001
0010
0100
0001
0000
0100
,
0000
0100
0001
0010
0100
1000
0100
0001
,
0100
1000
1000
0000
1100
0000
0000
0010
,
0000
0001
0000
0101
0000
0010
0110
0000
,
0010
0001
0001
0000
0011
0000
0000
0100
,
0000
1000
0000
1010
0000
0100
0110
0000
,
0100
0001
0001
0000
0100
0000
0000
0010
,
0000
1000
0000
1100
0000
0010
0110
0000
,
0010
1000
1000
0000
1010
0000
0000
0100
,
0000
0001
0000
0011
0000
0100
0110
0000
,
0001
1100
0000
0001
0000
1001
0000
0101
,
0000
1001
0000
1100
0000
1001
0000
0110
,
0000
1100
0001
0100
0000
0101
1000
0100
,
1001
0000
1000
0100
0000
0001
0100
0000
,
1000
0101
0000
1000
0000
0110
0000
0101
,
0000
0110
0000
1100
0000
0110
0000
0101
,
0000
0110
1000
0100
0000
0110
0001
0100
,
0000
0110
0000
1001
0000
0010
0100
0110
,
0000
0010
0000
0000
1000
0000
0100
0000
0001
0000
0100
0000
0001
0000
0100
0000
,
1000
0100
1000
0010
0001
0010
0001
0010
,
1000
0010
1000
0100
0001
0010
0001
0100
,
1000
0010
1000
0100
0001
0200
0000
0000
,
0000
0001
0000
1000
0000
0000
0010
0000
,
0000
1000
0000
0000
0301
0000
0010
0000
,
0000
0100
0000
0001
,
0100
0001
1000
0000
,
0100
0010
0001
0000
,
1000
0000
1000
0100
,
0000
1001
0000
0010
,
0001
1000
0100
0000
,
0100
0010
0001
0101
,
0000
1001
0000
0010
,
0010
0011
0001
0001
,
1001
0110
0100
0010
,
0010
1010
1000
1000
,
1001
0000
0110
0000
0010
0000
1000
0100
,
0000
0000
0010
0001
0000
0000
1000
0010
,
0000
0000
0100
0001
0000
0000
1010
0000
,
0000
1001
0000
0000
0101
0000
0000
0110
,
0000
0010
1001
1000
,
0100
0000
0000
0000
0000
0001
0000
0100
,
0000
0000
0000
0000
0000
0010
0100
0000
,
0010
1000
0010
0001
,
0000
0100
0001
0100
,
1000
0000
0000
0000
0000
0100
0000
0010
,
0000
0000
0000
0000
1000
0100
0000
0001
,
0010
0000
0001
1000
0000
0000
0100
0000
,
0010
1001
0000
0100
,
0000
0010
0000
1000
,
0010
1000
0001
0000
,
0010
0100
1000
0000
,
0001
0000
0001
0010
,
0000
1001
0000
0100
,
1000
0001
0010
0000
,
0010
0100
1000
1010
,
0000
0000
1001
0000
0000
0000
0010
1000
,
0000
0000
0001
0010
0000
0000
0100
1000
,
0000
0000
0001
0100
0000
0000
0010
0000
,
0000
1010
0000
0000
0101
0000
0000
0011
,
0000
0000
1100
0000
1001
0000
0100
0010
,
0000
0000
0001
0000
1001
0000
0100
0010
,
0000
1000
1001
0100
,
0000
0011
0000
0000
1100
0000
0000
1010
,
0000
0101
1001
0020
,
0032
0203
2300
3100
,
0020
2030
3200
0302
,
0103
0000
0000
0000
0000
0000
0010
0000
0000
0000
0000
0001
0000
0000
0000
0000
1000
0000
0100
0000
0000
0000
0000
0001
,
0000
0000
1000
0010
0000
0000
0000
0000
0001
0000
0000
0000
,
0000
1000
0000
0000
0000
0000
0010
0000
0000
0000
0000
0100
0000
0000
0000
0000
1000
0000
0000
0000
0000
0000
0000
0000
,
0000
0000
0000
0000
0000
0001
0000
0000
0000
0000
0000
0000
0000
0000
0000
0000
0000
0000
0000
0000
0000
0000
0000
0000
,
0000
0100
0000
0010
0000
0000
0000
0000
0000
1010
0000
0000
0000
0000
0000
0101
,
0000
0010
0000
0100
,
0000
0001
0100
0001
,
1000
0000
0100
0010
,
0001
1000
0000
1000
,
0100
0000
1001
0000
,
0000
0000
0000
0000
0000
0000
0000
0000
0000
0010
0000
0000
0000
0000
0010
0000
,
0000
0001
0100
0010
,
1000
0100
0000
1001
,
0000
0000
0110
0000
0000
0010
0000
0000
,
1000
0000
0110
0000
0000
0010
0000
0000
,
0001
0000
0110
0000
0000
1000
0000
0000
,
0100
0000
0110
0000
0000
0001
0000
0000
,
0100
0000
0010
1000
0000
0000
0100
0001
,
0000
0000
0010
0001
0000
0000
0100
1000
,
0000
0010
0001
0010
,
0100
0010
1000
0010
,
0001
0100
0001
0100
,
0010
0100
1000
0100
,
0001
1000
0010
1000
,
0001
0100
1000
0100
,
0001
0010
1000
0010
,
0001
0010
1000
0010
,
0001
0100
1000
0100
,
0001
0100
0010
1000
,
0001
0010
1000
0010
,
0001
0100
1000
0100
,
0001
0000
0000
0000
,
0000
0000
0000
0000
0000
0000
0000
0000
0011
0000
0000
0100
1000
0000
0000
0001
,
0000
0010
0000
0100
1000
0000
0000
0000
0001
0000
0000
1000
0001
0000
0010
0000
,
1000
0010
0100
0001
0020
0000
0000
0000
0000
0000
0000
0000
0000
0000
0000
0000
,
0000
0000
0000
0030
,
0000
1100
0000
0000
,
0001
0010
0000
0000
,
0100
0000
1000
0000
,
0001
1000
0000
0001
,
0010
0100
0010
0001
,
0100
1000
0000
0100
,
0000
0010
0001
0100
,
0010
1000
0000
0001
,
1000
0001
1000
0000
0000
0000
0000
0000
,
0100
0010
0000
0000
,
1000
0000
0001
0000
,
1000
0100
0000
0000
,
0000
0000
0010
0001
0010
0001
0010
0000
,
0100
1000
0000
0001
,
0000
0100
1000
0100
,
0010
0002
0000
0000
,
0000
0000
0000
0003
,
0000
1100
0000
0000
,
0001
0100
0000
0000
,
0010
0000
1000
0000
,
0001
0100
0000
0010
,
1000
0100
0010
0001
,
0100
0001
0000
1000
,
0010
0100
0010
1000
,
0100
0001
0000
0100
,
1000
0001
1000
0000
0100
0000
0010
0000
,
0001
0010
1000
0100
,
0001
0100
1000
0001
,
0100
1000
0100
0001
,
1000
1100
0000
0101
,
0000
0011
0000
0101
,
0000
1100
0000
1010
,
0000
0000
0000
0001
0000
0100
0000
0010
0000
1000
0000
0001
,
0000
0100
0000
0010
0000
0000
1100
0000
0000
0010
0000
0000
,
0101
0100
1010
0100
,
0011
0000
0010
0000
0000
0010
0100
0000
,
0000
0100
0010
0000
0000
0010
0100
0000
,
0000
0000
0000
0100
0100
0000
0000
0000
0010
0000
0000
0000
1000
0000
0000
0000
0100
0000
0000
0000
0010
0000
0000
0000
0001
0000
0000
0000
0100
0000
0001
0000
,
0000
0000
0000
0000
1000
0000
0010
0000
0100
0000
0001
0000
0010
0000
0100
1000
,
0000
0001
0000
0100
0000
1000
0000
0100
0000
0010
0000
0001
1000
0000
0000
0000
,
0000
1000
0000
0001
0000
0010
0000
0100
0000
1000
0000
0010
0100
0001
0000
1000
,
0000
0200
0000
0300
0000
1000
0000
0001
0000
0010
0000
0010
0000
1000
0000
0001
,
0000
0200
0000
0300
0000
0010
0000
1000
0000
0100
0000
0100
0000
1000
1000
0000
,
0000
0000
0001
0000
0100
0000
0010
0000
1000
0000
0100
0000
0000
0010
0010
0000
,
0000
0001
1000
0100
0010
0002
0100
0103
,
0002
1000
1003
0002
0100
0103
0002
0010
,
0013
0002
0100
0103
0020
0001
0031
2000
,
0010
3010
0200
1000
1300
0001
0100
0010
,
1000
0100
0010
0001
1000
0100
1000
0001
,
0100
0010
1000
0100
0010
1000
0001
0010
,
0100
0001
1000
0100
0010
1001
2000
0000
,
0100
0001
0100
0001
,
3100
0000
0020
0001
0031
0000
0200
0010
,
0310
0000
2000
0001
3001
0000
0020
0100
,
0130
0000
2000
0001
3001
0000
0100
0000
,
0010
0100
0010
0100
,
0010
0000
1000
0100
0001
0000
0100
0100
,
0000
1000
0000
0000
0000
0001
0000
1000
,
0000
0001
0000
0100
0000
0000
0000
0010
,
0000
0010
0010
0000
1001
0000
0100
0000
,
0010
0100
0000
0000
1000
0001
0000
0000
,
0100
0100
0100
0010
,
1001
0000
1000
0000
0001
0000
0000
1000
,
0100
0010
0000
0000
0001
1000
0100
0000
,
0100
1000
0000
0001
0000
0100
0010
0000
,
0000
1001
0100
0010
,
0001
1000
0010
0100
,
0001
1000
0001
0100
,
0010
0000
0000
0000
1001
0000
0000
0000
0120
0000
0000
0030
0210
0000
0000
0300
,
0110
1001
0010
1000
,
0001
0010
0001
1000
,
0100
1000
0001
0100
,
0001
0000
0000
0000
0101
0000
0000
0000
1020
0000
0000
0030
2010
0000
0000
3000
,
1010
0101
0010
1000
,
0100
0010
0001
0100
,
1000
0100
0001
1000
,
0010
0000
0000
0000
1010
0000
0000
0000
0102
0000
0000
0003
0201
0000
0000
0300
,
0101
1010
0100
0001
,
0010
0100
1000
0010
,
0001
0010
1000
0001
,
0100
0001
0100
0000
0101
0000
1100
0000
,
0100
0000
0000
0000
0010
0000
0000
1000
0010
0000
0000
0100
0000
0010
0000
0001
,
0010
0000
0000
0000
0000
0000
0000
0000
0001
1000
0001
1000
0001
0000
1000
0000
0100
0000
1000
0000
0000
0000
0001
0000
0010
0000
0001
0000
1000
0000
0001
0000
,
1000
0000
0100
0000
0110
0000
0000
0001
0010
0000
0000
0100
0000
0010
0000
1000
,
0010
0000
0000
0000
0001
0000
0000
0100
0001
0000
1000
0000
0010
0001
1000
0001
,
0200
0000
0000
0000
,
0000
0000
0300
0000
,
1010
0000
0000
0000
,
1100
0000
0000
0000
,
0011
0000
0000
0000
,
0101
0000
0000
0000
,
1001
0000
0000
0000
,
0110
0000
0000
0000
,
0110
0000
0000
0000
,
1001
0000
0000
0000
,
0010
1000
0100
0001
,
0100
1000
0010
0001
,
1000
0100
0001
1000
,
0001
0000
0000
0000
0001
0000
1000
0001
,
1000
0100
0001
1000
,
0010
0001
0100
1000
,
0100
0001
0010
1000
,
0010
0001
0100
0000
1000
0000
0010
0000
,
0001
0010
1000
0001
,
0010
1000
0010
0001
,
1000
0001
1000
0001
,
1000
0001
1000
0000
0100
0000
0001
0000
,
0100
1000
0001
0100
,
1000
0100
0001
1000
,
0010
0000
0100
0001
0010
0000
1000
0000
,
0100
0010
0001
0100
,
0010
1000
0001
0100
,
0001
0000
1000
0000
1001
0000
0000
0110
,
0000
1001
0001
0100
,
1000
0001
0010
1000
,
0010
0001
1000
0100
,
0001
0000
0000
0000
0000
0000
0000
0000
1000
0000
0000
0000
0000
0000
0000
0000
0001
0000
0000
0000
0000
0100
0100
0000
0001
0000
1000
0000
0000
0000
0011
0000
,
0000
0000
1100
0000
0000
0010
0010
0000
0001
0000
1000
0000
0100
0000
0000
0000
0010
0000
0000
0000
0100
0000
0000
0000
1001
0000
0110
0000
0001
0000
0000
0000
,
1000
0000
0001
0000
1001
0110
0000
0000
0000
0000
0000
0000
0001
0000
0000
0000
,
1000
0000
0010
0100
,
0100
0000
0000
0000
0000
0010
0000
0100
,
1001
1000
0001
1000
,
0000
0100
0100
0000
0000
1001
0000
0000
,
0010
0010
0000
0010
,
0100
0000
0010
0001
0010
0000
0000
0100
,
1000
0010
0000
0100
0001
1000
0100
0000
,
0000
0000
0000
0100
0000
0000
0010
0000
0000
0000
0100
0000
1001
0000
0000
0000
,
1001
0000
0000
0000
,
1000
0000
0100
0000
0010
0000
0001
0000
0100
0000
0010
1000
0000
0000
0000
0000
,
0001
0000
0010
0000
0100
0000
1000
0000
0010
0000
0100
0001
0000
1000
0000
0100
,
0000
0001
0000
0100
0000
1000
0000
0001
0100
0000
0000
0000
0000
0001
0000
0100
,
0000
1000
0000
0100
0000
0001
0000
1000
0100
0010
0000
0001
0000
1000
0000
0010
,
0000
0100
0000
1000
0000
0001
0000
0100
0000
1000
0000
0010
0000
0001
0000
0100
,
0000
1000
0000
0010
0000
0001
0000
0100
0000
1000
0001
0000
0000
0000
0100
1000
,
0100
0000
0001
0000
1000
0000
0110
0000
0000
1000
0001
0000
0000
0000
0010
1000
,
0010
0001
1000
0000
0110
0000
0000
0110
,
0000
0000
0000
2002
0000
0000
0000
0000
,
0000
0000
0000
3003
0000
0000
0000
0000
;
