#TITLE:Splendor Mix;
#SUBTITLE:(BOSS RUSH III);
#ARTIST:D34D M34T;
#TITLETRANSLIT:;
#SUBTITLETRANSLIT:;
#ARTISTTRANSLIT:;
#CREDIT:;
#BANNER:BOSS3.png;
#BACKGROUND:BOSS3-bg.png;
#LYRICSPATH:;
#CDTITLE:./CDTITLES/Dance Dance Revolution.png;
#MUSIC:BOSS3.ogg;
#OFFSET:-0.099;
#SAMPLESTART:227.690;
#SAMPLELENGTH:15.000;
#SELECTABLE:YES;
#DISPLAYBPM:*;
#BPMS:0.000=169.800,276.000=169.500,487.000=179.800,684.000=184.600,716.000=189.500,936.000=189.600,1138.000=195.000,1154.000=200.000,1202.000=399.998,1266.000=200.000,1268.000=399.498,1284.000=200.000,1285.000=399.498,1296.000=200.000,1297.500=399.498,1314.500=200.000,1315.500=399.498,1324.500=99.999,1340.500=199.499,1451.000=400.000,1563.500=99.999,1568.000=199.999,1574.500=399.997;
#STOPS:650.500=0.480
,906.000=0.340
,921.000=0.280
,1436.500=2.500
,1444.250=0.400
;
#BGCHANGES:;

//---------------dance-single - ----------------
#NOTES:
     dance-single:
     :
     Easy:
     5:
     0.381,0.486,0.288,0.130,0.082:
0000
0000
0000
0000
,
0000
0000
0000
0000
,
0000
0000
0000
0000
,
0000
0000
0000
0000
,
0000
0000
0000
0000
,
1000
0000
0000
0010
0000
0000
1001
0000
,
0100
0000
0000
1000
0000
0000
0000
0110
,
0001
0000
0000
0010
0000
0000
1100
0000
,
0001
0100
1000
0010
,
0001
0000
0000
1000
0000
0000
0101
0000
,
0010
0000
0000
0001
0000
0000
0110
0000
,
1000
0000
0000
0100
0000
0000
1000
0010
,
0100
0010
0001
0100
,
1001
0110
0001
0100
,
0010
1000
0001
0010
,
1100
0101
0010
1000
,
0001
0100
1000
0100
,
0011
1010
0001
0100
,
1000
0010
0001
1000
,
0001
0010
0001
0100
,
0010
1000
0001
0100
,
0010
1000
0010
0001
,
1000
0100
0010
0100
,
0002
0000
0000
0003
,
0010
0001
0100
0001
,
1000
0010
0100
0001
,
0010
1100
0010
0101
,
1000
0001
0010
0100
,
0010
1000
0100
0001
,
1000
0010
1000
0100
,
0001
0100
0010
0001
,
0100
1000
0100
0010
,
1000
0001
0010
0100
,
1000
0011
0100
1010
,
0100
0000
0000
0001
0000
0000
1100
0000
,
0010
0000
0000
1000
0000
0000
0011
0000
,
1000
0000
0000
0100
0000
0000
1010
0000
,
0001
0100
1000
0010
,
0001
0000
0000
1000
0000
0000
0011
0000
,
1000
0000
0000
0010
0000
0000
1001
0000
,
0010
0000
0000
1000
0000
0000
0110
0000
,
0001
0010
1000
0100
,
0002
0000
0020
0003
,
0200
0030
2000
0300
,
0002
3000
0200
0003
,
0020
0300
2000
3030
,
0001
0100
1000
0100
,
0001
1000
0010
0100
,
0001
0010
0100
0001
,
0100
1000
0010
0001
,
1000
0100
1000
0010
,
0101
1000
0100
0001
,
1000
0010
0100
0001
,
1000
0001
0010
1000
,
0100
1010
0100
0011
,
1001
0010
0100
0001
,
0010
0001
0100
0010
,
1000
0010
0001
0100
,
0001
0010
1000
0001
,
0100
1001
0010
0101
,
1000
0011
0100
1010
,
0002
0000
2000
3003
,
0010
0000
0000
1000
0000
0000
0100
0000
,
0010
0000
0000
0001
0000
0000
0100
0000
,
0001
0000
0000
1000
0000
0000
0010
0000
,
0100
0000
0001
0010
,
1000
0000
0000
0100
0000
0000
2000
0002
,
0000
0000
0000
3003
,
0220
0000
0000
0330
,
0100
0010
0100
0010
,
1000
0001
0000
1001
,
0100
0010
0100
0010
,
0001
1000
0000
1001
,
0010
0100
0010
0100
,
1000
0001
0000
1001
,
0001
0100
0010
1000
,
0001
0010
0100
1000
,
0001
1000
0001
1000
,
0100
0010
0000
0110
,
0001
1000
0001
1000
,
0010
0100
0000
0110
,
0100
0010
0010
0000
,
0100
0010
0010
0000
,
0010
0100
0010
0100
,
1000
0001
0000
1001
,
0010
0100
0010
0100
,
0001
1000
0000
1001
,
0100
0010
0100
0010
,
1000
0001
0000
1001
,
0001
0010
0100
1000
,
0001
0100
0010
1000
,
0001
1000
0001
1000
,
0010
0100
0000
0110
,
0001
1000
0001
1000
,
0100
0010
0000
0110
,
0010
0100
0100
0000
,
0010
0100
0100
0000
,
0100
0010
0001
0000
,
0100
0010
1000
1001
,
0001
1000
0001
0001
,
1000
0001
1000
1000
,
0001
1000
0001
1000
,
0001
0010
0100
1000
,
0001
0001
1000
1000
,
0100
0010
0100
0010
,
1000
1000
0001
0001
,
1001
0000
0000
1001
,
0100
0010
0000
0110
,
0100
0010
0000
0110
,
1000
0100
0001
0010
,
0001
0100
1000
0010
,
1000
0001
0000
1001
,
1000
0001
0000
1001
,
0001
0100
1000
0010
,
1000
0100
0001
0010
,
1000
0100
0000
1100
,
0010
0001
0000
0011
,
1000
0100
0010
0100
,
0001
0001
0010
0010
,
1000
1000
0001
0001
,
0100
0010
0100
0010
,
2002
0000
3003
0000
,
0000
0000
1001
0000
1001
0000
0000
0010
,
0000
0000
0000
1000
0000
0000
0000
0001
,
0000
0000
0000
0010
0000
0000
0000
0100
,
0000
0000
0000
1000
0000
0000
0000
0000
,
0000
0001
0000
0001
0000
0000
0000
0100
,
0000
0000
0000
0001
0000
0000
0000
1000
,
0000
0000
0000
0100
0000
0000
0000
0010
,
0000
0000
0000
0001
0000
0000
0000
0000
,
0000
1000
0000
1000
0000
1000
0000
0001
,
0000
0000
0000
0001
0000
0000
0000
1000
,
0000
0000
0000
1000
0000
0000
0000
0010
,
0000
0000
0000
0010
0000
0000
0000
0000
,
0000
0100
0000
0100
0000
0000
0000
0010
,
0000
0000
0000
0100
0000
0000
0000
0010
,
0000
0000
0000
0100
0000
0100
0000
0001
,
0000
0000
0000
1000
0000
0000
0000
0000
,
0000
1001
0000
1001
0000
0000
0000
0100
,
0000
0000
0000
1001
0000
0000
0000
0100
,
0000
0000
0000
1001
0000
0000
0000
0100
,
0000
0000
0000
1001
0000
0000
0000
0100
,
0000
0100
0000
1001
0000
0000
0000
0100
,
0000
0000
0000
1001
0000
0000
0000
0010
,
0000
0000
0000
1001
0000
0000
0000
0100
,
0000
0000
0000
1001
0000
0000
0000
0010
,
0000
0010
0000
1001
0000
0000
0000
1000
,
0000
0000
0000
1000
0000
0000
0000
0000
,
0000
1000
0000
1000
0000
0000
0000
0001
,
0000
0000
0000
0001
0000
0000
0000
0000
,
0000
0001
0000
0001
0000
0001
0000
0010
,
0000
0000
0000
0010
0000
0000
0000
0000
,
0000
0010
0000
0010
0000
0000
0000
0100
,
0000
0000
0000
0100
0000
0000
0000
0000
,
0000
0100
0000
0100
0000
0100
0000
0001
,
0000
0000
0000
1100
0000
0000
0000
1000
,
0000
0000
0000
0101
0000
0000
0000
0010
,
0000
0000
0000
1001
0000
0000
0000
0000
,
0000
0110
0000
0110
0000
0000
0000
0001
,
0000
0000
0000
1010
0000
0000
0000
1000
,
0000
0000
0000
0011
0000
0000
0000
0010
,
0000
0000
0000
1001
0000
0000
0000
1001
,
0000
1001
0000
1001
0000
1001
0000
0000
,
0010
0000
1001
0000
,
0010
0000
1001
1001
,
0010
0000
1001
0000
,
1001
1001
0000
0010
,
0000
1100
0000
0010
,
0000
0101
0000
1100
,
0000
0101
0000
0000
,
1001
1001
0000
0110
,
0000
1001
0000
0110
,
0000
1001
0000
0110
,
0000
1001
0000
0010
,
0010
1001
0000
0010
,
0000
1100
0000
0010
,
0000
0101
0000
0010
,
0000
1001
0000
0010
,
0010
1001
0000
0000
,
1000
0000
1000
0000
,
0001
0000
0001
0000
,
0100
0000
0100
0000
,
0001
0000
0001
0000
,
1000
1000
0100
0000
,
0010
0000
0010
0000
,
0001
0000
0001
0000
,
1000
1000
0010
1000
,
0100
0000
0001
0000
,
0001
0000
1000
0010
,
1000
0000
0010
0000
,
0100
0000
0001
0010
,
0001
0000
0010
0000
,
0100
0000
0001
1000
,
0001
0000
0010
0000
,
0100
0000
0010
0010
,
1000
0100
0100
1000
,
1000
0100
0001
0001
,
0001
0000
0010
0000
,
1000
1000
0100
0100
,
0100
0000
0010
0000
,
0010
0000
0001
1000
,
0010
0001
0100
1000
,
0001
0010
0001
1000
,
0100
0000
0000
0000
,
0000
0000
0001
1000
,
0020
0000
0000
0000
,
0000
0000
0130
0001
,
2000
0000
0000
0000
,
0000
0000
3010
1000
,
0200
0000
0000
0000
,
0000
0000
1300
0001
,
1002
0000
0000
0000
,
0020
0000
0000
0033
,
2001
0000
0000
0000
,
0200
0000
0000
3300
,
1002
0000
0200
0303
,
2001
0000
0200
3300
,
1002
0000
0023
0000
,
0230
0000
0000
0300
,
1000
1000
0100
0100
,
0010
0010
0002
0003
,
0001
0001
0100
0100
,
0010
0010
2000
3000
,
1000
1000
0010
0010
,
0100
0100
0020
1030
,
2000
3000
0200
0300
,
1000
0000
0000
0000
0000
0000
0000
0000
0000
0000
0000
0000
0000
0000
0000
0000
0001
0000
0000
0000
0000
0000
0000
0000
0000
0000
0000
0000
0000
0000
0000
0000
2002
3000
0000
0000
0000
0000
0000
0000
0000
0000
0000
0000
0000
0000
0000
0000
0013
0000
0000
0000
0000
0000
0000
0000
0000
0000
0000
0000
0000
0000
0000
0000
,
0000
1000
1000
0010
,
0000
0001
0001
0200
,
0300
0020
0030
1000
,
0001
0000
0000
0000
0000
0000
0000
0000
0000
0000
0000
0000
0000
0000
0000
0000
2002
0003
0000
0000
0000
0000
0000
0000
0000
0000
0000
0000
0000
0000
0000
0000
3100
0000
0000
0000
0000
0000
0000
0000
0000
0000
0000
0000
0000
0000
0000
0000
0000
0000
0000
0000
0000
0000
0000
0000
0000
0000
0000
0000
0000
0000
0000
0000
,
0100
0010
0100
0000
,
0001
1000
1001
0000
,
0110
0000
1000
0010
,
0100
0001
0010
0000
,
1000
0000
0001
0000
,
0001
0000
0020
0000
,
0030
0000
0200
0000
,
0300
0000
1000
0000
,
0010
0000
0100
0000
,
0100
0000
0002
0000
,
0003
0000
2000
0000
,
3000
0000
0100
0000
,
0010
0000
0001
0000
,
0001
0000
2000
0000
,
3000
0000
0200
0000
,
0300
0000
0001
0001
,
0100
0100
0010
0010
,
1000
1000
0001
0001
,
0100
0100
0010
0010
,
1000
1000
0100
0000
,
0010
0000
0001
0001
,
0001
0001
0100
0000
,
0010
0000
1000
1000
,
1000
1000
0001
0000
,
0100
0000
0010
0000
,
1000
0000
1000
0000
,
0100
0000
0010
0000
,
0001
0000
0001
0000
,
0010
0000
0100
0000
,
1000
0000
1000
0000
,
0100
0000
0010
0000
,
0001
0000
0010
0010
,
0010
0010
1000
0000
,
0100
0000
0010
0010
,
0010
0010
0001
0000
,
1000
0000
0010
0000
,
0010
0000
0001
0000
,
1000
0000
0001
0000
,
0100
0000
0001
0001
,
0001
0001
0100
0100
,
0100
0100
0001
0001
,
0100
0100
0001
0001
,
0100
0100
0001
0100
,
0001
0100
0001
0100
,
0001
0001
1000
0000
,
0100
0000
0001
0000
,
0100
0000
0010
0000
,
0010
0000
1000
0000
,
1000
0000
0100
0000
,
0001
0000
1000
0000
,
1000
0000
0001
0000
,
0010
0000
0100
0000
,
0010
0000
0001
0000
,
0001
0000
1001
0000
,
0100
0000
0001
1000
,
0100
0000
0110
0000
,
0001
0000
0010
0100
,
0001
0000
1001
0000
,
0100
0000
1000
0001
,
0100
0000
0110
0000
,
1000
0000
0010
0100
,
1000
0000
0001
0001
,
1000
1000
0001
0001
,
1000
1000
0010
0010
,
0100
0100
0010
0010
,
0100
0100
0002
0003
,
2000
3000
0002
0003
,
2000
3000
0020
0030
,
0200
0300
0001
0000
,
0001
0000
1000
0000
,
0100
0000
0001
0000
,
0100
0000
0010
0000
,
1000
0000
0100
0000
,
0010
0000
0100
0000
,
1000
0000
0100
0000
,
0010
0000
1000
0000
,
0010
0000
0001
0000
,
0100
0000
0010
0000
,
0100
0000
1000
0000
,
0001
0000
1000
0000
,
0100
0000
1000
0000
,
0010
0000
0001
0000
,
1000
0000
0010
0000
,
0100
0000
0010
0000
,
0001
0000
0100
0000
,
0001
1000
0100
1001
,
0010
0010
0000
0001
,
0001
0000
1000
1000
,
0000
0010
0010
0000
,
0001
0000
1000
0010
,
0100
0001
0001
0000
,
1000
1000
0000
0100
,
0100
0000
0010
0100
,
0001
0000
0000
0100
0000
0100
0000
0000
,
0000
1000
0000
1000
0000
0000
0000
0001
,
0000
0001
0000
0000
0000
0100
0000
0100
,
0000
0000
0000
0010
0000
0010
0000
0000
,
0000
0100
0000
0010
0000
1000
0000
0100
,
0000
0100
0000
0000
0000
1000
0000
1000
,
0000
0000
0000
0010
0000
0100
0000
0010
,
0000
1000
0000
0001
0000
0010
0000
0100
,
0000
0001
0000
1000
0000
0001
0000
0100
,
0000
0010
0000
0001
0000
0100
0000
1001
,
0000
1000
0000
0100
0000
0010
0000
0100
,
0000
1001
0000
0100
0000
0010
0000
1000
,
0000
0001
0000
0100
0000
0001
0000
1000
,
0000
0100
0000
1010
0000
0110
0000
0101
,
0000
1001
0000
0010
0000
1000
0000
0001
,
0000
0010
0000
0001
0000
0100
0000
0010
,
0000
0100
0000
1100
0000
0010
0000
0100
,
0000
0101
0000
1000
0000
0010
0000
0100
,
0000
1000
0000
0100
0000
0001
0000
0100
,
0000
1000
0000
0101
0000
0001
0000
0100
,
0000
1001
0000
0010
0000
0001
0000
0100
,
0000
0010
0000
0001
0000
1010
0000
0100
,
0000
0001
0000
0100
0000
1000
0000
0100
,
0000
1010
0000
0100
0000
0010
0000
0100
,
0000
1000
0000
0010
0000
1001
0000
0010
,
0000
0100
0000
1100
0000
0010
0000
0100
,
0000
0011
0000
1000
0000
0100
0000
0010
,
0000
0101
0000
1100
0000
0110
0000
1000
,
0000
0100
0000
0001
0000
1000
0000
0010
,
0000
0110
0000
0001
0000
1000
0000
0101
,
0000
0010
0000
0001
0000
1100
0000
0001
,
0000
0010
0000
0110
0000
1001
0000
1010
,
0000
1100
0000
0001
0000
0100
0000
0010
,
0000
0101
0000
1001
0000
0011
0000
0100
,
0000
0001
0000
0110
0000
1000
0000
0010
,
0000
2000
0000
0000
0000
0000
0000
0000
,
0000
0200
0000
3000
0000
0020
0000
0300
,
0000
0000
0002
0000
0000
0000
0000
0000
0000
0000
0000
0000
0000
0000
0000
0000
0000
0000
0000
0000
0000
0000
0000
0000
0000
0000
0000
0000
0000
0000
0000
0000
0000
0030
0000
0000
0000
0200
0000
0000
0000
0000
0000
0000
0000
0000
0000
0000
,
0000
0000
0000
0000
0000
0000
0000
0000
0003
0000
0000
0000
0000
0320
0000
0000
0000
0000
0000
0000
0000
0000
0000
0000
0000
0000
0000
0000
0000
0000
0000
0000
0000
0000
0000
0000
0000
1030
0000
0000
0000
0000
0000
0000
0000
0000
0000
0000
,
0000
0000
0000
0000
0000
0000
0000
0000
0000
0000
0000
0000
0000
0000
0000
0000
0000
0000
0000
0000
0000
0000
0000
0000
0000
0000
0000
0000
0000
0000
0000
0000
0000
0000
0000
0000
0000
0000
0000
0000
0000
0000
0000
0000
0000
0000
0000
0000
0000
0000
0000
0000
0000
1000
0000
0000
0000
0000
0000
0000
0000
0000
0000
0000
0000
0000
0000
0000
0000
0000
0000
0000
0000
0000
0000
0000
0000
0000
0000
0000
0000
0000
0000
0000
0000
0000
0000
0000
0000
0000
0000
0000
0000
0000
0000
0000
0000
0000
0000
0000
0000
0000
0000
0000
0000
0000
0000
0000
0000
0000
0000
0000
0000
0000
0000
0000
0000
0000
0000
0000
0000
0000
0000
0000
0000
0000
0000
0000
0000
0000
0000
0000
0000
0000
0000
0000
0000
0000
0000
0000
0000
0000
0000
0000
0000
0000
0000
0000
0000
0001
0000
0000
0000
0000
0000
0000
0000
0000
0000
0000
0000
0000
0000
0000
0000
0000
0000
0000
0000
0000
0000
0000
0000
0000
0000
0000
0000
0000
0000
0000
0000
0000
0000
0000
0000
0000
0000
0000
0000
0000
0000
0000
,
0000
0000
0000
0000
0000
0000
0000
0000
0000
0000
0000
0000
0000
0000
0000
0000
0000
0000
0000
0000
0000
0000
0000
0000
0000
0000
0000
0000
0000
0000
0000
0000
0000
0000
0000
0000
0000
0000
0000
0000
0000
0000
0000
0000
0000
0000
0000
0000
0000
0000
0000
0000
0000
0001
0000
0000
0000
0000
0000
0000
0000
0000
0000
0000
0000
0000
0000
0000
0000
0000
0000
0000
0000
0000
0000
0000
0000
0000
0000
0000
0000
0000
0000
0000
0000
0000
0000
0000
0000
0000
0000
0000
0000
0000
0000
0000
0000
0000
0000
0000
0000
0000
0000
0000
0000
0000
0000
0000
0000
0000
0000
0000
0000
0000
0000
0000
0000
0000
0000
0000
0000
0000
0000
0000
0000
0000
0000
0000
0000
0000
0000
0000
0000
0000
0000
0000
0000
0000
0000
0000
0000
0000
0000
0000
0000
0000
0000
0000
0000
1000
0000
0000
0000
0000
0000
0000
0000
0000
0000
0000
0000
0000
0000
0000
0000
0000
0000
0000
0000
0000
0000
0000
0000
0000
0000
0000
0000
0000
0000
0000
0000
0000
0000
0000
0000
0000
0000
0000
0000
0000
0000
0000
,
0000
0000
0000
0000
0000
0000
0000
0000
0000
0000
0000
0000
0000
0000
0000
0000
0000
0000
0000
0000
0000
0000
0000
0000
0000
0000
0000
0000
0000
0000
0000
0000
0000
0000
0000
0000
0000
0000
0000
0000
0000
0000
0000
0000
0000
0000
0000
0000
0000
0000
0000
0000
0000
0010
0000
0000
0000
0000
0000
0000
0000
0000
0000
0000
0000
0000
0000
0000
0000
0000
0000
0000
0000
0000
0000
0000
0000
0000
0000
0000
0000
0000
0000
0000
0000
0000
0000
0000
0000
0000
0000
0000
0000
0000
0000
0000
0000
0000
0000
0000
0000
0000
0000
0000
0000
0000
0000
0000
0000
0000
0000
0000
0000
0000
0000
0000
0000
0000
0000
0000
0000
0000
0000
0000
0000
0000
0000
0000
0000
0000
0000
0000
0000
0000
0000
0000
0000
0000
0000
0000
0000
0000
0000
0000
0000
0000
0000
0000
0000
0000
0001
0000
0000
0000
0000
0000
0000
0000
0000
0000
0000
0000
0000
0000
0000
0000
0000
0000
0000
0000
0000
0000
0000
0000
0000
0000
0000
0000
0000
0000
0000
0000
0000
0000
0000
0000
0000
0000
0000
0000
0000
0000
,
0000
0000
0000
0000
0000
0000
0000
0000
0000
0100
0000
0000
0000
0000
0000
0000
0000
0000
0000
0000
0000
0000
0000
0000
0000
0001
0000
0000
0000
0000
0000
0000
,
0000
0000
0000
0000
0000
0000
0000
0000
0000
0001
0000
0000
0000
0000
0000
0000
0000
0000
0000
0000
0000
0000
0000
0000
0000
1000
0000
0000
0000
0000
0000
0000
,
0000
0000
0000
0000
0000
0000
0000
0000
0000
0000
0000
0000
0000
0000
0000
0000
0000
0000
0000
0000
0000
0000
0000
0000
0000
0000
0000
0000
0000
0000
0000
0000
0000
0000
0000
0000
0000
0000
0000
0000
0000
0000
0000
0000
0000
0000
0000
0000
0000
0000
0000
0000
0000
0000
1000
0000
0000
0000
0000
0000
0000
0000
0000
0000
0000
0000
0000
0000
0000
0000
0000
0000
0000
0000
0000
0000
0000
0000
0000
0000
0000
0000
0000
0000
0000
0000
0000
0000
0000
0000
0000
0000
0000
0000
0000
0000
0000
0000
0000
0000
0000
0000
0000
0000
0000
0000
0000
0000
0000
0000
0000
0000
0000
0000
0000
0000
0000
0000
0000
0000
0000
0000
0000
0000
0000
0000
0000
0000
0000
0000
0000
0000
0000
0000
0000
0000
0000
0000
0000
0000
0000
0000
0000
0000
0000
0000
0000
0000
0000
0000
0000
0010
0000
0000
0000
0000
0000
0000
0000
0000
0000
0000
0000
0000
0000
0000
0000
0000
0000
0000
0000
0000
0000
0000
0000
0000
0000
0000
0000
0000
0000
0000
0000
0000
0000
0000
0000
0000
0000
0000
0000
0000
,
0000
0000
0000
0000
0000
0000
0000
0000
0000
0000
0000
0000
0000
0000
0000
0000
0000
0000
0000
0000
0000
0000
0000
0000
0000
0000
0000
0000
0000
0000
0000
0000
0000
0000
0000
0000
0000
0000
0000
0000
0000
0000
0000
0000
0000
0000
0000
0000
0000
0000
0000
0000
0000
0000
0000
1000
0000
0000
0000
0000
0000
0000
0000
0000
0000
0000
0000
0000
0000
0000
0000
0000
0000
0000
0000
0000
0000
0000
0000
0000
0000
0000
0000
0000
0000
0000
0000
0000
0000
0000
0000
0000
0000
0000
0000
0000
0000
0000
0000
0000
0000
0000
0000
0000
0000
0000
0000
0000
0000
0000
0000
0000
0000
0000
0000
0000
0000
0000
0000
0000
0000
0000
0000
0000
0000
0000
0000
0000
0000
0000
0000
0000
0000
0000
0000
0000
0000
0000
0000
0000
0000
0000
0000
0000
0000
0000
0000
0000
0000
0000
0000
0100
0000
0000
0000
0000
0000
0000
0000
0000
0000
0000
0000
0000
0000
0000
0000
0000
0000
0000
0000
0000
0000
0000
0000
0000
0000
0000
0000
0000
0000
0000
0000
0000
0000
0000
0000
0000
0000
0000
0000
0000
,
0000
0000
0000
0000
0000
0000
0000
0000
0000
0000
0000
0000
0000
0000
0000
0000
0000
0000
0000
0000
0000
0000
0000
0000
0000
0000
0000
0000
0000
0000
0000
0000
0000
0000
0000
0000
0000
0000
0000
0000
0000
0000
0000
0000
0000
0000
0000
0000
0000
0000
0000
0000
0000
0000
0000
0001
0000
0000
0000
0000
0000
0000
0000
0000
0000
0000
0000
0000
0000
0000
0000
0000
0000
0000
0000
0000
0000
0000
0000
0000
0000
0000
0000
0000
0000
0000
0000
0000
0000
0000
0000
0000
0000
0000
0000
0000
0000
0000
0000
0000
0000
0000
0000
0000
0000
0000
0000
0000
0000
0000
0000
0000
0000
0000
0000
0000
0000
0000
0000
0000
0000
0000
0000
0000
0000
0000
0000
0000
0000
0000
0000
0000
0000
0000
0000
0000
0000
0000
0000
0000
0000
0000
0000
0000
0000
0000
0000
0000
0000
0000
0000
0001
0000
0000
0000
0000
0000
0000
0000
0000
0000
0000
0000
0000
0000
0000
0000
0000
0000
0000
0000
0000
0000
0000
0000
0000
0000
0000
0000
0000
0000
0000
0000
0000
0000
0000
0000
0000
0000
0000
0000
0000
,
0000
0000
0000
0000
0000
0000
0000
1000
0000
0000
0000
0000
0000
0000
0000
0000
0000
0000
0000
0001
0000
0000
0000
0000
,
0000
0000
0000
0000
0000
0000
0000
1000
0000
0000
0000
0000
0000
0000
0000
0000
0000
0000
0000
0010
0000
0000
0000
0000
,
0000
0000
0000
0000
0000
0000
0000
0000
0000
0000
0000
0000
0000
0000
0000
0000
0000
0000
0000
0000
0000
0000
0000
0000
0000
0000
0000
0000
0000
0000
0000
0000
0000
0000
0000
0000
0000
0000
0000
0000
0000
0000
0000
0000
0000
0000
0000
0000
0000
0000
0000
0000
0000
0000
0000
0000
0100
0000
0000
0000
0000
0000
0000
0000
0000
0000
0000
0000
0000
0000
0000
0000
0000
0000
0000
0000
0000
0000
0000
0000
0000
0000
0000
0000
0000
0000
0000
0000
0000
0000
0000
0000
0000
0000
0000
0000
0000
0000
0000
0000
0000
0000
0000
0000
0000
0000
0000
0000
0000
0000
0000
0000
0000
0000
0000
0000
0000
0000
0000
0000
0000
0000
0000
0000
0000
0000
0000
0000
0000
0000
0000
0000
0000
0000
0000
0000
0000
0000
0000
0000
0000
0000
0000
0000
0000
0000
0000
0000
0000
0000
0000
0000
0000
1000
0000
0000
0000
0000
0000
0000
0000
0000
0000
0000
0000
0000
0000
0000
0000
0000
0000
0000
0000
0000
0000
0000
0000
0000
0000
0000
0000
0000
0000
0000
0000
0000
0000
0000
0000
0000
0000
0000
,
0000
0000
0000
0000
0000
0000
0000
0000
0000
0000
0000
0000
0000
0000
0000
0000
0000
0000
0000
0100
0000
0000
0000
0000
0000
0000
0000
0000
0000
0000
0000
0000
0000
0000
0000
0000
0000
0000
0000
0000
0000
0000
0000
0000
0000
0000
0000
0000
0000
0000
0000
0001
0000
0000
0000
0000
0000
0000
0000
0000
0000
0000
0000
0000
,
0000
0000
0000
0000
0000
0000
0000
0000
0000
0000
0000
0000
0000
0000
0000
0000
0000
0000
0000
0100
0000
0000
0000
0000
0000
0000
0000
0000
0000
0000
0000
0000
0000
0000
0000
0000
0000
0000
0000
0000
0000
0000
0000
0000
0000
0000
0000
0000
0000
0000
0000
0010
0000
0000
0000
0000
0000
0000
0000
0000
0000
0000
0000
0000
,
0000
0000
0000
0000
0000
0000
0000
0000
0000
0000
0000
0000
0000
0000
0000
0000
0000
0000
0000
0000
0000
0000
0000
0000
0000
0000
0000
0000
0000
0000
0000
0000
0000
0000
0000
0000
0000
0000
0000
0000
0000
0000
0000
0000
0000
0000
0000
0000
0000
0000
0000
0000
0000
0000
0000
0000
0000
0100
0000
0000
0000
0000
0000
0000
0000
0000
0000
0000
0000
0000
0000
0000
0000
0000
0000
0000
0000
0000
0000
0000
0000
0000
0000
0000
0000
0000
0000
0000
0000
0000
0000
0000
0000
0000
0000
0000
0000
0000
0000
0000
0000
0000
0000
0000
0000
0000
0000
0000
0000
0000
0000
0000
0000
0000
0000
0000
0000
0000
0000
0000
0000
0000
0000
0000
0000
0000
0000
0000
0000
0000
0000
0000
0000
0000
0000
0000
0000
0000
0000
0000
0000
0000
0000
0000
0000
0000
0000
0000
0000
0000
0000
0000
0000
0000
1000
0000
0000
0000
0000
0000
0000
0000
0000
0000
0000
0000
0000
0000
0000
0000
0000
0000
0000
0000
0000
0000
0000
0000
0000
0000
0000
0000
0000
0000
0000
0000
0000
0000
0000
0000
0000
0000
,
0000
0000
0000
0000
0000
0000
0000
0000
0000
0000
0000
0000
0000
0000
0000
0000
0000
0000
0000
0000
0000
0000
0000
0000
0000
0000
0000
0000
0000
0000
0000
0000
0000
0000
0000
0000
0000
0000
0000
0000
0000
0000
0000
0000
0000
0000
0000
0000
0000
0000
0000
0000
0000
0000
0000
0000
0000
0000
0010
0000
0000
0000
0000
0000
0000
0000
0000
0000
0000
0000
0000
0000
0000
0000
0000
0000
0000
0000
0000
0000
0000
0000
0000
0000
0000
0000
0000
0000
0000
0000
0000
0000
0000
0000
0000
0000
0000
0000
0000
0000
0000
0000
0000
0000
0000
0000
0000
0000
0000
0000
0000
0000
0000
0000
0000
0000
0000
0000
0000
0000
0000
0000
0000
0000
0000
0000
0000
0000
0000
0000
0000
0000
0000
0000
0000
0000
0000
0000
0000
0000
0000
0000
0000
0000
0000
0000
0000
0000
0000
0000
0000
0000
0000
0000
0100
0000
0000
0000
0000
0000
0000
0000
0000
0000
0000
0000
0000
0000
0000
0000
0000
0000
0000
0000
0000
0000
0000
0000
0000
0000
0000
0000
0000
0000
0000
0000
0000
0000
0000
0000
0000
0000
,
0000
0000
0000
0000
0000
0000
0000
0000
0000
0000
0000
0000
0000
0000
0000
0000
0000
0000
0000
0000
0000
0000
0000
0000
0000
0000
0000
0000
0000
0000
0000
0000
0000
0000
0000
0000
0000
0000
0000
0000
0000
0000
0000
0000
0000
0000
0000
0000
0000
0000
0000
0000
0000
0000
0000
0000
0000
0000
0001
0000
0000
0000
0000
0000
0000
0000
0000
0000
0000
0000
0000
0000
0000
0000
0000
0000
0000
0000
0000
0000
0000
0000
0000
0000
0000
0000
0000
0000
0000
0000
0000
0000
0000
0000
0000
0000
0000
0000
0000
0000
0000
0000
0000
0000
0000
0000
0000
0000
0000
0000
0000
0000
0000
0000
0000
0000
0000
0000
0000
0000
0000
0000
0000
0000
0000
0000
0000
0000
0000
0000
0000
0000
0000
0000
0000
0000
0000
0000
0000
0000
0000
0000
0000
0000
0000
0000
0000
0000
0000
0000
0000
0000
0000
0000
0010
0000
0000
0000
0000
0000
0000
0000
0000
0000
0000
0000
0000
0000
0000
0000
0000
0000
0000
0000
0000
0000
0000
0000
0000
0000
0000
0000
0000
0000
0000
0000
0000
0000
0000
0000
0000
0000
,
0000
0000
0000
0000
0000
0000
0000
0000
0000
0000
0000
0000
0000
0000
0000
0000
0000
0000
0000
0000
0000
0000
0000
0000
0000
0000
0000
0000
0000
0000
0000
0000
0000
0000
0000
0000
0000
0000
0000
0000
0000
0000
0000
0000
0000
0000
0000
0000
0000
0000
0000
0000
0000
0000
0000
0000
0000
0000
0000
1000
0000
0000
0000
0000
0000
0000
0000
0000
0000
0000
0000
0000
0000
0000
0000
0000
0000
0000
0000
0000
0000
0000
0000
0000
0000
0000
0000
0000
0000
0000
0000
0000
0000
0000
0000
0000
0000
0000
0000
0000
0000
0000
0000
0000
0000
0000
0000
0000
0000
0000
0000
0000
0000
0000
0000
0000
0000
0000
0000
0000
0000
0000
0000
0000
0000
0000
0000
0000
0000
0000
0000
0000
0000
0000
0000
0000
0000
0000
0000
0000
0000
0000
0000
0000
0000
0000
0000
0000
0000
0000
0000
0000
0000
0000
0000
0001
0000
0000
0000
0000
0000
0000
0000
0000
0000
0000
0000
0000
0000
0000
0000
0000
0000
0000
0000
0000
0000
0000
0000
0000
0000
0000
0000
0000
0000
0000
0000
0000
0000
0000
0000
0000
,
0000
0000
0000
0000
0000
0000
0000
0000
0000
0000
0000
0000
0000
0000
0000
0000
0000
0000
0000
0000
0000
0000
0000
0000
0000
0000
0000
0000
0000
0000
0000
0000
0000
0000
0000
0000
0000
0000
0000
0000
0000
0000
0000
0000
0000
0000
0000
0000
0000
0000
0000
0000
0000
0000
0000
0000
0000
0000
0000
0100
0000
0000
0000
0000
0000
0000
0000
0000
0000
0000
0000
0000
0000
0000
0000
0000
0000
0000
0000
0000
0000
0000
0000
0000
0000
0000
0000
0000
0000
0000
0000
0000
0000
0000
0000
0000
0000
0000
0000
0000
0000
0000
0000
0000
0000
0000
0000
0000
0000
0000
0000
0000
0000
0000
0000
0000
0000
0000
0000
0000
0000
0000
0000
0000
0000
0000
0000
0000
0000
0000
0000
0000
0000
0000
0000
0000
0000
0000
0000
0000
0000
0000
0000
0000
0000
0000
0000
0000
0000
0000
0000
0000
0000
0000
0000
0010
0000
0000
0000
0000
0000
0000
0000
0000
0000
0000
0000
0000
0000
0000
0000
0000
0000
0000
0000
0000
0000
0000
0000
0000
0000
0000
0000
0000
0000
0000
0000
0000
0000
0000
0000
0000
,
0000
0000
0000
0000
0000
0000
0000
0000
0000
0000
0000
0000
0000
0000
0000
0000
0000
0000
0000
0000
0000
0000
0000
0000
0000
0000
0000
0000
0000
0000
0000
0000
0000
0000
0000
0000
0000
0000
0000
0000
0000
0000
0000
0000
0000
0000
0000
0000
0000
0000
0000
0000
0000
0000
0000
0000
0000
0000
0000
0100
0000
0000
0000
0000
0000
0000
0000
0000
0000
0000
0000
0000
0000
0000
0000
0000
0000
0000
0000
0000
0000
0000
0000
0000
0000
0000
0000
0000
0000
0000
0000
0000
0000
0000
0000
0000
0000
0000
0000
0000
0000
0000
0000
0000
0000
0000
0000
0000
0000
0000
0000
0000
0000
0000
0000
0000
0000
0000
0000
0000
0000
0000
0000
0000
0000
0000
0000
0000
0000
0000
0000
0000
0000
0000
0000
0000
0000
0000
0000
0000
0000
0000
0000
0000
0000
0000
0000
0000
0000
0000
0000
0000
0000
0000
0000
0000
0001
0000
0000
0000
0000
0000
0000
0000
0000
0000
0000
0000
0000
0000
0000
0000
0000
0000
0000
0000
0000
0000
0000
0000
0000
0000
0000
0000
0000
0000
0000
0000
0000
0000
0000
0000
,
0000
0000
0000
0000
0000
1000
0000
0000
0000
0000
0000
0000
0000
0100
0000
0000
,
0000
0000
0000
0000
0000
0001
0000
0000
0000
0000
0000
0000
0000
0010
0000
0000
,
0000
0000
0000
0000
0000
0000
0000
0000
0000
0000
0000
0000
0000
0000
0000
0000
0000
0000
0000
0000
0000
0000
0000
0000
0000
0000
0000
0000
0000
0000
0000
0000
0000
0000
0000
0000
0000
0000
0000
0000
0000
0000
0000
0000
0000
0000
0000
0000
0000
0000
0000
0000
0000
0000
0000
0000
0000
0000
0000
0000
0100
0000
0000
0000
0000
0000
0000
0000
0000
0000
0000
0000
0000
0000
0000
0000
0000
0000
0000
0000
0000
0000
0000
0000
0000
0000
0000
0000
0000
0000
0000
0000
0000
0000
0000
0000
0000
0000
0000
0000
0000
0000
0000
0000
0000
0000
0000
0000
0000
0000
0000
0000
0000
0000
0000
0000
0000
0000
0000
0000
0000
0000
0000
0000
0000
0000
0000
0000
0000
0000
0000
0000
0000
0000
0000
0000
0000
0000
0000
0000
0000
0000
0000
0000
0000
0000
0000
0000
0000
0000
0000
0000
0000
0000
0000
0000
0000
1000
0000
0000
0000
0000
0000
0000
0000
0000
0000
0000
0000
0000
0000
0000
0000
0000
0000
0000
0000
0000
0000
0000
0000
0000
0000
0000
0000
0000
0000
0000
0000
0000
0000
0000
,
0000
0000
0000
0000
0000
0000
0000
0000
0000
0000
0000
0000
0000
0000
0000
0000
0000
0000
0000
0000
0000
0000
0000
0000
0000
0000
0000
0000
0000
0000
0000
0000
0000
0000
0000
0000
0000
0000
0000
0000
0000
0000
0000
0000
0000
0000
0000
0000
0000
0000
0000
0000
0000
0000
0000
0000
0000
0000
0000
0000
0000
0100
0000
0000
0000
0000
0000
0000
0000
0000
0000
0000
0000
0000
0000
0000
0000
0000
0000
0000
0000
0000
0000
0000
0000
0000
0000
0000
0000
0000
0000
0000
0000
0000
0000
0000
0000
0000
0000
0000
0000
0000
0000
0000
0000
0000
0000
0000
0000
0000
0000
0000
0000
0000
0000
0000
0000
0000
0000
0000
0000
0000
0000
0000
0000
0000
0000
0000
0000
0000
0000
0000
0000
0000
0000
0000
0000
0000
0000
0000
0000
0000
0000
0000
0000
0000
0000
0000
0000
0000
0000
0000
0000
0000
0000
0000
0000
1000
0000
0000
0000
0000
0000
0000
0000
0000
0000
0000
0000
0000
0000
0000
0000
0000
0000
0000
0000
0000
0000
0000
0000
0000
0000
0000
0000
0000
0000
0000
0000
0000
0000
0000
,
0000
0000
0000
0000
0000
0000
0000
0000
0000
0000
0000
0000
0000
0000
0000
0000
0000
0000
0000
0000
0000
0000
0000
0000
0000
0000
0000
0000
0000
0000
0000
0000
0000
0000
0000
0000
0000
0000
0000
0000
0000
0000
0000
0000
0000
0000
0000
0000
0000
0000
0000
0000
0000
0000
0000
0000
0000
0000
0000
0000
0000
0010
0000
0000
0000
0000
0000
0000
0000
0000
0000
0000
0000
0000
0000
0000
0000
0000
0000
0000
0000
0000
0000
0000
0000
0000
0000
0000
0000
0000
0000
0000
0000
0000
0000
0000
0000
0000
0000
0000
0000
0000
0000
0000
0000
0000
0000
0000
0000
0000
0000
0000
0000
0000
0000
0000
0000
0000
0000
0000
0000
0000
0000
0000
0000
0000
0000
0000
0000
0000
0000
0000
0000
0000
0000
0000
0000
0000
0000
0000
0000
0000
0000
0000
0000
0000
0000
0000
0000
0000
0000
0000
0000
0000
0000
0000
0000
1000
0000
0000
0000
0000
0000
0000
0000
0000
0000
0000
0000
0000
0000
0000
0000
0000
0000
0000
0000
0000
0000
0000
0000
0000
0000
0000
0000
0000
0000
0000
0000
0000
0000
0000
,
0000
0000
0000
0000
0000
0000
0000
0000
0000
0000
0000
0000
0000
0000
0000
0000
0000
0000
0000
0000
0000
0000
0000
0000
0000
0000
0000
0000
0000
0000
0000
0000
0000
0000
0000
0000
0000
0000
0000
0000
0000
0000
0000
0000
0000
0000
0000
0000
0000
0000
0000
0000
0000
0000
0000
0000
0000
0000
0000
0000
0000
0000
0001
0000
0000
0000
0000
0000
0000
0000
0000
0000
0000
0000
0000
0000
0000
0000
0000
0000
0000
0000
0000
0000
0000
0000
0000
0000
0000
0000
0000
0000
0000
0000
0000
0000
0000
0000
0000
0000
0000
0000
0000
0000
0000
0000
0000
0000
0000
0000
0000
0000
0000
0000
0000
0000
0000
0000
0000
0000
0000
0000
0000
0000
0000
0000
0000
0000
0000
0000
0000
0000
0000
0000
0000
0000
0000
0000
0000
0000
0000
0000
0000
0000
0000
0000
0000
0000
0000
0000
0000
0000
0000
0000
0000
0000
0000
0000
0010
0000
0000
0000
0000
0000
0000
0000
0000
0000
0000
0000
0000
0000
0000
0000
0000
0000
0000
0000
0000
0000
0000
0000
0000
0000
0000
0000
0000
0000
0000
0000
0000
0000
,
0000
0000
0000
0000
0000
0000
0000
0000
0000
0000
0000
0000
0000
0000
0000
0000
0000
0000
0000
0000
0000
0000
0000
0000
0000
0000
0000
0000
0000
0000
0000
0000
0000
0000
0000
0000
0000
0000
0000
0000
0000
0000
0000
0000
0000
0000
0000
0000
0000
0000
0000
0000
0000
0000
0000
0000
0000
0000
0000
0000
0000
0000
0100
0000
0000
0000
0000
0000
0000
0000
0000
0000
0000
0000
0000
0000
0000
0000
0000
0000
0000
0000
0000
0000
0000
0000
0000
0000
0000
0000
0000
0000
0000
0000
0000
0000
0000
0000
0000
0000
0000
0000
0000
0000
0000
0000
0000
0000
0000
0000
0000
0000
0000
0000
0000
0000
0000
0000
0000
0000
0000
0000
0000
0000
0000
0000
0000
0000
0000
0000
0000
0000
0000
0000
0000
0000
0000
0000
0000
0000
0000
0000
0000
0000
0000
0000
0000
0000
0000
0000
0000
0000
0000
0000
0000
0000
0000
0000
1000
0000
0000
0000
0000
0000
0000
0000
0000
0000
0000
0000
0000
0000
0000
0000
0000
0000
0000
0000
0000
0000
0000
0000
0000
0000
0000
0000
0000
0000
0000
0000
0000
0000
,
0000
0000
0000
0000
0000
0000
0000
0000
0000
0000
0000
0000
0000
0000
0000
0000
0000
0000
0000
0000
0000
0000
0000
0000
0000
0000
0000
0000
0000
0000
0000
0000
0000
0000
0000
0000
0000
0000
0000
0000
0000
0000
0000
0000
0000
0000
0000
0000
0000
0000
0000
0000
0000
0000
0000
0000
0000
0000
0000
0000
0000
0000
0001
0000
0000
0000
0000
0000
0000
0000
0000
0000
0000
0000
0000
0000
0000
0000
0000
0000
0000
0000
0000
0000
0000
0000
0000
0000
0000
0000
0000
0000
0000
0000
0000
0000
0000
0000
0000
0000
0000
0000
0000
0000
0000
0000
0000
0000
0000
0000
0000
0000
0000
0000
0000
0000
0000
0000
0000
0000
0000
0000
0000
0000
0000
0000
0000
0000
0000
0000
0000
0000
0000
0000
0000
0000
0000
0000
0000
0000
0000
0000
0000
0000
0000
0000
0000
0000
0000
0000
0000
0000
0000
0000
0000
0000
0000
0000
0000
0100
0000
0000
0000
0000
0000
0000
0000
0000
0000
0000
0000
0000
0000
0000
0000
0000
0000
0000
0000
0000
0000
0000
0000
0000
0000
0000
0000
0000
0000
0000
0000
0000
,
0000
0000
0000
0000
0000
0000
0000
0000
0000
0000
0000
0000
0000
0000
0000
0000
0000
0000
0000
0000
0000
0001
0000
0000
0000
0000
0000
0000
0000
0000
0000
0000
0000
0000
0000
0000
0000
0000
0000
0000
0000
0000
0000
0000
0000
0000
0000
0000
0000
0000
0000
0000
0000
2000
0000
0000
0000
0000
0000
0000
0000
0000
0000
0000
,
0000
0000
0000
0000
0000
0000
0000
0000
0000
0000
0000
0000
0000
0000
0000
0000
0000
0000
0000
0000
0000
0200
0000
0000
0000
0000
0000
0000
0000
0000
0000
0000
0000
0000
0000
0000
0000
3300
0000
0000
0000
0000
0000
0000
0000
0000
0000
0000
0000
0000
0000
0000
0000
0001
0000
0000
0000
0000
0000
0000
0000
0000
0000
0000
,
0000
0000
0000
0000
0000
0000
0000
0000
0000
0000
0000
0000
0000
0000
0000
0000
0000
0000
0000
0000
0000
0000
0000
0000
0000
0000
0000
0000
0000
0000
0000
0000
0000
0000
0000
0000
0000
0000
0000
0000
0000
0000
0000
0000
0000
0000
0000
0000
0000
0000
0000
0000
0000
0000
0000
0000
0000
0000
0000
0000
0000
0000
0000
0100
0000
0000
0000
0000
0000
0000
0000
0000
0000
0000
0000
0000
0000
0000
0000
0000
0000
0000
0000
0000
0000
0000
0000
0000
0000
0000
0000
0000
0000
0000
0000
0000
0000
0000
0000
0000
0000
0000
0000
0000
0000
0000
0000
0000
0000
0000
0000
0000
1000
0000
0000
0000
0000
0000
0000
0000
0000
0000
0000
0000
0000
0000
0000
0000
0000
0000
0000
0000
0000
0000
0000
0000
0000
0000
0000
0000
0000
0000
0000
0000
0000
0000
0000
0000
0000
0000
0000
0000
0000
0000
0000
0000
0000
0000
0000
0000
0001
0000
0000
0000
0000
0000
0000
0000
0000
0000
0000
0000
0000
0000
0000
0000
0000
0000
0000
0000
0000
0000
0000
0000
0000
0000
0000
0000
0000
0000
0000
0000
,
0000
0010
0000
0000
1000
0000
0000
0100
0000
0000
1000
0000
,
0000
0000
0000
0000
0100
0000
0000
0000
0000
0000
0010
0000
,
0000
0000
0000
0000
0000
0000
0000
0000
0000
0000
0000
0000
0000
0000
0000
0000
0000
0100
0000
0000
0000
0000
0000
0000
0000
0000
0000
0000
0000
0000
0000
0000
0000
0000
0000
0000
0000
0000
0000
0000
0000
0000
0000
0000
0000
0000
0000
0000
0000
0000
0000
0000
0000
0000
0000
0000
0000
0000
0000
0000
0000
0000
0000
0000
0000
0000
0000
0000
0000
0000
0000
0000
0000
0000
0000
0000
0000
0000
0000
0000
0000
0000
0000
0000
0000
0000
0000
0000
0000
0000
0000
0000
0000
0000
0000
0000
0000
0000
0000
0000
0000
0000
0000
0000
0000
0000
0000
0000
0000
0000
0000
0000
0000
1000
0000
0000
0000
0000
0000
0000
0000
0000
0000
0000
0000
0000
0000
0000
0000
0000
0000
0000
0000
0000
0000
0000
0000
0000
0000
0000
0000
0000
0000
0000
0000
0000
0000
0000
0000
0000
0000
0000
0000
0000
0000
0000
0000
0000
0000
0000
0000
0100
0000
0000
0000
0000
0000
0000
0000
0000
0000
0000
0000
0000
0000
0000
0000
0000
0000
0000
0000
0000
0000
0000
0000
0000
0000
0000
0000
0000
0000
0000
,
0000
0000
0000
0000
0000
0000
0000
0000
0000
0000
0000
0000
0000
0000
0000
0000
0000
0000
0000
0000
0000
0000
0000
0000
0000
0000
0000
0000
0000
0000
0000
0000
0000
0000
0000
0000
0000
0000
0000
0000
0000
0000
0000
0000
0000
0000
0000
0000
0000
0000
0000
0000
0000
0000
0000
0000
0000
0000
0000
0000
0000
0000
0000
0000
0000
0001
0000
0000
0000
0000
0000
0000
0000
0000
0000
0000
0000
0000
0000
0000
0000
0000
0000
0000
0000
0000
0000
0000
0000
0000
0000
0000
0000
0000
0000
0000
0000
0000
0000
0000
0000
0000
0000
0000
0000
0000
0000
0000
0000
0000
0000
0000
0000
0000
0000
0000
0000
0000
0000
0000
0000
0000
0000
0000
0000
0000
0000
0000
0000
0000
0000
0000
0000
0000
0000
0000
0000
0000
0000
0000
0000
0000
0000
0000
0000
0000
0000
0000
0000
0000
0000
0000
0000
0000
0000
0000
0000
0000
0000
0000
0000
0010
0000
0000
0000
0000
0000
0000
0000
0000
0000
0000
0000
0000
0000
0000
0000
0000
0000
0000
0000
0000
0000
0000
0000
0000
0000
0000
0000
0000
0000
0000
,
0000
0000
0000
0000
0000
0000
0000
0000
0000
0000
0000
0000
0000
0000
0000
0000
0000
0000
0000
0000
0000
0000
0000
0000
0000
0000
0000
0000
0000
0000
0000
0000
0000
0000
0000
0000
0000
0000
0000
0000
0000
0000
0000
0000
0000
0000
0000
0000
0000
0000
0000
0000
0000
0000
0000
0000
0000
0000
0000
0000
0000
0000
0000
0000
0000
0100
0000
0000
0000
0000
0000
0000
0000
0000
0000
0000
0000
0000
0000
0000
0000
0000
0000
0000
0000
0000
0000
0000
0000
0000
0000
0000
0000
0000
0000
0000
0000
0000
0000
0000
0000
0000
0000
0000
0000
0000
0000
0000
0000
0000
0000
0000
0000
0000
0000
0000
0000
0000
0000
0000
0000
0000
0000
0000
0000
0000
0000
0000
0000
0000
0000
0000
0000
0000
0000
0000
0000
0000
0000
0000
0000
0000
0000
0000
0000
0000
0000
0000
0000
0000
0000
0000
0000
0000
0000
0000
0000
0000
0000
0000
0000
0000
2002
0000
0000
0000
0000
0000
0000
0000
0000
0000
0000
0000
0000
0000
0000
0000
0000
0000
0000
0000
0000
0000
0000
0000
0000
0000
0000
0000
0000
0000
,
0000
0000
0000
0000
0000
0000
0000
0000
0000
0000
0000
0000
0000
0000
0000
0000
0000
0000
0000
3003
0000
0000
0000
0000
0000
0000
0000
0100
0000
0000
0000
0000
,
0000
0000
0000
0000
0000
0000
0000
0000
0000
0000
0000
0010
0000
0000
0000
0000
0000
0000
0000
1001
0000
0000
0000
0000
0000
0000
0000
0000
0000
0000
0000
0000
;

//---------------dance-single - ----------------
#NOTES:
     dance-single:
     :
     Medium:
     7:
     0.590,0.689,0.560,0.191,0.136:
0000
0000
0000
0000
,
0000
0000
0000
0000
,
0000
0000
0000
0000
,
0000
0000
0000
0000
,
0000
0000
0000
0000
,
1000
0000
0100
0010
0001
0000
1100
0000
,
0001
0000
0100
0010
1000
0000
0011
0000
,
0100
0000
1000
0001
0010
0000
0101
0000
,
0010
0000
0001
0000
1000
0001
0100
0000
,
1000
0000
0010
1000
0100
0000
0011
0000
,
0100
0000
0010
1000
0001
0000
1100
0000
,
0001
0000
0010
0001
0100
0000
1010
0000
,
0001
0000
0100
0000
0010
0001
1000
0000
,
1010
0000
0101
0000
0010
0100
1000
0000
,
0110
0000
1001
0000
0100
0001
0010
0000
,
0101
0000
1100
0000
1000
0001
0100
0000
,
1010
0000
0011
0000
1000
0100
0001
0000
,
0011
0000
1100
0000
0001
0100
0010
0000
,
1001
0000
0110
0000
1000
0001
0100
0000
,
0010
0100
1000
0000
0001
1000
0100
0000
,
0010
1000
0100
0010
0100
1000
0010
0000
,
0001
0000
0100
0000
1000
0100
0010
0000
,
0100
1000
0001
0100
1000
0100
0001
0000
,
2002
0000
0000
3003
,
0010
0000
1000
0001
0100
0001
0010
0000
,
0100
0000
0010
0001
1000
0001
0100
0000
,
1100
0101
1001
0110
,
1000
0000
0001
0100
0010
0100
0001
0000
,
0010
0000
0100
1000
0010
1000
0100
0000
,
0010
0000
0001
1000
0010
1000
0001
0000
,
1000
0100
1000
0000
0001
0100
0001
0000
,
1000
0010
1000
0000
0001
0010
0001
0000
,
1000
0100
0100
0000
0010
0100
0100
0000
,
0001
0010
0010
0000
0100
0010
0010
0000
,
0001
0000
1000
0100
0010
0000
1001
0000
,
0100
0000
0010
1000
0010
0000
0101
0000
,
1000
0000
0100
0010
1000
0000
0110
0000
,
1000
0000
0001
0000
1000
0100
0010
0000
,
0001
0000
0100
0010
1000
0000
0101
0000
,
0010
0000
1000
0100
0010
0000
1001
0000
,
0010
0000
0100
0001
1000
0000
0110
0000
,
0001
0000
0100
0000
0001
1000
0010
0000
,
2100
0000
0001
0000
0010
0010
3010
0000
,
0102
0000
0010
0000
1000
1000
1003
0000
,
0120
0000
1000
0000
0001
0001
0031
0000
,
1200
0000
0010
0000
0001
0001
0301
0000
,
1000
0100
1000
0000
0001
0100
0001
0000
,
0010
0001
0100
0000
0010
1000
0100
0000
,
1000
0010
1000
0000
0001
0010
0001
0000
,
1000
0010
0100
0000
0001
0010
0100
0000
,
0011
0110
1100
1001
,
0010
0000
1000
0001
0100
0010
1000
0000
,
0100
0000
0010
0001
0100
0001
0010
0000
,
0100
0000
1000
0001
1000
0010
0100
0000
,
0101
1001
1100
0110
,
0001
0000
1000
0001
0100
0001
1000
0000
,
0100
0000
1000
0001
0010
0100
1000
0000
,
0001
0000
0100
0010
0100
0001
0010
0000
,
0001
0100
0001
0000
1000
0100
1000
0000
,
0010
1000
0100
0000
0010
0001
0100
0000
,
0110
1001
1010
0101
,
0022
0033
2200
3300
,
0001
1000
0010
0100
0000
0001
0010
0000
,
0100
1000
0001
0100
0000
0010
0100
0000
,
0010
1000
0100
0010
0000
0001
1000
0000
,
0100
0010
0001
0100
0000
1000
0100
0000
,
0010
1000
0100
0001
0000
0100
2000
0002
,
0000
0000
0000
3003
,
0010
0001
0100
0010
,
0100
1100
1001
0101
,
0100
0000
0010
2000
0000
0001
3001
0000
,
0100
0101
1001
1100
,
0100
0000
0010
0002
0000
1000
1003
0000
,
0100
0000
0110
0000
0011
0000
0001
2000
,
0000
0000
3001
0010
0000
0001
0100
0000
,
0010
0000
1000
0000
1001
0000
0100
0010
,
0000
0001
0000
1001
0000
1000
0100
0000
,
0010
0011
1001
1010
,
0010
0000
0100
0002
0000
1000
1003
0000
,
0010
1010
1001
0011
,
0010
0000
0100
2000
0000
0001
3001
0000
,
0100
0000
0010
0000
0110
0000
0010
0100
,
0000
0010
0010
0000
0110
0000
0100
0000
,
0001
0101
0110
1010
,
1000
0000
0100
0010
0000
0001
1000
0000
,
1000
1100
0110
0011
,
0001
0000
0100
0010
0000
1000
0001
0000
,
0010
0000
0011
0000
1001
0000
1000
0001
,
0000
0000
1000
0010
0000
1000
0100
0000
,
0010
0000
0001
0000
0011
0000
0100
1000
,
0000
0100
0000
1100
0000
0010
0001
0000
,
0001
0011
0110
1100
,
1000
0000
0010
0100
0000
0001
1000
0000
,
1000
0000
1010
0000
0110
0000
0100
0001
,
0000
0001
1000
0010
0000
0000
0100
0000
,
0002
0000
1003
0000
1001
0000
0000
2000
,
0000
0001
3001
0000
1001
0000
1000
0000
,
0100
0000
0010
0000
0110
0000
0100
1000
,
0000
0001
0001
0000
1000
0000
1001
0000
,
0001
0100
0010
1000
0001
0000
0001
0000
,
1000
1000
0100
0110
,
0010
0001
1000
0100
0010
0000
0010
0000
,
0100
1100
0010
0011
,
1000
0100
0010
0001
1000
0000
1000
0000
,
0001
0001
0100
0110
,
0100
0101
0100
0101
,
1010
0000
0000
1001
0000
0000
1100
0000
,
0010
0001
0010
0100
1000
0000
1000
0000
,
0010
1000
0010
0100
0001
0000
0001
0000
,
0110
1010
1001
1100
,
0110
0011
1001
1010
,
0100
0001
0100
0010
1000
0000
1000
0000
,
0100
1000
0100
0010
0001
0000
0001
0000
,
0110
1100
1001
1010
,
0110
0101
1001
1100
,
0010
0001
0010
0100
1000
0000
0001
0000
,
0010
1000
0010
0100
0001
0000
1000
0000
,
1100
0110
0011
1001
,
0100
0100
0110
0110
,
0010
0010
0110
0110
,
1000
0001
1000
0000
0001
1000
0001
0000
,
2002
0000
3003
0010
,
1000
0010
1000
0000
0101
0000
0000
0010
,
1000
0100
0000
0022
0000
0033
1000
0000
,
0010
1000
0000
0001
0000
0001
0000
0010
,
0001
0100
0000
1010
0000
0101
0000
1001
,
0000
1100
0000
1001
0000
0101
0000
0010
,
0001
0100
0000
2020
0000
3030
0001
0000
,
0100
0010
0000
1000
0000
1000
0000
0001
,
0010
0000
0001
0100
0000
0000
0010
0000
,
1000
0100
0000
1000
0000
1001
0000
0010
,
1000
0100
0000
0022
0000
0033
0100
0000
,
1000
0010
0000
1000
0000
1001
0000
0010
,
1000
0001
0000
0100
0000
1001
0000
1100
,
0000
1001
0000
0011
0000
1001
0000
0100
,
0001
0010
0000
0220
0000
0330
1000
0000
,
0001
1000
0000
0010
0000
1100
0000
0010
,
0001
0000
0010
0100
0000
0000
0010
0000
,
0001
1000
0001
0000
0010
0100
0000
0001
,
0000
0001
0000
1001
0000
1001
0000
1000
,
0000
1000
0000
1001
0000
1001
0000
0010
,
0000
0010
0000
1010
0000
1010
0000
0100
,
0000
0100
0000
0101
0000
0101
0000
0001
,
1000
0001
0000
0101
0000
0100
0000
1000
,
0001
1000
0000
1010
0000
1010
0000
0010
,
0100
0010
0000
0110
0000
0110
0000
1010
,
0000
1001
0000
0101
0000
1001
0000
1000
,
0100
1000
0000
1000
0000
0010
0100
0000
,
0000
1001
0000
2002
0000
3003
0000
0001
,
0100
0001
0000
0001
0000
0010
0100
0000
,
0000
1001
0000
1001
0000
1001
0000
0010
,
1000
0001
0000
0001
0000
0001
0100
0000
,
0000
1001
0000
2002
0000
3003
0000
0010
,
0001
1000
0000
1000
0000
1000
0000
1001
,
0000
0110
0000
1001
0000
0110
0000
2000
,
0000
3100
0000
0201
0000
0000
0301
0000
,
0000
0101
0000
2002
0000
3003
0000
0012
,
0000
0100
0000
0010
0000
0103
0000
1000
,
0000
1001
0000
0000
0010
0100
0000
0002
,
0000
0103
0000
1200
0000
0000
1300
0000
,
0000
1100
0000
0110
0000
1100
0000
2010
,
0000
0100
0000
0010
0000
3100
0000
1100
,
0000
1001
0000
0101
0000
1001
0000
0010
,
1000
0100
0000
0102
0000
0003
1000
0000
,
0010
1000
0000
0001
0000
0001
0000
0010
,
0001
0100
0000
1000
0000
0101
0000
1001
,
0000
0101
0000
1001
0000
1100
0000
0010
,
0001
0100
0000
2010
0000
3000
0001
0000
,
0100
0010
0000
1000
0000
1000
0000
0001
,
0010
0001
0100
0020
0000
0030
1000
0000
,
0001
0100
0000
0010
0000
1001
0000
0010
,
1000
0100
0000
0012
0000
0003
1000
0000
,
0001
0100
0000
0010
0000
1001
0000
0010
,
0001
0100
0010
1000
0000
1000
0000
1001
,
0000
0110
0000
1001
0000
0110
0000
1000
,
0001
1000
0000
0110
0000
0000
0010
0000
,
0100
0001
0000
1000
0000
0011
0000
0100
,
1000
0000
0001
0010
0000
0000
1001
0000
,
1000
0100
1000
0000
0101
0000
1010
0000
,
1001
0001
0010
0000
,
0100
0000
0100
0000
1000
0100
1000
0000
,
0001
0100
0010
0000
,
0100
0000
0100
0000
0001
0100
0001
0000
,
1000
0001
0100
0000
,
1000
0000
1000
0000
0001
1000
0001
0000
,
0010
0001
1000
0000
,
0010
1000
0001
0100
,
0001
0100
0001
0000
1000
0000
1000
0000
,
0010
0000
0100
0000
0001
0100
0001
0000
,
1000
0100
1000
0000
0001
0000
0001
0000
,
0010
0000
0100
0000
1000
0100
1000
0000
,
0001
1000
0001
0000
0010
0000
0010
0000
,
0001
0000
0100
0000
0010
0100
0010
0000
,
1000
0001
1000
0000
0010
0000
0010
0000
,
1000
0000
0100
0000
0010
0100
0010
0000
,
0001
1000
0000
0001
0000
0100
0000
0010
,
0000
0000
0000
0000
0001
0100
0010
0000
,
1000
0001
0000
1000
0000
0100
0000
0010
,
0000
0000
0000
0000
1000
0100
0010
0000
,
0010
0100
0000
1000
0000
0100
0000
0001
,
0000
0000
0000
0000
0010
0100
0010
0000
,
1100
0000
1001
0000
,
0101
0001
1010
1000
,
1001
0000
0010
0000
,
0001
0000
0000
0000
0010
0001
0100
0000
,
1001
0000
0010
0000
,
1000
0000
0000
0000
0010
1000
0100
0000
,
1001
0000
0001
0000
,
1000
0000
0000
0000
0001
0010
0100
0000
,
0010
0000
1000
0000
,
0001
0000
0000
0000
1000
0010
0100
0000
,
1002
0000
0100
0000
,
2003
0000
0000
3000
,
2001
0000
0100
0000
,
3002
0000
0000
0003
,
1001
0000
0001
0000
,
0110
0000
1000
0000
,
0101
0000
1100
0000
,
0020
0000
0000
0030
,
0001
0010
0100
0000
1000
0000
0010
0000
,
0100
0000
0001
0000
1000
0100
0100
0000
,
1000
0010
0100
0000
0001
0000
0010
0000
,
0100
0000
1000
0000
0001
0100
0100
0000
,
0010
0100
0001
0000
0010
0000
0100
0000
,
1000
0000
0001
0000
0010
0100
0100
0000
,
0011
0001
1100
1000
,
0001
1001
0010
0110
,
0100
1000
0001
0100
,
0010
0000
0001
0100
0010
0000
1000
0100
,
0010
0000
0001
0000
1000
0000
0001
0100
,
0001
1000
0001
0000
0001
1000
0100
0000
,
0001
0100
1000
0000
0010
1000
0010
0000
,
0100
0001
0100
0000
0010
0001
0100
0000
,
0010
1000
0100
0000
0010
0001
0010
0001
,
1000
0100
1000
0100
0010
0000
0001
0000
,
0100
0001
0010
0001
,
0100
0000
0001
0000
1000
0000
0000
1000
,
0002
0000
0003
0000
0001
0000
0000
0001
,
2000
3000
1000
0100
,
0001
0100
1000
0100
,
0001
0000
0100
0000
1000
0000
0000
0001
,
0200
0000
0300
0000
0001
0000
0000
1000
,
0200
0300
1000
1000
,
0001
0001
0010
0001
,
0100
0000
0001
0000
0010
0000
0000
0100
,
0020
0000
0030
0000
0001
0000
0000
1000
,
0002
0003
0110
0001
,
1000
0100
0001
0100
,
0010
0010
0110
1000
,
0001
0100
1000
0100
,
0010
0010
1001
0100
,
0010
0001
0010
0100
,
1000
1000
1001
0100
,
0010
1000
0010
0100
,
0001
0001
2000
0000
,
0100
0000
0001
0000
,
0100
3100
0002
0000
,
0100
0000
1000
0000
,
0100
0103
2000
0000
,
0010
0000
0100
0000
,
0010
3010
0002
0000
,
0100
0003
0010
1000
,
0100
0000
1001
0000
0010
1000
0010
0000
,
0001
0100
0001
0000
0010
1000
0010
0000
,
1001
0000
1100
0000
0010
0001
0010
0000
,
1000
0100
1000
0000
0010
0001
0010
0000
,
1001
0000
0101
0000
0020
0000
0030
1000
,
0100
0000
0001
0000
0020
0000
0030
1000
,
0100
0001
0010
0010
,
1000
0001
0000
1000
,
1000
1000
0000
0100
,
0100
0100
0000
0001
,
0001
0000
0100
0100
,
0000
0001
0000
1000
,
0000
0010
0000
0100
,
0100
0100
0020
0030
,
2000
3000
0002
0003
,
0010
1000
0100
1000
,
0020
0030
0200
0300
,
0002
0003
0020
0030
,
0100
1000
0001
0100
,
0010
0010
1001
0000
,
0010
0100
0000
0001
,
1000
0000
0100
0200
,
0000
0000
0300
0000
1001
0000
0000
0100
,
0020
0000
0030
0000
0001
0000
0000
0100
,
0020
0000
0030
0000
1000
0000
0000
0100
,
0020
0000
0030
0000
0001
0000
0000
0100
,
0020
0000
0030
0000
1000
0000
0000
0010
,
0100
0000
0001
0000
0001
0000
0000
0010
,
0100
0000
1000
0000
1000
0000
0000
0010
,
0100
0000
0001
0000
0001
0000
0000
0010
,
0100
0000
1000
0000
1001
0000
0100
0020
,
0000
0000
0031
0000
1001
0000
0100
0020
,
0000
0000
1030
0000
1001
0000
0100
0020
,
0000
0000
0031
0000
1001
0000
0100
0020
,
0000
1030
0001
0202
,
0000
0303
1000
2200
,
0000
3300
0010
2002
,
0000
3003
0020
0030
,
0200
0300
1000
0010
,
0100
0000
0001
1000
,
0100
0000
0010
0001
,
1000
0010
0100
0001
,
0010
0000
0100
0001
,
1000
0000
0100
1000
,
0010
0000
1000
0100
,
0010
0100
1000
0001
,
0100
0000
0010
0001
,
0100
0000
0010
1000
,
0100
0000
1000
0001
,
0100
0010
1000
0100
,
1000
0000
0101
0000
,
1010
0000
0011
0000
,
1100
0000
0010
0100
,
0001
1000
0100
0010
,
0001
1000
0100
1001
,
0010
1000
0100
0000
,
0001
0100
1000
0000
,
0001
0010
1000
0000
,
0001
0100
1000
0010
,
0100
0001
0010
0100
,
0000
1000
0001
0100
,
0000
1000
0100
1000
,
0001
0000
0000
0100
0000
0010
0000
0200
,
0000
0300
0000
0001
0000
0100
0000
0020
,
0000
0030
0000
1000
0000
0001
0000
0020
,
0000
0030
0000
0100
0000
1000
0000
0001
,
0000
0100
0000
0010
0000
1000
0000
0100
,
0000
1000
0000
0020
0000
0030
0000
1000
,
0000
0001
0000
0100
0000
0010
0000
0100
,
0000
0001
0010
0001
0100
0010
1000
0100
,
1000
0001
0100
1000
0100
0001
1000
0100
,
0010
0100
1000
0001
0010
0100
1000
0010
,
0100
0000
0010
0000
1000
0000
0100
0000
1000
0000
0010
0000
0100
0001
0010
0000
,
1100
1001
0000
0100
0001
0010
0000
1000
,
0000
0001
0010
0100
0000
0001
0000
1000
,
0001
0100
0000
1010
0000
0110
0000
0101
,
0000
1001
0000
0010
0100
1000
0000
0010
,
0000
1000
0100
0001
0000
0100
0000
0010
,
0001
0100
0000
1100
0000
0010
1000
0100
,
0000
0101
0000
1000
0001
0010
0000
0100
,
0000
1000
0010
0100
0000
0001
0000
0100
,
0010
1000
0000
0101
0000
0001
0010
0100
,
0000
1001
0000
0010
0100
0010
0000
1000
,
0100
0010
0000
0001
0000
1010
0000
1000
,
0001
0010
0000
0100
0000
1000
0001
0100
,
0000
1010
0000
0100
0001
0010
0000
0100
,
0000
1000
0100
0010
0000
1001
0000
0010
,
0001
0100
0000
1100
0000
0010
1000
0100
,
0000
0011
0000
1000
0001
0100
0000
0010
,
0000
0101
0000
1100
0000
0110
0000
1000
,
0010
0100
0000
0001
0000
1000
0100
1000
,
0000
0110
0000
0001
0100
0001
0000
1100
,
0000
0010
1000
0010
0000
1001
0000
0001
,
0010
0001
0000
1100
0000
1001
0000
1010
,
0000
0101
0000
0001
0010
0100
0000
0010
,
0000
0101
0000
1001
0000
0011
0000
0100
,
1000
0001
0000
0110
0000
1000
0000
0010
,
0000
1000
0000
0100
0000
0010
0000
1000
,
0000
0100
0000
0001
0000
0100
0000
0010
,
0000
0000
1000
0000
0000
0000
0000
0000
0000
0000
0000
0000
0000
0010
0000
0000
0000
0000
0000
0000
0000
0000
0000
0000
0000
0001
0000
0000
0000
0000
0000
0000
0000
0000
0000
0000
0000
0100
0000
0000
0000
0000
0000
0000
0000
0000
0000
0000
,
0000
0000
0000
0000
0000
1000
0000
0000
0000
0000
0000
0000
0000
0000
0000
0000
0000
0000
0000
0000
0000
0000
0000
0000
0000
0000
0000
0000
0000
0000
0000
0000
0000
0000
0000
0000
0000
0000
0000
0000
0000
0000
0000
0000
0000
0000
0000
0000
0000
0000
0000
0000
0000
0100
0000
0000
0000
0000
0000
0000
0000
0000
0000
0000
0000
0000
0000
0000
0000
0000
0000
0000
0000
0000
0000
0000
0000
0000
0000
0000
0000
0000
0000
0000
0000
0000
0000
0000
0000
0000
0000
0000
0000
0000
0000
0000
0000
0000
0000
0000
0000
0010
0000
0000
0000
0000
0000
0000
0000
0000
0000
0000
0000
0000
0000
0000
0000
0000
0000
0000
0000
0000
0000
0000
0000
0000
0000
0000
0000
0000
0000
0000
0000
0000
0000
0000
0000
0000
0000
0000
0000
0000
0000
0000
0000
0000
0000
0000
0000
1000
0000
0000
0000
0000
0000
0000
0000
0000
0000
0000
0000
0000
0000
0000
0000
0000
0000
0000
0000
0000
0000
0000
0000
0000
0000
0000
0000
0000
0000
0000
0000
0000
0000
0000
0000
0000
0000
0000
0000
0000
0000
0000
,
0000
0000
0000
0000
0000
0001
0000
0000
0000
0000
0000
0000
0000
0000
0000
0000
0000
0000
0000
0000
0000
0000
0000
0000
0000
0000
0000
0000
0000
0000
0000
0000
0000
0000
0000
0000
0000
0000
0000
0000
0000
0000
0000
0000
0000
0000
0000
0000
0000
0000
0000
0000
0000
0100
0000
0000
0000
0000
0000
0000
0000
0000
0000
0000
0000
0000
0000
0000
0000
0000
0000
0000
0000
0000
0000
0000
0000
0000
0000
0000
0000
0000
0000
0000
0000
0000
0000
0000
0000
0000
0000
0000
0000
0000
0000
0000
0000
0000
0000
0000
0000
0000
0000
0000
0000
0000
0000
0000
0000
0000
0000
0000
0000
0000
0000
0000
0000
0000
0000
0000
0000
0000
0000
0000
0000
0000
0000
0000
0000
0000
0000
0000
0000
0000
0000
0000
0000
0000
0000
0000
0000
0000
0000
0000
0000
0000
0000
0000
0000
0010
0000
0000
0000
0000
0000
0000
0000
0000
0000
0000
0000
0000
0000
0000
0000
0000
0000
0000
0000
0000
0000
0000
0000
0000
0000
0000
0000
0000
0000
0000
0000
0000
0000
0000
0000
0000
0000
0000
0000
0000
0000
0000
,
0000
0000
0000
0000
0000
1000
0000
0000
0000
0000
0000
0000
0000
0000
0000
0000
0000
0000
0000
0000
0000
0000
0000
0000
0000
0000
0000
0000
0000
0000
0000
0000
0000
0000
0000
0000
0000
0000
0000
0000
0000
0000
0000
0000
0000
0000
0000
0000
0000
0000
0000
0000
0000
0100
0000
0000
0000
0000
0000
0000
0000
0000
0000
0000
0000
0000
0000
0000
0000
0000
0000
0000
0000
0000
0000
0000
0000
0000
0000
0000
0000
0000
0000
0000
0000
0000
0000
0000
0000
0000
0000
0000
0000
0000
0000
0000
0000
0000
0000
0000
0000
0000
0000
0000
0000
0000
0000
0000
0000
0000
0000
0000
0000
0000
0000
0000
0000
0000
0000
0000
0000
0000
0000
0000
0000
0000
0000
0000
0000
0000
0000
0000
0000
0000
0000
0000
0000
0000
0000
0000
0000
0000
0000
0000
0000
0000
0000
0000
0000
0000
1000
0000
0000
0000
0000
0000
0000
0000
0000
0000
0000
0000
0000
0000
0000
0000
0000
0000
0000
0000
0000
0000
0000
0000
0000
0000
0000
0000
0000
0000
0000
0000
0000
0000
0000
0000
0000
0000
0000
0000
0000
0000
,
0000
0001
0000
0000
0000
0000
0000
0000
0000
0010
0000
0000
0000
0000
0000
0000
0000
0000
0000
0000
0000
0000
0000
0000
0000
0001
0000
0000
0000
0000
0000
0000
,
0000
1000
0000
0000
0000
0000
0000
0000
0000
0010
0000
0000
0000
0000
0000
0000
0000
0000
0000
0000
0000
0000
0000
0000
0000
0100
0000
0000
0000
0000
0000
0000
,
0000
0000
0000
0000
0000
0000
0001
0000
0000
0000
0000
0000
0000
0000
0000
0000
0000
0000
0000
0000
0000
0000
0000
0000
0000
0000
0000
0000
0000
0000
0000
0000
0000
0000
0000
0000
0000
0000
0000
0000
0000
0000
0000
0000
0000
0000
0000
0000
0000
0000
0000
0000
0000
0000
0000
0010
0000
0000
0000
0000
0000
0000
0000
0000
0000
0000
0000
0000
0000
0000
0000
0000
0000
0000
0000
0000
0000
0000
0000
0000
0000
0000
0000
0000
0000
0000
0000
0000
0000
0000
0000
0000
0000
0000
0000
0000
0000
0000
0000
0000
0000
0000
0000
0000
0000
0000
0000
0000
0000
0000
0000
0000
0000
0000
0000
0000
0000
0000
0000
0000
0000
0000
0000
0000
0000
0000
0000
0000
0000
0000
0000
0000
0000
0000
0000
0000
0000
0000
0000
0000
0000
0000
0000
0000
0000
0000
0000
0000
0000
0000
0000
0100
0000
0000
0000
0000
0000
0000
0000
0000
0000
0000
0000
0000
0000
0000
0000
0000
0000
0000
0000
0000
0000
0000
0000
0000
0000
0000
0000
0000
0000
0000
0000
0000
0000
0000
0000
0000
0000
0000
0000
0000
,
0000
0000
0000
0000
0000
0000
0000
1000
0000
0000
0000
0000
0000
0000
0000
0000
0000
0000
0000
0000
0000
0000
0000
0000
0000
0000
0000
0000
0000
0000
0000
0000
0000
0000
0000
0000
0000
0000
0000
0000
0000
0000
0000
0000
0000
0000
0000
0000
0000
0000
0000
0000
0000
0000
0000
0010
0000
0000
0000
0000
0000
0000
0000
0000
0000
0000
0000
0000
0000
0000
0000
0000
0000
0000
0000
0000
0000
0000
0000
0000
0000
0000
0000
0000
0000
0000
0000
0000
0000
0000
0000
0000
0000
0000
0000
0000
0000
0000
0000
0000
0000
0000
0000
0000
0000
0000
0000
0000
0000
0000
0000
0000
0000
0000
0000
0000
0000
0000
0000
0000
0000
0000
0000
0000
0000
0000
0000
0000
0000
0000
0000
0000
0000
0000
0000
0000
0000
0000
0000
0000
0000
0000
0000
0000
0000
0000
0000
0000
0000
0000
0000
0001
0000
0000
0000
0000
0000
0000
0000
0000
0000
0000
0000
0000
0000
0000
0000
0000
0000
0000
0000
0000
0000
0000
0000
0000
0000
0000
0000
0000
0000
0000
0000
0000
0000
0000
0000
0000
0000
0000
0000
0000
,
0000
0000
0000
0000
0000
0000
0000
0010
0000
0000
0000
0000
0000
0000
0000
0000
0000
0000
0000
0000
0000
0000
0000
0000
0000
0000
0000
0000
0000
0000
0000
0000
0000
0000
0000
0000
0000
0000
0000
0000
0000
0000
0000
0000
0000
0000
0000
0000
0000
0000
0000
0000
0000
0000
0000
0100
0000
0000
0000
0000
0000
0000
0000
0000
0000
0000
0000
0000
0000
0000
0000
0000
0000
0000
0000
0000
0000
0000
0000
0000
0000
0000
0000
0000
0000
0000
0000
0000
0000
0000
0000
0000
0000
0000
0000
0000
0000
0000
0000
0000
0000
0000
0000
1000
0000
0000
0000
0000
0000
0000
0000
0000
0000
0000
0000
0000
0000
0000
0000
0000
0000
0000
0000
0000
0000
0000
0000
0000
0000
0000
0000
0000
0000
0000
0000
0000
0000
0000
0000
0000
0000
0000
0000
0000
0000
0000
0000
0000
0000
0000
0000
0010
0000
0000
0000
0000
0000
0000
0000
0000
0000
0000
0000
0000
0000
0000
0000
0000
0000
0000
0000
0000
0000
0000
0000
0000
0000
0000
0000
0000
0000
0000
0000
0000
0000
0000
0000
0000
0000
0000
0000
0000
,
0000
1000
0000
0000
0000
0000
0000
0100
0000
0000
0000
0000
0000
0000
0000
0000
0000
0000
0000
0001
0000
0000
0000
0000
,
0000
0100
0000
0000
0000
0000
0000
1000
0000
0000
0000
0000
0000
0000
0000
0000
0000
0000
0000
0001
0000
0000
0000
0000
,
0000
0000
0000
0000
0000
0000
0000
0000
0010
0000
0000
0000
0000
0000
0000
0000
0000
0000
0000
0000
0000
0000
0000
0000
0000
0000
0000
0000
0000
0000
0000
0000
0000
0000
0000
0000
0000
0000
0000
0000
0000
0000
0000
0000
0000
0000
0000
0000
0000
0000
0000
0000
0000
0000
0000
0000
1000
0000
0000
0000
0000
0000
0000
0000
0000
0000
0000
0000
0000
0000
0000
0000
0000
0000
0000
0000
0000
0000
0000
0000
0000
0000
0000
0000
0000
0000
0000
0000
0000
0000
0000
0000
0000
0000
0000
0000
0000
0000
0000
0000
0000
0000
0000
0000
0000
0000
0000
0000
0000
0000
0000
0000
0000
0000
0000
0000
0000
0000
0000
0000
0000
0000
0000
0000
0000
0000
0000
0000
0000
0000
0000
0000
0000
0000
0000
0000
0000
0000
0000
0000
0000
0000
0000
0000
0000
0000
0000
0000
0000
0000
0000
0000
0000
0010
0000
0000
0000
0000
0000
0000
0000
0000
0000
0000
0000
0000
0000
0000
0000
0000
0000
0000
0000
0000
0000
0000
0000
0000
0000
0000
0000
0000
0000
0000
0000
0000
0000
0000
0000
0000
0000
0000
,
0000
0000
0000
0001
0000
0000
0000
0000
0000
0000
0000
0000
0000
0000
0000
0000
0000
0000
0000
0100
0000
0000
0000
0000
0000
0000
0000
0000
0000
0000
0000
0000
0000
0000
0000
0000
0000
0000
0000
0000
0000
0000
0000
0000
0000
0000
0000
0000
0000
0000
0000
1000
0000
0000
0000
0000
0000
0000
0000
0000
0000
0000
0000
0000
,
0000
0000
0000
0010
0000
0000
0000
0000
0000
0000
0000
0000
0000
0000
0000
0000
0000
0000
0000
0100
0000
0000
0000
0000
0000
0000
0000
0000
0000
0000
0000
0000
0000
0000
0000
0000
0000
0000
0000
0000
0000
0000
0000
0000
0000
0000
0000
0000
0000
0000
0000
0001
0000
0000
0000
0000
0000
0000
0000
0000
0000
0000
0000
0000
,
0000
0000
0000
0000
0000
0000
0000
0000
0000
1000
0000
0000
0000
0000
0000
0000
0000
0000
0000
0000
0000
0000
0000
0000
0000
0000
0000
0000
0000
0000
0000
0000
0000
0000
0000
0000
0000
0000
0000
0000
0000
0000
0000
0000
0000
0000
0000
0000
0000
0000
0000
0000
0000
0000
0000
0000
0000
0000
0100
0000
0000
0000
0000
0000
0000
0000
0000
0000
0000
0000
0000
0000
0000
0000
0000
0000
0000
0000
0000
0000
0000
0000
0000
0000
0000
0000
0000
0000
0000
0000
0000
0000
0000
0000
0000
0000
0000
0000
0000
0000
0000
0000
0000
0000
0000
0000
0000
0000
0000
0000
0000
0000
0000
0000
0000
0000
0000
0000
0000
0000
0000
0000
0000
0000
0000
0000
0000
0000
0000
0000
0000
0000
0000
0000
0000
0000
0000
0000
0000
0000
0000
0000
0000
0000
0000
0000
0000
0000
0000
0000
0000
0000
0000
0000
0010
0000
0000
0000
0000
0000
0000
0000
0000
0000
0000
0000
0000
0000
0000
0000
0000
0000
0000
0000
0000
0000
0000
0000
0000
0000
0000
0000
0000
0000
0000
0000
0000
0000
0000
0000
0000
0000
,
0000
0000
0000
0000
0000
0000
0000
0000
0000
0000
0001
0000
0000
0000
0000
0000
0000
0000
0000
0000
0000
0000
0000
0000
0000
0000
0000
0000
0000
0000
0000
0000
0000
0000
0000
0000
0000
0000
0000
0000
0000
0000
0000
0000
0000
0000
0000
0000
0000
0000
0000
0000
0000
0000
0000
0000
0000
0000
0100
0000
0000
0000
0000
0000
0000
0000
0000
0000
0000
0000
0000
0000
0000
0000
0000
0000
0000
0000
0000
0000
0000
0000
0000
0000
0000
0000
0000
0000
0000
0000
0000
0000
0000
0000
0000
0000
0000
0000
0000
0000
0000
0000
0000
0000
0000
0000
0000
0000
0000
0000
0000
0000
0000
0000
0000
0000
0000
0000
0000
0000
0000
0000
0000
0000
0000
0000
0000
0000
0000
0000
0000
0000
0000
0000
0000
0000
0000
0000
0000
0000
0000
0000
0000
0000
0000
0000
0000
0000
0000
0000
0000
0000
0000
0000
1000
0000
0000
0000
0000
0000
0000
0000
0000
0000
0000
0000
0000
0000
0000
0000
0000
0000
0000
0000
0000
0000
0000
0000
0000
0000
0000
0000
0000
0000
0000
0000
0000
0000
0000
0000
0000
0000
,
0000
0000
0000
0000
0000
0000
0000
0000
0000
0000
0100
0000
0000
0000
0000
0000
0000
0000
0000
0000
0000
0000
0000
0000
0000
0000
0000
0000
0000
0000
0000
0000
0000
0000
0000
0000
0000
0000
0000
0000
0000
0000
0000
0000
0000
0000
0000
0000
0000
0000
0000
0000
0000
0000
0000
0000
0000
0000
0010
0000
0000
0000
0000
0000
0000
0000
0000
0000
0000
0000
0000
0000
0000
0000
0000
0000
0000
0000
0000
0000
0000
0000
0000
0000
0000
0000
0000
0000
0000
0000
0000
0000
0000
0000
0000
0000
0000
0000
0000
0000
0000
0000
0000
0000
0000
0000
0000
0000
0000
0000
0000
0000
0000
0000
0000
0000
0000
0000
0000
0000
0000
0000
0000
0000
0000
0000
0000
0000
0000
0000
0000
0000
0000
0000
0000
0000
0000
0000
0000
0000
0000
0000
0000
0000
0000
0000
0000
0000
0000
0000
0000
0000
0000
0000
0100
0000
0000
0000
0000
0000
0000
0000
0000
0000
0000
0000
0000
0000
0000
0000
0000
0000
0000
0000
0000
0000
0000
0000
0000
0000
0000
0000
0000
0000
0000
0000
0000
0000
0000
0000
0000
0000
,
0000
0000
0000
0000
0000
0000
0000
0000
0000
0000
0000
1000
0000
0000
0000
0000
0000
0000
0000
0000
0000
0000
0000
0000
0000
0000
0000
0000
0000
0000
0000
0000
0000
0000
0000
0000
0000
0000
0000
0000
0000
0000
0000
0000
0000
0000
0000
0000
0000
0000
0000
0000
0000
0000
0000
0000
0000
0000
0000
0001
0000
0000
0000
0000
0000
0000
0000
0000
0000
0000
0000
0000
0000
0000
0000
0000
0000
0000
0000
0000
0000
0000
0000
0000
0000
0000
0000
0000
0000
0000
0000
0000
0000
0000
0000
0000
0000
0000
0000
0000
0000
0000
0000
0000
0000
0000
0000
0000
0000
0000
0000
0000
0000
0000
0000
0000
0000
0000
0000
0000
0000
0000
0000
0000
0000
0000
0000
0000
0000
0000
0000
0000
0000
0000
0000
0000
0000
0000
0000
0000
0000
0000
0000
0000
0000
0000
0000
0000
0000
0000
0000
0000
0000
0000
0000
1000
0000
0000
0000
0000
0000
0000
0000
0000
0000
0000
0000
0000
0000
0000
0000
0000
0000
0000
0000
0000
0000
0000
0000
0000
0000
0000
0000
0000
0000
0000
0000
0000
0000
0000
0000
0000
,
0000
0000
0000
0000
0000
0000
0000
0000
0000
0000
0000
0100
0000
0000
0000
0000
0000
0000
0000
0000
0000
0000
0000
0000
0000
0000
0000
0000
0000
0000
0000
0000
0000
0000
0000
0000
0000
0000
0000
0000
0000
0000
0000
0000
0000
0000
0000
0000
0000
0000
0000
0000
0000
0000
0000
0000
0000
0000
0000
1000
0000
0000
0000
0000
0000
0000
0000
0000
0000
0000
0000
0000
0000
0000
0000
0000
0000
0000
0000
0000
0000
0000
0000
0000
0000
0000
0000
0000
0000
0000
0000
0000
0000
0000
0000
0000
0000
0000
0000
0000
0000
0000
0000
0000
0000
0000
0000
0100
0000
0000
0000
0000
0000
0000
0000
0000
0000
0000
0000
0000
0000
0000
0000
0000
0000
0000
0000
0000
0000
0000
0000
0000
0000
0000
0000
0000
0000
0000
0000
0000
0000
0000
0000
0000
0000
0000
0000
0000
0000
0000
0000
0000
0000
0000
0000
0001
0000
0000
0000
0000
0000
0000
0000
0000
0000
0000
0000
0000
0000
0000
0000
0000
0000
0000
0000
0000
0000
0000
0000
0000
0000
0000
0000
0000
0000
0000
0000
0000
0000
0000
0000
0000
,
0000
0000
0000
0000
0000
0000
0000
0000
0000
0000
0000
0100
0000
0000
0000
0000
0000
0000
0000
0000
0000
0000
0000
0000
0000
0000
0000
0000
0000
0000
0000
0000
0000
0000
0000
0000
0000
0000
0000
0000
0000
0000
0000
0000
0000
0000
0000
0000
0000
0000
0000
0000
0000
0000
0000
0000
0000
0000
0000
0001
0000
0000
0000
0000
0000
0000
0000
0000
0000
0000
0000
0000
0000
0000
0000
0000
0000
0000
0000
0000
0000
0000
0000
0000
0000
0000
0000
0000
0000
0000
0000
0000
0000
0000
0000
0000
0000
0000
0000
0000
0000
0000
0000
0000
0000
0000
0000
0000
0100
0000
0000
0000
0000
0000
0000
0000
0000
0000
0000
0000
0000
0000
0000
0000
0000
0000
0000
0000
0000
0000
0000
0000
0000
0000
0000
0000
0000
0000
0000
0000
0000
0000
0000
0000
0000
0000
0000
0000
0000
0000
0000
0000
0000
0000
0000
0000
0010
0000
0000
0000
0000
0000
0000
0000
0000
0000
0000
0000
0000
0000
0000
0000
0000
0000
0000
0000
0000
0000
0000
0000
0000
0000
0000
0000
0000
0000
0000
0000
0000
0000
0000
0000
,
0000
0100
0000
0000
0000
1000
0000
0000
0000
0100
0000
0000
0000
0001
0000
0000
,
0000
0100
0000
0000
0000
1000
0000
0000
0000
0010
0000
0000
0000
0100
0000
0000
,
0000
0000
0000
0000
0000
0000
0000
0000
0000
0000
0000
0000
0010
0000
0000
0000
0000
0000
0000
0000
0000
0000
0000
0000
0000
0000
0000
0000
0000
0000
0000
0000
0000
0000
0000
0000
0000
0000
0000
0000
0000
0000
0000
0000
0000
0000
0000
0000
0000
0000
0000
0000
0000
0000
0000
0000
0000
0000
0000
0000
0000
0100
0000
0000
0000
0000
0000
0000
0000
0000
0000
0000
0000
0000
0000
0000
0000
0000
0000
0000
0000
0000
0000
0000
0000
0000
0000
0000
0000
0000
0000
0000
0000
0000
0000
0000
0000
0000
0000
0000
0000
0000
0000
0000
0000
0000
0000
0000
0000
0010
0000
0000
0000
0000
0000
0000
0000
0000
0000
0000
0000
0000
0000
0000
0000
0000
0000
0000
0000
0000
0000
0000
0000
0000
0000
0000
0000
0000
0000
0000
0000
0000
0000
0000
0000
0000
0000
0000
0000
0000
0000
0000
0000
0000
0000
0000
0000
0001
0000
0000
0000
0000
0000
0000
0000
0000
0000
0000
0000
0000
0000
0000
0000
0000
0000
0000
0000
0000
0000
0000
0000
0000
0000
0000
0000
0000
0000
0000
0000
0000
0000
0000
,
0000
0000
0000
0000
0000
0000
0000
0000
0000
0000
0000
0000
0000
0010
0000
0000
0000
0000
0000
0000
0000
0000
0000
0000
0000
0000
0000
0000
0000
0000
0000
0000
0000
0000
0000
0000
0000
0000
0000
0000
0000
0000
0000
0000
0000
0000
0000
0000
0000
0000
0000
0000
0000
0000
0000
0000
0000
0000
0000
0000
0000
0001
0000
0000
0000
0000
0000
0000
0000
0000
0000
0000
0000
0000
0000
0000
0000
0000
0000
0000
0000
0000
0000
0000
0000
0000
0000
0000
0000
0000
0000
0000
0000
0000
0000
0000
0000
0000
0000
0000
0000
0000
0000
0000
0000
0000
0000
0000
0000
0010
0000
0000
0000
0000
0000
0000
0000
0000
0000
0000
0000
0000
0000
0000
0000
0000
0000
0000
0000
0000
0000
0000
0000
0000
0000
0000
0000
0000
0000
0000
0000
0000
0000
0000
0000
0000
0000
0000
0000
0000
0000
0000
0000
0000
0000
0000
0000
1000
0000
0000
0000
0000
0000
0000
0000
0000
0000
0000
0000
0000
0000
0000
0000
0000
0000
0000
0000
0000
0000
0000
0000
0000
0000
0000
0000
0000
0000
0000
0000
0000
0000
0000
,
0000
0000
0000
0000
0000
0000
0000
0000
0000
0000
0000
0000
0000
0010
0000
0000
0000
0000
0000
0000
0000
0000
0000
0000
0000
0000
0000
0000
0000
0000
0000
0000
0000
0000
0000
0000
0000
0000
0000
0000
0000
0000
0000
0000
0000
0000
0000
0000
0000
0000
0000
0000
0000
0000
0000
0000
0000
0000
0000
0000
0000
0100
0000
0000
0000
0000
0000
0000
0000
0000
0000
0000
0000
0000
0000
0000
0000
0000
0000
0000
0000
0000
0000
0000
0000
0000
0000
0000
0000
0000
0000
0000
0000
0000
0000
0000
0000
0000
0000
0000
0000
0000
0000
0000
0000
0000
0000
0000
0000
0010
0000
0000
0000
0000
0000
0000
0000
0000
0000
0000
0000
0000
0000
0000
0000
0000
0000
0000
0000
0000
0000
0000
0000
0000
0000
0000
0000
0000
0000
0000
0000
0000
0000
0000
0000
0000
0000
0000
0000
0000
0000
0000
0000
0000
0000
0000
0000
1000
0000
0000
0000
0000
0000
0000
0000
0000
0000
0000
0000
0000
0000
0000
0000
0000
0000
0000
0000
0000
0000
0000
0000
0000
0000
0000
0000
0000
0000
0000
0000
0000
0000
0000
,
0000
0000
0000
0000
0000
0000
0000
0000
0000
0000
0000
0000
0000
0000
0100
0000
0000
0000
0000
0000
0000
0000
0000
0000
0000
0000
0000
0000
0000
0000
0000
0000
0000
0000
0000
0000
0000
0000
0000
0000
0000
0000
0000
0000
0000
0000
0000
0000
0000
0000
0000
0000
0000
0000
0000
0000
0000
0000
0000
0000
0000
0000
0010
0000
0000
0000
0000
0000
0000
0000
0000
0000
0000
0000
0000
0000
0000
0000
0000
0000
0000
0000
0000
0000
0000
0000
0000
0000
0000
0000
0000
0000
0000
0000
0000
0000
0000
0000
0000
0000
0000
0000
0000
0000
0000
0000
0000
0000
0000
0000
0001
0000
0000
0000
0000
0000
0000
0000
0000
0000
0000
0000
0000
0000
0000
0000
0000
0000
0000
0000
0000
0000
0000
0000
0000
0000
0000
0000
0000
0000
0000
0000
0000
0000
0000
0000
0000
0000
0000
0000
0000
0000
0000
0000
0000
0000
0000
0000
1000
0000
0000
0000
0000
0000
0000
0000
0000
0000
0000
0000
0000
0000
0000
0000
0000
0000
0000
0000
0000
0000
0000
0000
0000
0000
0000
0000
0000
0000
0000
0000
0000
0000
,
0000
0000
0000
0000
0000
0000
0000
0000
0000
0000
0000
0000
0000
0000
0010
0000
0000
0000
0000
0000
0000
0000
0000
0000
0000
0000
0000
0000
0000
0000
0000
0000
0000
0000
0000
0000
0000
0000
0000
0000
0000
0000
0000
0000
0000
0000
0000
0000
0000
0000
0000
0000
0000
0000
0000
0000
0000
0000
0000
0000
0000
0000
0100
0000
0000
0000
0000
0000
0000
0000
0000
0000
0000
0000
0000
0000
0000
0000
0000
0000
0000
0000
0000
0000
0000
0000
0000
0000
0000
0000
0000
0000
0000
0000
0000
0000
0000
0000
0000
0000
0000
0000
0000
0000
0000
0000
0000
0000
0000
0000
0010
0000
0000
0000
0000
0000
0000
0000
0000
0000
0000
0000
0000
0000
0000
0000
0000
0000
0000
0000
0000
0000
0000
0000
0000
0000
0000
0000
0000
0000
0000
0000
0000
0000
0000
0000
0000
0000
0000
0000
0000
0000
0000
0000
0000
0000
0000
0000
1000
0000
0000
0000
0000
0000
0000
0000
0000
0000
0000
0000
0000
0000
0000
0000
0000
0000
0000
0000
0000
0000
0000
0000
0000
0000
0000
0000
0000
0000
0000
0000
0000
0000
,
0000
0000
0000
0000
0000
0000
0000
0000
0000
0000
0000
0000
0000
0000
0001
0000
0000
0000
0000
0000
0000
0000
0000
0000
0000
0000
0000
0000
0000
0000
0000
0000
0000
0000
0000
0000
0000
0000
0000
0000
0000
0000
0000
0000
0000
0000
0000
0000
0000
0000
0000
0000
0000
0000
0000
0000
0000
0000
0000
0000
0000
0000
0100
0000
0000
0000
0000
0000
0000
0000
0000
0000
0000
0000
0000
0000
0000
0000
0000
0000
0000
0000
0000
0000
0000
0000
0000
0000
0000
0000
0000
0000
0000
0000
0000
0000
0000
0000
0000
0000
0000
0000
0000
0000
0000
0000
0000
0000
0000
0000
0000
0010
0000
0000
0000
0000
0000
0000
0000
0000
0000
0000
0000
0000
0000
0000
0000
0000
0000
0000
0000
0000
0000
0000
0000
0000
0000
0000
0000
0000
0000
0000
0000
0000
0000
0000
0000
0000
0000
0000
0000
0000
0000
0000
0000
0000
0000
0000
0000
1000
0000
0000
0000
0000
0000
0000
0000
0000
0000
0000
0000
0000
0000
0000
0000
0000
0000
0000
0000
0000
0000
0000
0000
0000
0000
0000
0000
0000
0000
0000
0000
0000
,
0000
0000
0000
0000
0000
0100
0000
0000
0000
0000
0000
0000
0000
0000
0000
0000
0000
0000
0000
0000
0000
1000
0000
0000
0000
0000
0000
0000
0000
0000
0000
0000
0000
0000
0000
0000
0000
0010
0000
0000
0000
0000
0000
0000
0000
0000
0000
0000
0000
0000
0000
0000
0000
0100
0000
0000
0000
0000
0000
0000
0000
0001
0000
0000
,
0000
0000
0000
0000
0000
0100
0000
0000
0000
0000
0000
0000
0000
0000
0000
0000
0000
0000
0000
0000
0000
0001
0000
0000
0000
0000
0000
0000
0000
1000
0000
0000
0000
0000
0000
0000
0000
0001
0000
0000
0000
0000
0000
0000
0000
0000
0000
0000
0000
0000
0000
0000
0000
2000
0000
0000
0000
0000
0000
0000
0000
0000
0000
0000
,
0000
0000
0000
0000
0200
0000
0000
3300
0000
0000
0001
0000
,
0000
0000
0000
0000
0000
0110
0000
0000
0000
0000
0000
1100
0000
0000
0000
0000
0000
1001
0000
0000
0000
0000
0000
0000
,
0000
0011
0000
0000
1001
0000
0000
0101
0000
0000
1000
0000
,
0000
0000
0000
0000
0000
0000
0000
0000
0000
0000
0000
0000
0000
0000
0000
0000
0000
0001
0000
0000
0000
0000
0000
0000
0000
0000
0000
0000
0000
0000
0000
0000
0000
0000
0000
0000
0000
0000
0000
0000
0000
0000
0000
0000
0000
0000
0000
0000
0000
0000
0000
0000
0000
0000
0000
0000
0000
0000
0000
0000
0000
0000
0000
0000
0000
0100
0000
0000
0000
0000
0000
0000
0000
0000
0000
0000
0000
0000
0000
0000
0000
0000
0000
0000
0000
0000
0000
0000
0000
0000
0000
0000
0000
0000
0000
0000
0000
0000
0000
0000
0000
0000
0000
0000
0000
0000
0000
0000
0000
0000
0000
0000
0000
0000
0000
0000
0000
0000
0000
0000
0000
0000
0000
0000
0000
0000
0000
0000
0000
0000
0000
0000
0000
0000
0000
0000
0000
0000
0000
0000
0000
0000
0000
0000
0000
0000
0000
0000
0000
0000
0000
0000
0000
0000
0000
0000
0000
0000
0000
0000
0000
0010
0000
0000
0000
0000
0000
0000
0000
0000
0000
0000
0000
0000
0000
0000
0000
0000
0000
0000
0000
0000
0000
0000
0000
0000
0000
0000
0000
0000
0000
0000
,
0000
0000
0000
0000
0000
0000
0000
0000
0000
0000
0000
0000
0000
0000
0000
0000
0000
0100
0000
0000
0000
0000
0000
0000
0000
0000
0000
0000
0000
0000
0000
0000
0000
0000
0000
0000
0000
0000
0000
0000
0000
0000
0000
0000
0000
0000
0000
0000
0000
0000
0000
0000
0000
0000
0000
0000
0000
0000
0000
0000
0000
0000
0000
0000
0000
0000
0000
0000
0000
0000
0000
0000
0000
0000
0000
0000
0000
0000
0000
0000
0000
0000
0000
0000
0000
0000
0000
0000
0000
0000
0000
0000
0000
0000
0000
0000
0000
0000
0000
0000
0000
0000
0000
0000
0000
0000
0000
0000
0000
0000
0000
0000
0000
1000
0000
0000
0000
0000
0000
0000
0000
0000
0000
0000
0000
0000
0000
0000
0000
0000
0000
0000
0000
0000
0000
0000
0000
0000
0000
0000
0000
0000
0000
0000
0000
0000
0000
0000
0000
0000
0000
0000
0000
0000
0000
0000
0000
0000
0000
0000
0000
0100
0000
0000
0000
0000
0000
0000
0000
0000
0000
0000
0000
0000
0000
0000
0000
0000
0000
0000
0000
0000
0000
0000
0000
0000
0000
0000
0000
0000
0000
0000
,
0000
0000
0000
0000
0000
0000
0000
0000
0000
0000
0000
0000
0000
0000
0000
0000
0000
0000
0000
0000
0000
0000
0000
0000
0000
0000
0000
0000
0000
0000
0000
0000
0000
0000
0000
0000
0000
0000
0000
0000
0000
0000
0000
0000
0000
0000
0000
0000
0000
0000
0000
0000
0000
0000
0000
0000
0000
0000
0000
0000
0000
0000
0000
0000
0000
0001
0000
0000
0000
0000
0000
0000
0000
0000
0000
0000
0000
0000
0000
0000
0000
0000
0000
0000
0000
0000
0000
0000
0000
0000
0000
0000
0000
0000
0000
0000
0000
0000
0000
0000
0000
0000
0000
0000
0000
0000
0000
0000
0000
0000
0000
0000
0000
0000
0100
0000
0000
0000
0000
0000
0000
0000
0000
0000
0000
0000
0000
0000
0000
0000
0000
0000
0000
0000
0000
0000
0000
0000
0000
0000
0000
0000
0000
0000
0000
0000
0000
0000
0000
0000
0000
0000
0000
0000
0000
0000
0000
0000
0000
0000
0000
0000
0010
0000
0000
0000
0000
0000
0000
0000
0000
0000
0000
0000
0000
0000
0000
0000
0000
0000
0000
0000
0000
0000
0000
0000
0000
0000
0000
0000
0000
0000
,
0000
0000
0000
1000
0000
0000
0000
0000
0000
0000
0000
0100
0000
0000
0000
0000
0000
0000
0000
0010
0000
0000
0000
0000
0000
0000
0000
2002
0000
0000
0000
0000
,
0000
0000
0000
0000
0000
0000
0000
0000
0000
0000
0000
0000
0000
0000
0000
0000
0000
0000
0000
3003
0000
0000
0000
0000
0000
0000
0000
0001
0000
0000
0000
0000
,
0000
0000
0000
0000
0000
0000
0000
0000
0000
0000
0000
0000
0000
0000
0000
0000
0000
0000
0010
0000
0000
0000
0000
0000
0000
0000
0000
0000
0000
0000
0000
0000
0000
0000
0000
0000
0000
0000
0000
0000
0000
0000
0000
0000
0000
0000
0000
0000
0000
0000
0000
0000
0000
0000
0000
0000
0000
0000
0000
0000
0000
0000
0000
0000
0000
0000
0000
0100
0000
0000
0000
0000
0000
0000
0000
0000
0000
0000
0000
0000
0000
0000
0000
0000
0000
0000
0000
0000
0000
0000
0000
0000
0000
0000
0000
0000
0000
0000
0000
0000
0000
0000
0000
0000
0000
0000
0000
0000
0000
0000
0000
0000
0000
0000
0000
1001
0000
0000
0000
0000
0000
0000
0000
0000
0000
0000
0000
0000
0000
0000
0000
0000
0000
0000
0000
0000
0000
0000
0000
0000
0000
0000
0000
0000
0000
0000
0000
0000
0000
0000
0000
0000
0000
0000
0000
0000
0000
0000
0000
0000
0000
0000
0000
0000
0000
0000
0000
0000
0000
0000
0000
0000
0000
0000
0000
0000
0000
0000
0000
0000
0000
0000
0000
0000
0000
0000
0000
0000
0000
0000
0000
0000
;

//---------------dance-single - ----------------
#NOTES:
     dance-single:
     :
     Hard:
     9:
     0.779,0.972,0.416,0.213,0.397: // measure 1
0000
0000
0000
0000
,  // measure 2
0000
0000
0000
0000
,  // measure 3
0000
0000
0000
0000
,  // measure 4
0000
0000
0000
0000
,  // measure 5
0000
0000
0000
0000
,  // measure 6
1000
0000
0000
0100
0000
0000
0010
0000
0000
0001
0000
0000
1100
0000
0000
0000
,  // measure 7
0001
0000
0000
0100
0000
0000
0010
0000
0000
1000
0000
0000
0101
0000
1000
0000
,  // measure 8
0100
0000
0000
1000
0000
0000
0010
0000
0000
1000
0000
0000
0110
0000
0000
0000
,  // measure 9
0010
0100
0001
0100
1000
0001
0100
0010
,  // measure 10
1000
0000
0000
0010
0000
0000
1000
0000
0000
0100
0000
0000
0011
0000
0000
0000
,  // measure 11
0100
0000
0000
0010
0000
0000
1000
0000
0000
0001
0000
0000
0011
0000
1000
0000
,  // measure 12
0100
0000
0000
0001
0000
0000
0010
0000
0000
0001
0000
0000
1001
0000
0000
0000
,  // measure 13
1000
0010
1000
0100
0010
0001
0100
0000
,  // measure 14
1010
0000
0101
0000
0010
0100
1000
0010
,  // measure 15
0100
0010
1000
0100
0010
0100
1000
0010
,  // measure 16
0101
0000
0110
0000
0010
0100
0001
1000
,  // measure 17
0100
0010
0001
0100
1000
0100
0001
0000
,  // measure 18
1100
0000
0101
0000
0010
0100
0001
0010
,  // measure 19
1100
0000
0101
0000
1000
0001
0100
0001
,  // measure 20
0010
0100
1000
0001
0010
0001
0100
0010
,  // measure 21
0100
0001
0010
0100
0001
0100
1000
0000
,  // measure 22
0010
0001
1000
0100
0001
1000
0100
0010
,  // measure 23
0001
0100
0001
0010
1000
0001
0100
2000
,  // measure 24
0002
0000
0000
3003
,  // measure 25
0010
0100
1000
0001
0100
0001
0010
0100
,  // measure 26
1000
0010
0100
0001
1000
0100
0001
0100
,  // measure 27
1000
0010
0101
0000
0001
0010
1100
0000
,  // measure 28
1000
1000
0001
0100
0010
0100
0001
0010
,  // measure 29
0100
0100
0001
0100
1000
0010
1000
0100
,  // measure 30
0010
0010
0001
1000
0010
0100
0001
0010
,  // measure 31
0001
1000
0100
1000
1000
0001
0100
0001
,  // measure 32
0010
0100
1000
0010
0010
0100
0001
1000
,  // measure 33
0200
1000
1000
1000
1000
1000
1300
0001
,  // measure 34
0200
0001
0001
0001
0001
0001
0301
0000
,  // measure 35
0010
0000
0000
1000
0000
0000
0100
0000
0000
0010
0000
0000
1001
0000
0000
0000
,  // measure 36
0001
0000
0000
0010
0000
0000
1000
0000
0000
0010
0000
0000
0101
0000
1000
0000
,  // measure 37
0001
0000
0000
0100
0000
0000
0010
0000
0000
1000
0000
0000
0110
0000
0000
0000
,  // measure 38
0010
0001
0100
0001
1000
0100
0010
0100
,  // measure 39
1000
0000
0000
0100
0000
0000
0010
0000
0001
0000
0000
0000
1100
0000
0000
0000
,  // measure 40
0001
0000
0000
1000
0000
0000
0100
0000
0000
0010
0000
0000
0101
0000
1000
0000
,  // measure 41
0010
0000
0000
0100
0000
0000
0001
0000
0000
1000
0000
0000
0110
0000
0000
0000
,  // measure 42
0001
0010
0100
1000
0001
1000
0010
0100
,  // measure 43
0001
0100
0002
0000
1003
0100
2000
0000
,  // measure 44
3010
0100
0020
0000
1030
0001
2000
0000
,  // measure 45
3001
0010
0002
0000
0103
0010
0200
0000
,  // measure 46
0310
1000
0020
0000
1030
0001
0010
0100
,  // measure 47
1000
0100
1000
0100
0001
0100
0001
0100
,  // measure 48
0010
0100
0001
0100
1000
0100
0010
0001
,  // measure 49
1000
0010
1000
0010
0001
0010
0001
0010
,  // measure 50
0100
0010
0001
0010
1000
0010
0100
0001
,  // measure 51
0010
0001
0100
0001
0010
0001
0100
0001
,  // measure 52
0010
0100
1000
0001
0100
0010
1000
0001
,  // measure 53
0100
0010
0100
0001
0010
0100
1000
0010
,  // measure 54
1000
0100
1000
0001
0010
0001
1000
0100
,  // measure 55
0010
0100
1001
0000
1000
0010
0101
0000
,  // measure 56
0010
0100
0001
1000
0100
0001
0100
1000
,  // measure 57
0100
0010
0001
0010
0100
1000
0010
0001
,  // measure 58
1000
0100
0010
1000
0100
1000
0001
0100
,  // measure 59
0001
0010
0100
1000
0001
1000
0010
0100
,  // measure 60
0001
0010
1001
0000
0001
0010
1100
0000
,  // measure 61
1000
0001
0110
0000
0010
1000
0101
0000
,  // measure 62
2010
0010
3010
0000
0102
0100
0103
0000
,  // measure 63
0001
0010
0001
0010
0001
0000
0010
0000
0000
0100
0000
0000
1000
0000
0010
0000
,  // measure 64
0100
0010
0100
0010
0100
0000
0001
0000
0000
1000
0000
0000
0100
0000
0010
0000
,  // measure 65
0001
0100
0001
0100
0001
0000
0010
0000
0000
0001
0000
0000
1000
0000
0010
0000
,  // measure 66
1000
0001
1000
0001
1000
0000
0010
0000
0000
0100
0000
0000
0001
0000
0010
0000
,  // measure 67
0100
1000
0100
1000
0100
0000
1000
0000
0000
0001
0000
0000
0110
0000
2002
0000
,  // measure 68
0000
0000
0000
3003
,  // measure 69
0010
0100
0001
1000
0100
0010
0001
0100
,  // measure 70
1001
1100
1001
0101
,  // measure 71
0100
0000
0010
2000
0000
0001
3001
0000
,  // measure 72
0100
0101
1001
1100
,  // measure 73
0100
0000
0010
0002
0000
1000
1003
0000
,  // measure 74
0100
0000
0110
0000
0011
0000
0001
2000
,  // measure 75
0000
0000
3001
0010
0000
0001
0100
0000
,  // measure 76
0010
0000
1000
0000
1001
0000
0100
0010
,  // measure 77
0000
0001
0000
1001
0000
1000
0100
0000
,  // measure 78
0010
0011
1001
1010
,  // measure 79
0010
0000
0100
0002
0000
1000
1003
0000
,  // measure 80
0010
1010
1001
0011
,  // measure 81
0010
0000
0100
2000
0000
0001
3001
0000
,  // measure 82
0100
0000
0010
0000
0110
0000
0010
0100
,  // measure 83
0000
0010
0010
0000
0110
0000
0100
0000
,  // measure 84
0001
0101
0110
1010
,  // measure 85
1000
0000
0100
0010
0000
0001
1000
0000
,  // measure 86
1000
1100
0110
0011
,  // measure 87
0001
0000
0100
0010
0000
1000
0001
0000
,  // measure 88
0010
0000
0011
0000
1001
0000
1000
0001
,  // measure 89
0000
0000
1000
0010
0000
1000
0100
0000
,  // measure 90
0010
0000
0001
0000
0011
0000
0100
1000
,  // measure 91
0000
0100
0000
1100
0000
0010
0001
0000
,  // measure 92
0001
0011
0110
1100
,  // measure 93
1000
0000
0010
0100
0000
0001
1000
0000
,  // measure 94
1000
0000
1010
0000
0110
0000
0100
0001
,  // measure 95
0000
0001
1000
0010
0000
0000
0100
0000
,  // measure 96
0002
0000
1003
0000
1001
0000
0000
2000
,  // measure 97
0000
0001
3001
0000
1001
0000
1000
0000
,  // measure 98
0100
0000
0010
0000
0110
0000
0100
1000
,  // measure 99
0000
0001
0001
0000
1000
0000
1001
0000
,  // measure 100
0001
0100
0010
1000
0001
0000
0001
0000
,  // measure 101
1000
1000
0100
0110
,  // measure 102
0010
0001
1000
0100
0010
0000
0010
0000
,  // measure 103
0100
1100
0010
0011
,  // measure 104
1000
0100
0010
0001
1000
0000
1000
0000
,  // measure 105
0001
0001
0100
0110
,  // measure 106
0100
0101
0100
0101
,  // measure 107
1010
0000
0000
1001
0000
0000
1100
0000
,  // measure 108
0010
0001
0010
0100
1000
0000
1000
0000
,  // measure 109
0010
1000
0010
0100
0001
0000
0001
0000
,  // measure 110
0110
1010
1001
1100
,  // measure 111
0110
0011
1001
1010
,  // measure 112
0100
0001
0100
0010
1000
0000
1000
0000
,  // measure 113
0100
1000
0100
0010
0001
0000
0001
0000
,  // measure 114
0110
1100
1001
1010
,  // measure 115
0110
0101
1001
1100
,  // measure 116
0010
0001
0010
0100
1000
0000
0001
0000
,  // measure 117
0010
1000
0010
0100
0001
0000
1000
0000
,  // measure 118
1100
0110
0011
1001
,  // measure 119
0100
0100
0110
0110
,  // measure 120
0010
0010
0110
0110
,  // measure 121
1000
0001
1000
0000
0001
1000
0001
0000
,  // measure 122
2200
0000
3300
0002
,  // measure 123
1003
0100
0020
0000
0002
0030
0003
1000
,  // measure 124
0100
0010
0001
0200
0000
0000
0320
0000
,  // measure 125
1030
0100
0010
0001
0000
0001
0000
0010
,  // measure 126
0100
1000
0010
0100
0000
0001
2000
0000
,  // measure 127
3001
0000
0100
0000
0000
0000
0001
1000
0000
0001
1000
0000
0001
0000
0010
0000
,  // measure 128
0001
0100
0001
2000
0000
0000
3010
0000
,  // measure 129
0100
0001
1000
1100
0000
0101
0000
1000
,  // measure 130
0010
0010
1000
0020
0000
0000
0130
0000
,  // measure 131
0001
0100
0010
0000
1000
0100
1000
0001
,  // measure 132
0010
0100
1000
0020
0000
0000
0130
0000
,  // measure 133
0001
0100
0010
1000
0000
1000
0000
0010
,  // measure 134
0100
0001
1000
0100
0000
0010
0001
0000
,  // measure 135
1000
0000
0100
0000
0000
0000
1000
0001
0000
1000
0001
0000
1000
0000
0010
0000
,  // measure 136
0100
0001
0010
0200
0000
0000
1300
0000
,  // measure 137
0100
1000
0010
0101
0000
1010
0000
1000
,  // measure 138
0001
0001
1000
0001
0000
0000
0010
0000
,  // measure 139
0001
0100
0010
0000
1000
1000
0000
0001
,  // measure 140
0010
0000
0002
0000
0000
0000
1000
0000
0000
1000
0000
0000
1003
0000
1000
0000
,  // measure 141
0010
0000
2000
0000
0000
0000
0001
0000
0000
0001
0000
0000
3001
0000
0001
0000
,  // measure 142
0100
0000
0010
0000
0000
0000
1000
0000
0000
0010
0000
0000
0100
0000
0010
0000
,  // measure 143
0010
0000
0010
0000
0000
0000
1000
0001
0000
1000
0001
0000
1000
0000
0001
0000
,  // measure 144
0001
0000
0001
0000
0000
0000
1000
0000
0000
1000
0000
0000
1000
0000
0010
0000
,  // measure 145
0010
0000
0010
0000
0000
0000
0100
0000
0000
0100
0000
0000
0100
0000
0010
0000
,  // measure 146
1000
0000
0100
0000
0000
0000
0010
0000
0000
0001
0000
0000
0100
0000
0001
1000
,  // measure 147
0000
0000
1000
0100
0000
0000
0100
0010
0000
0000
0010
0001
0000
0000
0010
0000
,  // measure 148
0001
0100
0010
2000
0000
3001
0100
0000
,  // measure 149
0001
0001
1000
0002
0000
0003
0000
0010
,  // measure 150
0100
1000
0001
0100
0000
0010
1000
0000
,  // measure 151
0000
0000
0001
0000
0000
0000
1000
0100
0000
0100
1000
0000
0001
0000
0100
0000
,  // measure 152
0001
1000
0010
0200
0000
0301
1000
0000
,  // measure 153
0001
0001
1000
0002
0000
0003
0000
0100
,  // measure 154
0001
0010
0100
2000
0000
3001
0100
0001
,  // measure 155
1000
0001
0100
0001
1000
0001
0010
0002
,  // measure 156
0000
0103
0000
1200
0000
0000
1300
0000
,  // measure 157
1000
1100
0000
0202
0000
0303
0000
2000
,  // measure 158
0000
3100
0000
1000
0010
1000
0100
0020
,  // measure 159
0001
0030
0000
1000
0100
1000
0000
0002
,  // measure 160
0000
0103
0000
1200
0000
0000
1300
0000
,  // measure 161
1000
1100
0000
0101
0000
0100
0010
1000
,  // measure 162
0100
1000
0000
0002
0000
0103
0000
0010
,  // measure 163
1000
0010
1000
0001
0100
0001
0000
0010
,  // measure 164
1000
0100
0010
0011
0000
0000
0010
0000
,  // measure 165
0001
0100
0010
1010
0000
0101
0000
0010
,  // measure 166
1000
0100
0010
0001
0000
1000
0100
0000
,  // measure 167
0010
0000
0001
0000
0000
0000
0001
1000
0000
1000
0001
0000
1000
0000
0010
0000
,  // measure 168
0100
0001
1000
2002
0000
3003
0010
0000
,  // measure 169
1000
0001
1000
0101
0000
1010
0000
0100
,  // measure 170
0001
0001
0100
0001
0000
0000
0010
0001
,  // measure 171
0100
0000
0001
0000
0000
0000
1000
0100
0000
0100
1000
0000
0000
0000
0010
0000
,  // measure 172
1000
0010
0100
0101
0000
0000
1000
0000
,  // measure 173
0100
0010
0001
1100
0000
0011
0000
0010
,  // measure 174
0100
0100
0010
0100
0000
0001
1000
0000
,  // measure 175
0001
1000
0000
0010
0010
0010
0010
1000
,  // measure 176
0100
0010
0001
1001
0000
0010
0000
0000
,  // measure 177
0100
0010
0001
1100
0000
0011
0000
1000
,  // measure 178
0001
0001
1000
0001
0000
0000
1100
0000
,  // measure 179
0011
0011
1100
0000
0101
0000
1001
0000
,  // measure 180
0001
0010
0001
0010
0001
0100
0010
0000
,  // measure 181
1000
0010
1000
0010
1000
0100
0010
0000
,  // measure 182
0100
1000
0100
0000
0010
0001
0010
0000
,  // measure 183
1000
0010
0100
0010
1000
0001
0100
0000
,  // measure 184
0001
0010
0100
1000
0100
1000
0001
0000
,  // measure 185
1000
0010
0100
0001
0100
0001
1000
0000
,  // measure 186
0001
0100
0001
0000
1000
0010
1000
0000
,  // measure 187
0010
0100
0010
1000
0001
1000
0100
0000
,  // measure 188
1100
0100
1000
0010
0100
0010
1000
0001
,  // measure 189
0010
0001
0000
0000
0100
1000
0010
0000
,  // measure 190
0100
1000
0001
0010
0001
0100
1000
0100
,  // measure 191
0010
1000
0000
0000
0010
0001
0100
0000
,  // measure 192
1000
0010
0100
0001
0010
0001
0100
0001
,  // measure 193
1000
0010
0000
0000
0100
1000
0001
0000
,  // measure 194
0010
1000
0100
0000
0010
0001
0100
0000
,  // measure 195
1000
0000
0001
0000
0001
0010
0100
0000
,  // measure 196
1001
0100
0001
0100
0010
0100
0001
1000
,  // measure 197
0010
0100
1000
0000
0010
0001
0100
0000
,  // measure 198
0100
0001
0010
0001
1000
0100
0010
0001
,  // measure 199
1000
0100
0000
0000
0010
1000
0100
0000
,  // measure 200
1000
0100
0010
1000
0010
0001
0010
0001
,  // measure 201
0100
0010
1000
0000
0001
0000
1000
0000
,  // measure 202
1010
1000
0100
0000
0011
0001
0100
0000
,  // measure 203
0010
1000
0100
0010
0001
0100
0010
0100
,  // measure 204
0002
0000
0010
0000
0103
0010
0100
0000
,  // measure 205
0010
1000
0010
0000
1000
0100
1000
0000
,  // measure 206
0200
0000
0001
0000
0310
0001
0010
0000
,  // measure 207
1000
0010
1000
0000
1000
0010
0100
0000
,  // measure 208
0101
0100
0001
0000
0010
0100
0010
0000
,  // measure 209
0100
1000
0100
0000
0001
1000
0010
0000
,  // measure 210
2000
0000
0100
0000
3001
0010
0001
0000
,  // measure 211
1000
0010
1000
0000
0010
0001
0100
0000
,  // measure 212
1001
0100
0000
0110
0000
1010
0000
1100
,  // measure 213
0000
2002
0000
0000
0000
0000
0000
3003
,  // measure 214
0001
1000
0000
0110
0000
0011
0000
0101
,  // measure 215
0000
2002
0000
0000
0000
0000
0000
3003
,  // measure 216
1001
0100
0000
0010
0000
0200
0000
0300
,  // measure 217
1001
0001
0000
0010
0000
0022
0000
0033
,  // measure 218
1001
0100
0000
0001
0100
1000
0000
0020
,  // measure 219
0000
0000
0000
0000
0000
0000
0000
0030
,  // measure 220
0010
0100
0001
0100
0010
0100
0001
0100
,  // measure 221
1000
0010
0100
0000
1000
0100
0001
0000
,  // measure 222
0010
0100
1000
0010
0100
0001
1000
0010
,  // measure 223
0100
0001
0010
0000
0010
0001
1000
0000
,  // measure 224
0101
0100
0001
0100
0001
0010
0001
0010
,  // measure 225
1000
0010
1000
0000
1000
0001
0100
0000
,  // measure 226
1001
0100
0001
0000
1001
0100
1000
0000
,  // measure 227
0011
0000
0000
0000
0000
0000
0000
0000
0000
0000
0000
0000
0000
0000
0000
0000
1001
0000
0000
0000
0000
0000
0000
0000
0000
0000
0000
0000
0000
0000
0000
0000
2200
0300
0000
0000
0000
0000
0000
0000
0000
0000
0000
0000
0000
0000
0000
0000
3010
0000
0000
0000
0000
0000
0000
0000
1000
0000
0000
0000
0000
0000
0000
0000
,  // measure 228
0100
0010
0001
1000
0100
1000
0001
0010
,  // measure 229
1000
0000
1000
0010
0001
0000
0101
0001
,  // measure 230
0010
0000
1100
1000
0010
0000
1010
1000
,  // measure 231
0001
0100
0001
0000
0100
1000
0001
1000
,  // measure 232
0100
0010
0001
0010
0100
1000
0001
0100
,  // measure 233
0010
0100
0001
1000
0100
0001
1000
0001
,  // measure 234
0100
1000
0001
1000
0100
0000
0110
0000
,  // measure 235
1100
0000
0011
0000
0010
1000
0100
0001
,  // measure 236
0100
1000
0010
0001
0010
1000
0100
0001
,  // measure 237
0100
1000
0010
0000
0110
0000
0010
1000
,  // measure 238
0100
0000
1001
0000
0110
0000
0010
0001
,  // measure 239
0100
0000
1001
0000
0001
0100
1000
0100
,  // measure 240
0001
0010
0001
0100
1000
0100
0001
0010
,  // measure 241
0001
0100
1000
0000
0101
0000
0010
1000
,  // measure 242
0100
1000
0001
0000
1100
0000
0010
0001
,  // measure 243
0100
0001
1000
0000
1000
0010
0100
0010
,  // measure 244
1000
0100
0001
0100
1000
0010
0100
0001
,  // measure 245
0010
0100
1000
0000
1001
0000
0100
0010
,  // measure 246
0100
1000
0001
0000
1001
0000
0100
0010
,  // measure 247
0100
0001
1000
0000
0110
0000
0001
1000
,  // measure 248
0100
0000
0010
0001
0100
0000
0010
1000
,  // measure 249
0100
0010
0001
0000
1100
0000
0010
0100
,  // measure 250
0001
0000
0100
1000
0010
0000
0100
0001
,  // measure 251
1000
0100
0010
0001
1001
0000
1000
0010
,  // measure 252
0100
0000
1000
0100
0001
0010
0001
0100
,  // measure 253
1000
0100
0001
0010
0110
0000
1000
0010
,  // measure 254
0001
0010
1000
0100
0001
0100
1000
0010
,  // measure 255
0001
0010
1000
0000
0220
0000
0330
0001
,  // measure 256
2000
0000
3000
0100
0020
0000
0030
0001
,  // measure 257
0200
0000
0310
0000
2002
0000
3003
0010
,  // measure 258
0200
0000
0300
1000
0200
0000
0300
0001
,  // measure 259
0200
0000
0310
0000
0022
0000
0033
1000
,  // measure 260
0020
0000
0030
0010
0200
0000
0300
0001
,  // measure 261
2000
0000
3100
0000
0202
0000
0303
0001
,  // measure 262
0020
0030
1001
0110
,  // measure 263
0001
0010
0100
0000
0100
1000
0010
0001
,  // measure 264
0010
1000
0100
0010
0100
1000
0001
0100
,  // measure 265
0010
0100
0001
0000
0001
0010
0100
1000
,  // measure 266
0010
0001
0010
1000
0100
0010
0001
0100
,  // measure 267
1000
0100
0001
0000
1000
0100
1000
0010
,  // measure 268
0100
0001
0010
0100
1000
0001
0100
1000
,  // measure 269
0100
0010
1000
0000
0001
1000
0010
0100
,  // measure 270
0001
0010
0100
1000
0001
0100
1000
0100
,  // measure 271
1000
0100
0001
0010
0001
0010
1000
0010
,  // measure 272
1000
0010
0001
0100
0010
1000
0010
0100
,  // measure 273
0010
1000
0010
0100
0010
1000
0010
0100
,  // measure 274
0010
1000
0010
0100
0001
1000
0001
1000
,  // measure 275
0001
1000
0001
1000
0010
0100
0010
0100
,  // measure 276
0010
0110
0001
1000
,  // measure 277
0100
0010
0001
0000
0100
0000
0010
0000
,  // measure 278
0100
1000
0100
0001
0010
0100
1000
0010
,  // measure 279
0001
0010
1000
0100
,  // measure 280
2000
3000
0020
0030
,  // measure 281
0100
0001
0010
1000
0010
0001
0100
1000
,  // measure 282
0100
0110
2002
3003
,  // measure 283
0100
0202
0303
0010
,  // measure 284
2200
3300
0010
0100
,  // measure 285
0010
0000
0100
0000
1001
0000
0010
1000
,  // measure 286
0100
0000
0010
1000
0100
0000
0001
0010
,  // measure 287
0100
1000
0010
0000
1001
0000
0010
0100
,  // measure 288
0001
0000
0010
0100
0001
0000
0001
0010
,  // measure 289
1000
0010
0001
0000
0110
0000
0001
0100
,  // measure 290
1000
0100
0010
1000
0001
0010
0100
1000
,  // measure 291
0010
0001
0010
0000
1001
0000
0100
0010
,  // measure 292
0100
1000
0010
0001
0010
1000
0001
0010
,  // measure 293
0100
1000
0010
0000
0100
0001
0010
0100
,  // measure 294
1000
0001
0100
0001
0010
0100
0001
0100
,  // measure 295
1000
0010
1000
0100
0001
0100
1000
0010
,  // measure 296
0001
0010
1000
0100
1000
0010
0001
0010
,  // measure 297
1000
0100
0001
0100
1000
0010
0001
0010
,  // measure 298
1000
0100
0010
1000
0010
0001
0100
1000
,  // measure 299
0100
0001
0010
1000
0010
0001
0100
0010
,  // measure 300
0001
0010
1000
0100
0001
0100
1000
0001
,  // measure 301
0010
1000
0010
0001
1000
0000
0010
0000
,  // measure 302
0100
0001
0100
0010
,  // measure 303
1000
0100
0010
0001
,  // measure 304
1000
0010
1000
0001
,  // measure 305
0100
0010
0100
1000
,  // measure 306
0100
0001
1000
0010
,  // measure 307
1000
0100
0010
0100
,  // measure 308
1000
0001
0010
0100
,  // measure 309
0001
0100
1000
0010
,  // measure 310
0100
0001
1000
0100
,  // measure 311
1000
0010
0100
0001
,  // measure 312
0100
1000
0100
0010
,  // measure 313
1000
0001
0010
0100
,  // measure 314
1000
0100
0001
0100
,  // measure 315
0010
0001
0100
0010
,  // measure 316
1000
0100
1000
0001
,  // measure 317
0100
0010
0100
1001
,  // measure 318
0020
1000
1030
0002
,  // measure 319
1000
1003
0200
0010
,  // measure 320
0310
0200
1000
1300
,  // measure 321
0010
0100
0001
0100
,  // measure 322
0010
2000
0001
3001
,  // measure 323
0020
0100
0130
1000
,  // measure 324
0001
0010
0100
1000
,  // measure 325
0001
0000
0000
0020
0000
0001
0000
0031
,  // measure 326
0000
2000
0000
0100
0000
3100
0000
2000
,  // measure 327
0000
0010
0000
3010
0000
0200
0000
0001
,  // measure 328
0000
0301
0000
0010
0000
0100
0000
1000
,  // measure 329
0000
0100
0000
0010
0001
0010
0000
0100
,  // measure 330
0000
0010
0100
0010
0000
0001
0000
1000
,  // measure 331
0000
0010
0000
0100
0000
0001
0000
1000
,  // measure 332
0001
0000
1000
0000
0010
0000
0100
0000
0010
0000
1000
0000
0001
0100
0010
0000
,  // measure 333
1000
0000
0000
0100
0000
0000
0010
0000
0000
0000
0000
0000
0001
0000
0000
0000
0000
0000
0100
0000
0000
0000
0000
0000
0001
0000
0000
0000
0000
0000
0001
0000
0000
0000
0010
0000
0000
0000
1000
0000
0000
0000
0010
0000
0000
0000
0001
0000
,  // measure 334
0000
0100
0000
1000
0000
0000
0100
0000
0000
0010
0000
0000
0100
0000
0000
0001
0000
0010
0000
0100
0000
1001
0000
0000
,  // measure 335
0000
0000
0000
0000
0000
0000
0100
0000
0000
0000
0001
0000
0000
0000
0010
0000
0000
0000
0001
0000
0000
0000
0100
0000
0000
0000
0001
0000
0000
0000
1000
0000
0000
0010
0000
0000
1000
0000
0000
0100
0000
0000
0010
0000
0000
0001
0000
0000
,  // measure 336
1000
0001
0010
0100
0000
0000
0100
1000
0000
0000
1000
0010
0000
0000
0010
0100
,  // measure 337
0000
0000
0100
0001
0000
0000
0001
0010
0000
0000
0010
1000
0000
0000
1000
0000
,  // measure 338
0001
0000
0100
1000
0000
0000
1000
0001
0000
0000
0001
0010
0000
0000
0010
0100
,  // measure 339
0000
0000
0100
1000
0000
0000
1000
0010
0000
0000
0010
0100
0000
0000
0100
0000
,  // measure 340
1000
0000
0100
0001
0000
0000
0001
1000
0000
0000
1000
0100
0000
0000
0100
0010
,  // measure 341
0000
0000
0010
0100
0000
0000
0100
1000
0000
0000
1000
0010
0000
0000
0010
0000
,  // measure 342
0100
0000
0001
0010
0000
0000
0010
0001
0000
0000
0001
0100
0000
0000
0100
1000
,  // measure 343
0000
0000
1000
0100
0000
0000
0100
0001
0000
0000
0001
0010
0000
0000
0010
0000
,  // measure 344
0100
0000
1000
0100
0000
0000
0100
0010
0000
0000
0010
0001
0000
0000
0001
0100
,  // measure 345
0000
0000
0100
0010
0000
0000
0010
1000
0000
0000
1000
0100
0000
0000
0100
0000
,  // measure 346
0001
0000
0100
1000
0000
0000
1000
0010
0000
0000
0010
0100
0000
0000
0100
0001
,  // measure 347
0000
0000
0001
0010
0000
0000
0010
0001
0000
0000
0001
0000
0100
0000
0010
0000
,  // measure 348
1000
0000
0100
1000
0000
0000
0001
0010
0000
0000
1000
0010
0000
0000
0001
1000
,  // measure 349
0000
0000
0001
0100
0000
0000
0001
0010
0000
0000
0100
1000
0000
0000
0010
0000
,  // measure 350
0100
0000
0001
1000
0000
0000
0100
1000
0000
0000
0010
0100
0000
0000
1000
0100
,  // measure 351
0000
0000
0001
0100
0000
0000
0010
1000
0000
0000
0100
0010
0000
0000
0100
1000
,  // measure 352
0000
0000
0010
0100
0000
0000
0010
1000
0000
0000
0001
0100
0000
0000
0001
0000
,  // measure 353
0010
0000
0100
1000
0000
0000
0001
0100
0000
0000
0010
0100
0000
0000
0001
0000
,  // measure 354
1000
0000
0100
0010
0000
0000
0001
0000
1000
0000
0100
0000
1000
0000
0001
0100
,  // measure 355
0000
0000
0010
0000
1000
0000
0001
0000
1000
0000
0010
0100
0000
0000
0001
0000
,  // measure 356
0010
0000
0001
0000
0100
0000
0010
1000
0000
0000
0001
1000
0000
0000
0100
1000
,  // measure 357
0000
0000
0001
0010
0000
0000
0001
0000
1000
0000
0010
0000
0100
0000
0001
0000
,  // measure 358
0010
0000
0100
0010
0000
0000
0001
0100
0000
0000
0010
0100
0000
0000
1000
0000
,  // measure 359
0100
0000
0001
0000
0010
0000
0100
1000
0000
0000
0010
0000
0100
0000
0001
0000
,  // measure 360
0100
0000
0000
0010
0000
1000
0000
0100
0000
0010
0000
0100
0000
1000
0000
0010
0000
0100
0000
0010
0000
1000
0000
0001
,  // measure 361
0000
0010
0000
0100
0000
1000
0000
0001
0000
0100
0000
0010
0000
0100
0000
0001
0000
0010
0000
0001
0000
1000
0000
0010
,  // measure 362
0000
0000
0000
0000
0000
0000
0000
0000
1000
0000
0000
0000
0000
0000
0000
0000
0000
0000
0000
0000
0100
0000
0000
0000
0000
0000
0000
0000
0000
0000
0000
0000
0000
0000
0000
0000
0010
0000
0000
0000
0000
0000
0000
0000
0000
0000
0000
0000
0000
0000
0000
0000
0001
0000
0000
0000
0000
0000
0000
0000
0000
0000
0000
0000
0000
0000
0000
0000
0000
0010
0000
0000
0000
0000
0000
0000
0000
0000
0000
0000
0000
0000
0000
0000
0000
0100
0000
0000
0000
0000
0000
0000
0000
0000
0000
0000
0000
0000
0000
0000
0000
1000
0000
0000
0000
0000
0000
0000
0000
0000
0000
0000
0000
0000
0000
0000
0000
0100
0000
0000
0000
0000
0000
0000
0000
0000
0000
0000
0000
0000
0000
0000
0000
0001
0000
0000
0000
0000
0000
0000
0000
0000
0000
0000
0000
0000
0000
0000
0000
0100
0000
0000
0000
0000
0000
0000
0000
0000
0000
0000
0000
0000
0000
0000
0000
1000
0000
0000
0000
0000
0000
0000
0000
0000
0000
0000
0000
0000
0000
0000
0000
0010
0000
0000
0000
0000
0000
0000
0000
0000
0000
0000
,  // measure 363
0000
0000
0000
0000
0000
0001
0000
0000
0000
0000
0000
0000
0000
0000
0000
0000
0000
0000
0000
0000
0000
0010
0000
0000
0000
0000
0000
0000
0000
0000
0000
0000
0000
0000
0000
0000
0000
1000
0000
0000
0000
0000
0000
0000
0000
0000
0000
0000
0000
0000
0000
0000
0000
0001
0000
0000
0000
0000
0000
0000
0000
0000
0000
0000
0000
0000
0000
0000
0000
0100
0000
0000
0000
0000
0000
0000
0000
0000
0000
0000
0000
0000
0000
0000
0000
0010
0000
0000
0000
0000
0000
0000
0000
0000
0000
0000
0000
0000
0000
0000
0000
1000
0000
0000
0000
0000
0000
0000
0000
0000
0000
0000
0000
0000
0000
0000
0000
0100
0000
0000
0000
0000
0000
0000
0000
0000
0000
0000
0000
0000
0000
0000
0000
0010
0000
0000
0000
0000
0000
0000
0000
0000
0000
0000
0000
0000
0000
0000
0000
0001
0000
0000
0000
0000
0000
0000
0000
0000
0000
0000
0000
0000
0000
0000
0000
0000
0000
0000
0000
0000
0000
0000
0000
0000
0000
0000
0000
0000
0000
0000
0000
0000
0000
0000
0000
0000
0000
0000
0000
0000
0000
0000
,  // measure 364
0000
0000
0000
0000
0000
1000
0000
0000
0000
0000
0000
0000
0000
0000
0000
0000
0000
0000
0000
0000
0000
0000
0000
0000
0000
0000
0000
0000
0000
0000
0000
0000
0000
0000
0000
0000
0000
0000
0000
0000
0000
0000
0000
0000
0000
0000
0000
0000
0000
0000
0000
0000
0000
0010
0000
0000
0000
0000
0000
0000
0000
0000
0000
0000
0000
0000
0000
0000
0000
0000
0000
0000
0000
0000
0000
0000
0000
0100
0000
0000
0000
0000
0000
0000
0000
0000
0000
0000
0000
0000
0000
0000
0000
0000
0000
0000
0000
0000
0000
0000
0000
0010
0000
0000
0000
0000
0000
0000
0000
0000
0000
0000
0000
0000
0000
0000
0000
0000
0000
0000
0000
0000
0000
0000
0000
0100
0000
0000
0000
0000
0000
0000
0000
0000
0000
0000
0000
0000
0000
0000
0000
0000
0000
0000
0000
0000
0000
0000
0000
0010
0000
0000
0000
0000
0000
0000
0000
0000
0000
0000
0000
0000
0000
0000
0000
0000
0000
0000
0000
0000
0000
0000
0000
0000
0000
0000
0000
0000
0000
0000
0000
0000
0000
0000
0000
0000
0000
0000
0000
0000
0000
0000
,  // measure 365
0000
1000
0000
0000
0000
0000
0000
0000
0000
0001
0000
0000
0000
0100
0000
0000
0000
0001
0000
0000
0000
0100
0000
0000
0000
0001
0000
0000
0000
0000
0000
0000
,  // measure 366
0000
0010
0000
0000
0000
0000
0000
0000
0000
0100
0000
0000
0000
1000
0000
0000
0000
0100
0000
0000
0000
1000
0000
0000
0000
0100
0000
0000
0000
0000
0000
0000
,  // measure 367
0000
0000
0000
0000
0000
0000
1000
0000
0000
0000
0000
0000
0000
0000
0000
0000
0000
0000
0000
0000
0000
0000
0000
0000
0000
0000
0000
0000
0000
0000
0000
0000
0000
0000
0000
0000
0000
0000
0000
0000
0000
0000
0000
0000
0000
0000
0000
0000
0000
0000
0000
0000
0000
0000
0010
0000
0000
0000
0000
0000
0000
0000
0000
0000
0000
0000
0000
0000
0000
0000
0000
0000
0000
0000
0000
0000
0000
0000
0100
0000
0000
0000
0000
0000
0000
0000
0000
0000
0000
0000
0000
0000
0000
0000
0000
0000
0000
0000
0000
0000
0000
0000
0010
0000
0000
0000
0000
0000
0000
0000
0000
0000
0000
0000
0000
0000
0000
0000
0000
0000
0000
0000
0000
0000
0000
0000
0100
0000
0000
0000
0000
0000
0000
0000
0000
0000
0000
0000
0000
0000
0000
0000
0000
0000
0000
0000
0000
0000
0000
0000
0000
0010
0000
0000
0000
0000
0000
0000
0000
0000
0000
0000
0000
0000
0000
0000
0000
0000
0000
0000
0000
0000
0000
0000
0000
0000
0000
0000
0000
0000
0000
0000
0000
0000
0000
0000
0000
0000
0000
0000
0000
0000
,  // measure 368
0000
0000
0000
0000
0000
0000
0000
1000
0000
0000
0000
0000
0000
0000
0000
0000
0000
0000
0000
0000
0000
0000
0000
0000
0000
0000
0000
0000
0000
0000
0000
0000
0000
0000
0000
0000
0000
0000
0000
0000
0000
0000
0000
0000
0000
0000
0000
0000
0000
0000
0000
0000
0000
0000
0000
0001
0000
0000
0000
0000
0000
0000
0000
0000
0000
0000
0000
0000
0000
0000
0000
0000
0000
0000
0000
0000
0000
0000
0000
0010
0000
0000
0000
0000
0000
0000
0000
0000
0000
0000
0000
0000
0000
0000
0000
0000
0000
0000
0000
0000
0000
0000
0000
0001
0000
0000
0000
0000
0000
0000
0000
0000
0000
0000
0000
0000
0000
0000
0000
0000
0000
0000
0000
0000
0000
0000
0000
0010
0000
0000
0000
0000
0000
0000
0000
0000
0000
0000
0000
0000
0000
0000
0000
0000
0000
0000
0000
0000
0000
0000
0000
0001
0000
0000
0000
0000
0000
0000
0000
0000
0000
0000
0000
0000
0000
0000
0000
0000
0000
0000
0000
0000
0000
0000
0000
0000
0000
0000
0000
0000
0000
0000
0000
0000
0000
0000
0000
0000
0000
0000
0000
0000
,  // measure 369
0000
0000
0000
0000
0000
0000
0000
0100
0000
0000
0000
0000
0000
0000
0000
0000
0000
0000
0000
0000
0000
0000
0000
0000
0000
0000
0000
0000
0000
0000
0000
0000
0000
0000
0000
0000
0000
0000
0000
0000
0000
0000
0000
0000
0000
0000
0000
0000
0000
0000
0000
0000
0000
0000
0000
0010
0000
0000
0000
0000
0000
0000
0000
0000
0000
0000
0000
0000
0000
0000
0000
0000
0000
0000
0000
0000
0000
0000
0000
1000
0000
0000
0000
0000
0000
0000
0000
0000
0000
0000
0000
0000
0000
0000
0000
0000
0000
0000
0000
0000
0000
0000
0000
0010
0000
0000
0000
0000
0000
0000
0000
0000
0000
0000
0000
0000
0000
0000
0000
0000
0000
0000
0000
0000
0000
0000
0000
1000
0000
0000
0000
0000
0000
0000
0000
0000
0000
0000
0000
0000
0000
0000
0000
0000
0000
0000
0000
0000
0000
0000
0000
0010
0000
0000
0000
0000
0000
0000
0000
0000
0000
0000
0000
0000
0000
0000
0000
0000
0000
0000
0000
0000
0000
0000
0000
0000
0000
0000
0000
0000
0000
0000
0000
0000
0000
0000
0000
0000
0000
0000
0000
0000
,  // measure 370
0000
0000
0000
0000
0000
0000
0000
0100
0000
0000
0000
0000
0000
0000
0000
0000
0000
0000
0000
0000
0000
0000
0000
0000
0000
0000
0000
0000
0000
0000
0000
0000
0000
0000
0000
0000
0000
0000
0000
0000
0000
0000
0000
0000
0000
0000
0000
0000
0000
0000
0000
0000
0000
0000
0000
0001
0000
0000
0000
0000
0000
0000
0000
0000
0000
0000
0000
0000
0000
0000
0000
0000
0000
0000
0000
0000
0000
0000
0000
0000
1000
0000
0000
0000
0000
0000
0000
0000
0000
0000
0000
0000
0000
0000
0000
0000
0000
0000
0000
0000
0000
0000
0000
0000
0001
0000
0000
0000
0000
0000
0000
0000
0000
0000
0000
0000
0000
0000
0000
0000
0000
0000
0000
0000
0000
0000
0000
0000
1000
0000
0000
0000
0000
0000
0000
0000
0000
0000
0000
0000
0000
0000
0000
0000
0000
0000
0000
0000
0000
0000
0000
0000
0001
0000
0000
0000
0000
0000
0000
0000
0000
0000
0000
0000
0000
0000
0000
0000
0000
0000
0000
0000
0000
0000
0000
0000
0000
0000
0000
0000
0000
0000
0000
0000
0000
0000
0000
0000
0000
0000
0000
0000
,  // measure 371
0000
0010
0000
0000
0000
0000
0000
0100
0000
0000
1000
0000
0000
0100
0000
0000
1000
0000
0000
0100
0000
0000
0000
0000
,  // measure 372
0000
1000
0000
0000
0000
0000
0000
0001
0000
0000
0010
0000
0000
0001
0000
0000
1000
0000
0000
0001
0000
0000
0000
0000
,  // measure 373
0000
0000
0000
0100
0000
0000
0000
0000
0000
0000
0000
0000
0000
0000
0000
0000
0000
0000
0000
0010
0000
0000
0000
0000
0000
0000
0000
0100
0000
0000
0000
0000
0000
0000
0000
1000
0000
0000
0000
0000
0000
0000
0000
0100
0000
0000
0000
0000
0000
0000
0000
0010
0000
0000
0000
0000
0000
0000
0000
0000
0000
0000
0000
0000
,  // measure 374
0000
0000
0000
1000
0000
0000
0000
0000
0000
0000
0000
0000
0000
0000
0000
0000
0000
0000
0000
0100
0000
0000
0000
0000
0000
0000
0000
0010
0000
0000
0000
0000
0000
0000
0000
0100
0000
0000
0000
0000
0000
0000
0000
1000
0000
0000
0000
0000
0000
0000
0000
0100
0000
0000
0000
0000
0000
0000
0000
0000
0000
0000
0000
0000
,  // measure 375
0000
0000
0000
0000
0000
0000
0000
0000
0000
0010
0000
0000
0000
0000
0000
0000
0000
0000
0000
0000
0000
0000
0000
0000
0000
0000
0000
0000
0000
0000
0000
0000
0000
0000
0000
0000
0000
0000
0000
0000
0000
0000
0000
0000
0000
0000
0000
0000
0000
0000
0000
0000
0000
0000
0000
0000
0000
0001
0000
0000
0000
0000
0000
0000
0000
0000
0000
0000
0000
0000
0000
0000
0000
0000
0000
0000
0000
0000
0000
0000
0000
0010
0000
0000
0000
0000
0000
0000
0000
0000
0000
0000
0000
0000
0000
0000
0000
0000
0000
0000
0000
0000
0000
0000
0000
0001
0000
0000
0000
0000
0000
0000
0000
0000
0000
0000
0000
0000
0000
0000
0000
0000
0000
0000
0000
0000
0000
0000
0000
0100
0000
0000
0000
0000
0000
0000
0000
0000
0000
0000
0000
0000
0000
0000
0000
0000
0000
0000
0000
0000
0000
0000
0000
0000
0001
0000
0000
0000
0000
0000
0000
0000
0000
0000
0000
0000
0000
0000
0000
0000
0000
0000
0000
0000
0000
0000
0000
0000
0000
0000
0000
0000
0000
0000
0000
0000
0000
0000
0000
0000
0000
0000
,  // measure 376
0000
0000
0000
0000
0000
0000
0000
0000
0000
0000
1000
0000
0000
0000
0000
0000
0000
0000
0000
0000
0000
0000
0000
0000
0000
0000
0000
0000
0000
0000
0000
0000
0000
0000
0000
0000
0000
0000
0000
0000
0000
0000
0000
0000
0000
0000
0000
0000
0000
0000
0000
0000
0000
0000
0000
0000
0000
0000
0010
0000
0000
0000
0000
0000
0000
0000
0000
0000
0000
0000
0000
0000
0000
0000
0000
0000
0000
0000
0000
0000
0000
0000
0100
0000
0000
0000
0000
0000
0000
0000
0000
0000
0000
0000
0000
0000
0000
0000
0000
0000
0000
0000
0000
0000
0000
0000
0010
0000
0000
0000
0000
0000
0000
0000
0000
0000
0000
0000
0000
0000
0000
0000
0000
0000
0000
0000
0000
0000
0000
0000
0001
0000
0000
0000
0000
0000
0000
0000
0000
0000
0000
0000
0000
0000
0000
0000
0000
0000
0000
0000
0000
0000
0000
0000
0010
0000
0000
0000
0000
0000
0000
0000
0000
0000
0000
0000
0000
0000
0000
0000
0000
0000
0000
0000
0000
0000
0000
0000
0000
0000
0000
0000
0000
0000
0000
0000
0000
0000
0000
0000
0000
0000
,  // measure 377
0000
0000
0000
0000
0000
0000
0000
0000
0000
0000
0100
0000
0000
0000
0000
0000
0000
0000
0000
0000
0000
0000
0000
0000
0000
0000
0000
0000
0000
0000
0000
0000
0000
0000
0000
0000
0000
0000
0000
0000
0000
0000
0000
0000
0000
0000
0000
0000
0000
0000
0000
0000
0000
0000
0000
0000
0000
0000
0001
0000
0000
0000
0000
0000
0000
0000
0000
0000
0000
0000
0000
0000
0000
0000
0000
0000
0000
0000
0000
0000
0000
0000
1000
0000
0000
0000
0000
0000
0000
0000
0000
0000
0000
0000
0000
0000
0000
0000
0000
0000
0000
0000
0000
0000
0000
0000
0001
0000
0000
0000
0000
0000
0000
0000
0000
0000
0000
0000
0000
0000
0000
0000
0000
0000
0000
0000
0000
0000
0000
0000
0100
0000
0000
0000
0000
0000
0000
0000
0000
0000
0000
0000
0000
0000
0000
0000
0000
0000
0000
0000
0000
0000
0000
0000
0001
0000
0000
0000
0000
0000
0000
0000
0000
0000
0000
0000
0000
0000
0000
0000
0000
0000
0000
0000
0000
0000
0000
0000
0000
0000
0000
0000
0000
0000
0000
0000
0000
0000
0000
0000
0000
0000
,  // measure 378
0000
0000
0000
0000
0000
0000
0000
0000
0000
0000
1000
0000
0000
0000
0000
0000
0000
0000
0000
0000
0000
0000
0000
0000
0000
0000
0000
0000
0000
0000
0000
0000
0000
0000
0000
0000
0000
0000
0000
0000
0000
0000
0000
0000
0000
0000
0000
0000
0000
0000
0000
0000
0000
0000
0000
0000
0000
0000
0100
0000
0000
0000
0000
0000
0000
0000
0000
0000
0000
0000
0000
0000
0000
0000
0000
0000
0000
0000
0000
0000
0000
0000
0000
0001
0000
0000
0000
0000
0000
0000
0000
0000
0000
0000
0000
0000
0000
0000
0000
0000
0000
0000
0000
0000
0000
0000
0000
0100
0000
0000
0000
0000
0000
0000
0000
0000
0000
0000
0000
0000
0000
0000
0000
0000
0000
0000
0000
0000
0000
0000
0000
0010
0000
0000
0000
0000
0000
0000
0000
0000
0000
0000
0000
0000
0000
0000
0000
0000
0000
0000
0000
0000
0000
0000
0000
0100
0000
0000
0000
0000
0000
0000
0000
0000
0000
0000
0000
0000
0000
0000
0000
0000
0000
0000
0000
0000
0000
0000
0000
0000
0000
0000
0000
0000
0000
0000
0000
0000
0000
0000
0000
0000
,  // measure 379
0000
0000
0000
0000
0000
0000
0000
0000
0000
0000
0000
1000
0000
0000
0000
0000
0000
0000
0000
0000
0000
0000
0000
0000
0000
0000
0000
0000
0000
0000
0000
0000
0000
0000
0000
0000
0000
0000
0000
0000
0000
0000
0000
0000
0000
0000
0000
0000
0000
0000
0000
0000
0000
0000
0000
0000
0000
0000
0000
0010
0000
0000
0000
0000
0000
0000
0000
0000
0000
0000
0000
0000
0000
0000
0000
0000
0000
0000
0000
0000
0000
0000
0000
0100
0000
0000
0000
0000
0000
0000
0000
0000
0000
0000
0000
0000
0000
0000
0000
0000
0000
0000
0000
0000
0000
0000
0000
0001
0000
0000
0000
0000
0000
0000
0000
0000
0000
0000
0000
0000
0000
0000
0000
0000
0000
0000
0000
0000
0000
0000
0000
0000
0000
0000
0000
0000
0000
0000
0000
0000
0000
0000
0000
0000
0000
0000
0000
0000
0000
0000
0000
0000
0000
0000
0000
1001
0000
0000
0000
0000
0000
0000
0000
0000
0000
0000
0000
0000
0000
0000
0000
0000
0000
0000
0000
0000
0000
0000
0000
0000
0000
0000
0000
0000
0000
0000
0000
0000
0000
0000
0000
0000
,  // measure 380
0000
0000
0000
0000
0000
0000
0000
0000
0000
0000
0000
0010
0000
0000
0000
0000
0000
0000
0000
0000
0000
0000
0000
0000
0000
0000
0000
0000
0000
0000
0000
0000
0000
0000
0000
0000
0000
0000
0000
0000
0000
0000
0000
0000
0000
0000
0000
0000
0000
0000
0000
0000
0000
0000
0000
0000
0000
0000
0000
1000
0000
0000
0000
0000
0000
0000
0000
0000
0000
0000
0000
0000
0000
0000
0000
0000
0000
0000
0000
0000
0000
0000
0000
0000
0000
0000
0000
0000
0000
0000
0000
0000
0000
0000
0000
0000
0000
0000
0000
0000
0000
0000
0000
0000
0000
0000
0000
0101
0000
0000
0000
0000
0000
0000
0000
0000
0000
0000
0000
0000
0000
0000
0000
0000
0000
0000
0000
0000
0000
0000
0000
0000
0000
0000
0000
0000
0000
0000
0000
0000
0000
0000
0000
0000
0000
0000
0000
0000
0000
0000
0000
0000
0000
0000
0000
1000
0000
0000
0000
0000
0000
0000
0000
0000
0000
0000
0000
0000
0000
0000
0000
0000
0000
0000
0000
0000
0000
0000
0000
0000
0000
0000
0000
0000
0000
0000
0000
0000
0000
0000
0000
0000
,  // measure 381
0000
0100
0000
0000
0000
0011
0000
0000
0000
0100
0000
0000
0000
0001
0000
0000
,  // measure 382
0000
1010
0000
0000
0000
0001
0000
0000
0000
1000
0000
0000
0000
0110
0000
0000
,  // measure 383
0000
0000
0000
0000
0000
0000
0000
0000
0000
0000
0000
0000
0001
0000
0000
0000
0000
0000
0000
0000
0000
0000
0000
0000
0000
0000
0000
0000
0000
0000
0000
0000
0000
0000
0000
0000
0000
0000
0000
0000
0000
0000
0000
0000
0000
0000
0000
0000
0000
0000
0000
0000
0000
0000
0000
0000
0000
0000
0000
0000
0010
0000
0000
0000
0000
0000
0000
0000
0000
0000
0000
0000
0000
0000
0000
0000
0000
0000
0000
0000
0000
0000
0000
0000
0000
0000
0000
0000
0000
0000
0000
0000
0000
0000
0000
0000
0000
0000
0000
0000
0000
0000
0000
0000
0000
0000
0000
0000
0101
0000
0000
0000
0000
0000
0000
0000
0000
0000
0000
0000
0000
0000
0000
0000
0000
0000
0000
0000
0000
0000
0000
0000
0000
0000
0000
0000
0000
0000
0000
0000
0000
0000
0000
0000
0000
0000
0000
0000
0000
0000
0000
0000
0000
0000
0000
0000
0000
1000
0000
0000
0000
0000
0000
0000
0000
0000
0000
0000
0000
0000
0000
0000
0000
0000
0000
0000
0000
0000
0000
0000
0000
0000
0000
0000
0000
0000
0000
0000
0000
0000
0000
0000
,  // measure 384
0000
0000
0000
0000
0000
0000
0000
0000
0000
0000
0000
0000
0000
0010
0000
0000
0000
0000
0000
0000
0000
0000
0000
0000
0000
0000
0000
0000
0000
0000
0000
0000
0000
0000
0000
0000
0000
0000
0000
0000
0000
0000
0000
0000
0000
0000
0000
0000
0000
0000
0000
0000
0000
0000
0000
0000
0000
0000
0000
0000
0000
0100
0000
0000
0000
0000
0000
0000
0000
0000
0000
0000
0000
0000
0000
0000
0000
0000
0000
0000
0000
0000
0000
0000
0000
0000
0000
0000
0000
0000
0000
0000
0000
0000
0000
0000
0000
0000
0000
0000
0000
0000
0000
0000
0000
0000
0000
0000
0000
1001
0000
0000
0000
0000
0000
0000
0000
0000
0000
0000
0000
0000
0000
0000
0000
0000
0000
0000
0000
0000
0000
0000
0000
0000
0000
0000
0000
0000
0000
0000
0000
0000
0000
0000
0000
0000
0000
0000
0000
0000
0000
0000
0000
0000
0000
0000
0000
0001
0000
0000
0000
0000
0000
0000
0000
0000
0000
0000
0000
0000
0000
0000
0000
0000
0000
0000
0000
0000
0000
0000
0000
0000
0000
0000
0000
0000
0000
0000
0000
0000
0000
0000
,  // measure 385
0000
0000
0000
0000
0000
0000
0000
0000
0000
0000
0000
0000
0000
0010
0000
0000
0000
0000
0000
0000
0000
0000
0000
0000
0000
0000
0000
0000
0000
0000
0000
0000
0000
0000
0000
0000
0000
0000
0000
0000
0000
0000
0000
0000
0000
0000
0000
0000
0000
0000
0000
0000
0000
0000
0000
0000
0000
0000
0000
0000
0000
1100
0000
0000
0000
0000
0000
0000
0000
0000
0000
0000
0000
0000
0000
0000
0000
0000
0000
0000
0000
0000
0000
0000
0000
0000
0000
0000
0000
0000
0000
0000
0000
0000
0000
0000
0000
0000
0000
0000
0000
0000
0000
0000
0000
0000
0000
0000
0000
0010
0000
0000
0000
0000
0000
0000
0000
0000
0000
0000
0000
0000
0000
0000
0000
0000
0000
0000
0000
0000
0000
0000
0000
0000
0000
0000
0000
0000
0000
0000
0000
0000
0000
0000
0000
0000
0000
0000
0000
0000
0000
0000
0000
0000
0000
0000
0000
1000
0000
0000
0000
0000
0000
0000
0000
0000
0000
0000
0000
0000
0000
0000
0000
0000
0000
0000
0000
0000
0000
0000
0000
0000
0000
0000
0000
0000
0000
0000
0000
0000
0000
0000
,  // measure 386
0000
0000
0000
0000
0000
0000
0000
0000
0000
0000
0000
0000
0000
0101
0000
0000
0000
0000
0000
0000
0000
0000
0000
0000
0000
0000
0000
0000
0000
0000
0000
0000
0000
0000
0000
0000
0000
0000
0000
0000
0000
0000
0000
0000
0000
0000
0000
0000
0000
0000
0000
0000
0000
0000
0000
0000
0000
0000
0000
0000
0000
0010
0000
0000
0000
0000
0000
0000
0000
0000
0000
0000
0000
0000
0000
0000
0000
0000
0000
0000
0000
0000
0000
0000
0000
0000
0000
0000
0000
0000
0000
0000
0000
0000
0000
0000
0000
0000
0000
0000
0000
0000
0000
0000
0000
0000
0000
0000
0000
0000
0100
0000
0000
0000
0000
0000
0000
0000
0000
0000
0000
0000
0000
0000
0000
0000
0000
0000
0000
0000
0000
0000
0000
0000
0000
0000
0000
0000
0000
0000
0000
0000
0000
0000
0000
0000
0000
0000
0000
0000
0000
0000
0000
0000
0000
0000
0000
0000
1001
0000
0000
0000
0000
0000
0000
0000
0000
0000
0000
0000
0000
0000
0000
0000
0000
0000
0000
0000
0000
0000
0000
0000
0000
0000
0000
0000
0000
0000
0000
0000
0000
0000
,  // measure 387
0000
0000
0000
0000
0000
0000
0000
0000
0000
0000
0000
0000
0000
0000
0100
0000
0000
0000
0000
0000
0000
0000
0000
0000
0000
0000
0000
0000
0000
0000
0000
0000
0000
0000
0000
0000
0000
0000
0000
0000
0000
0000
0000
0000
0000
0000
0000
0000
0000
0000
0000
0000
0000
0000
0000
0000
0000
0000
0000
0000
0000
0000
0001
0000
0000
0000
0000
0000
0000
0000
0000
0000
0000
0000
0000
0000
0000
0000
0000
0000
0000
0000
0000
0000
0000
0000
0000
0000
0000
0000
0000
0000
0000
0000
0000
0000
0000
0000
0000
0000
0000
0000
0000
0000
0000
0000
0000
0000
0000
0000
1010
0000
0000
0000
0000
0000
0000
0000
0000
0000
0000
0000
0000
0000
0000
0000
0000
0000
0000
0000
0000
0000
0000
0000
0000
0000
0000
0000
0000
0000
0000
0000
0000
0000
0000
0000
0000
0000
0000
0000
0000
0000
0000
0000
0000
0000
0000
0000
0001
0000
0000
0000
0000
0000
0000
0000
0000
0000
0000
0000
0000
0000
0000
0000
0000
0000
0000
0000
0000
0000
0000
0000
0000
0000
0000
0000
0000
0000
0000
0000
0000
0000
,  // measure 388
0000
0000
0000
0000
0000
0000
0000
0000
0000
0000
0000
0000
0000
0000
1000
0000
0000
0000
0000
0000
0000
0000
0000
0000
0000
0000
0000
0000
0000
0000
0000
0000
0000
0000
0000
0000
0000
0000
0000
0000
0000
0000
0000
0000
0000
0000
0000
0000
0000
0000
0000
0000
0000
0000
0000
0000
0000
0000
0000
0000
0000
0000
0100
0000
0000
0000
0000
0000
0000
0000
0000
0000
0000
0000
0000
0000
0000
0000
0000
0000
0000
0000
0000
0000
0000
0000
0000
0000
0000
0000
0000
0000
0000
0000
0000
0000
0000
0000
0000
0000
0000
0000
0000
0000
0000
0000
0000
0000
0000
0000
0011
0000
0000
0000
0000
0000
0000
0000
0000
0000
0000
0000
0000
0000
0000
0000
0000
0000
0000
0000
0000
0000
0000
0000
0000
0000
0000
0000
0000
0000
0000
0000
0000
0000
0000
0000
0000
0000
0000
0000
0000
0000
0000
0000
0000
0000
0000
0000
1000
0000
0000
0000
0000
0000
0000
0000
0000
0000
0000
0000
0000
0000
0000
0000
0000
0000
0000
0000
0000
0000
0000
0000
0000
0000
0000
0000
0000
0000
0000
0000
0000
0000
,  // measure 389
0000
0000
0000
0000
0000
0010
0000
0000
0000
0000
0000
0000
0000
0000
0000
0000
0000
0000
0000
0000
0000
0101
0000
0000
0000
0000
0000
0000
0000
0000
0000
0000
0000
0000
0000
0000
0000
1000
0000
0000
0000
0000
0000
0000
0000
0000
0000
0000
0000
0000
0000
0000
0000
0001
0000
0000
0000
0000
0000
0000
0000
0000
0000
0000
,  // measure 390
0000
0000
0000
0000
0000
0110
0000
0000
0000
0000
0000
0000
0000
0000
0000
0000
0000
0000
0000
0000
0000
0001
0000
0000
0000
0000
0000
0000
0000
0000
0000
0000
0000
0000
0000
0000
0000
1000
0000
0000
0000
0000
0000
0000
0000
0000
0000
0000
0000
0000
0000
0000
0000
0010
0000
0000
0000
0000
0000
0000
0000
0100
0000
0000
,  // measure 391
0000
0000
0000
0000
0000
0000
0000
0000
0000
0000
0000
0000
0000
0000
0000
0001
0000
0000
0000
0000
0000
0000
0000
0000
0000
0000
0000
0000
0000
0000
0000
0000
0000
0000
0000
0000
0000
0000
0000
1000
0000
0000
0000
0000
0000
0000
0000
0000
0000
0000
0000
0000
0000
0000
0000
0000
0000
0000
0000
0000
0000
0000
0000
0100
0000
0000
0000
0000
0000
0000
0000
0000
0000
0000
0000
0000
0000
0000
0000
0000
0000
0000
0000
0000
0000
0000
0000
0010
0000
0000
0000
0000
0000
0000
0000
0000
0000
0000
0000
0000
0000
0000
0000
0000
0000
0000
0000
0000
0000
0000
0000
0001
0000
0000
0000
0000
0000
0000
0000
0000
0000
0000
0000
0000
0000
0000
0000
0000
0000
0000
0000
0000
0000
0000
0000
1000
0000
0000
0000
0000
0000
0000
0000
0000
0000
0000
0000
0000
0000
0000
0000
0000
0000
0000
0000
0000
0000
0000
0000
0000
0010
0000
0000
0000
0000
0000
0000
0000
0000
0000
0000
0000
0010
0000
0000
0000
0000
0000
0000
0000
0000
0000
0000
0000
1000
0000
0000
0000
0000
0000
0000
0000
,  // measure 392
0000
0001
0000
0000
0001
0000
0000
1000
0000
0000
0100
0000
0000
0100
0000
0000
0010
0000
0000
0001
0000
0000
1000
0000
0000
1000
0000
0000
0010
0000
0000
0100
0000
0000
0100
0000
0000
0010
0000
0000
1000
0000
0000
0000
0000
0000
0000
0000
,  // measure 393
0000
0000
0001
0000
0000
0100
0000
0000
0001
0000
0000
1000
0000
0000
0010
0000
0000
0100
0000
0000
0000
0000
0000
0001
,  // measure 394
0000
0000
0000
0000
0000
0000
0000
0000
0000
0000
0000
0000
0000
0000
0000
0000
1000
0000
0000
0000
0000
0000
0000
0000
0000
0000
0000
0000
0000
0000
0000
0000
0000
0000
0000
0000
0000
0000
0000
0000
0100
0000
0000
0000
0000
0000
0000
0000
0000
0000
0000
0000
0000
0000
0000
0000
0000
0000
0000
0000
0000
0000
0000
0000
1000
0000
0000
0000
0000
0000
0000
0000
0000
0000
0000
0000
0000
0000
0000
0000
0000
0000
0000
0000
0000
0000
0000
0000
0000
0001
0000
0000
0000
0000
0000
0000
0000
0000
0000
0000
0000
0000
0000
0000
0000
0000
0000
0000
0000
0000
0000
0000
0000
0100
0000
0000
0000
0000
0000
0000
0000
0000
0000
0000
0000
0000
0000
0000
0000
0000
0000
0000
0000
0000
0000
0000
0000
0000
0000
0000
0000
0000
0000
0000
0000
0000
0000
0000
0000
0000
0000
0000
0000
0000
0000
0000
0000
0000
0000
0000
0000
0010
0000
0000
0000
0000
0000
0000
0000
0000
0000
0000
0000
0000
0000
0000
0000
0000
0000
0000
0000
0000
0000
0000
0000
1000
0000
0000
0000
0000
0000
0000
,  // measure 395
0000
0000
0000
0000
0000
0000
0000
0000
0000
0000
0000
0000
0000
0000
0000
0000
0000
0010
0000
0000
0000
0000
0000
0000
0000
0000
0000
0000
0000
0000
0000
0000
0000
0000
0000
0000
0000
0000
0000
0000
0000
1000
0000
0000
0000
0000
0000
0000
0000
0000
0000
0000
0000
0000
0000
0000
0000
0000
0000
0000
0000
0000
0000
0000
0000
0020
0000
0000
0000
0000
0000
0000
0000
0000
0000
0000
0000
0000
0000
0000
0000
0000
0000
0000
0000
0000
0000
0000
0000
0000
0000
0000
0000
0000
0000
0000
0000
0000
0000
0000
0000
0000
0000
0000
0000
0000
0000
0000
0000
0000
0000
0000
0000
0030
0000
0000
0000
0000
0000
0000
0000
0000
0000
0000
0000
0000
0000
0000
0000
0000
0000
0000
0000
0000
0000
0000
0000
0000
0000
0000
0000
0000
0000
0000
0000
0000
0000
0000
0000
0000
0000
0000
0000
0000
0000
0000
0000
0000
0000
0000
0000
0100
0000
0000
0000
0000
0000
0000
0000
0000
0000
0000
0000
0000
0000
0000
0000
0000
0000
0000
0000
0000
0000
0000
0000
0010
0000
0000
0000
0000
0000
0000
,  // measure 396
0000
0000
0000
0000
0000
0000
0000
0000
0000
0000
0000
0000
0000
0000
0000
0000
0000
0200
0000
0000
0000
0000
0000
0000
0000
0000
0000
0000
0000
0000
0000
0000
0000
0000
0000
0000
0000
0000
0000
0000
0000
0000
0000
0000
0000
0000
0000
0000
0000
0000
0000
0000
0000
0000
0000
0000
0000
0000
0000
0000
0000
0000
0000
0000
0000
0300
0000
0000
0000
0000
0000
0000
0000
0000
0000
0000
0000
0000
0000
0000
0000
0000
0000
0000
0000
0000
0000
0000
0000
0000
0000
0000
0000
0000
0000
0000
0000
0000
0000
0000
0000
0000
0000
0000
0000
0000
0000
0000
0000
0000
0000
0000
0000
0001
0000
0000
0000
0000
0000
0000
0000
0000
0000
0000
0000
0000
0000
0000
0000
0000
0000
0000
0000
0000
0000
0000
0000
0100
0000
0000
0000
0000
0000
0000
0000
0000
0000
0000
0000
0000
0000
0000
0000
0000
0000
0000
0000
0000
0000
0000
0000
0002
0000
0000
0000
0000
0000
0000
0000
0000
0000
0000
0000
0000
0000
0000
0000
0000
0000
0000
0000
0000
0000
0000
0000
0000
0000
0000
0000
0000
0000
0000
,  // measure 397
0000
0000
0000
0003
0000
0000
0000
0000
0000
0000
0000
0010
0000
0000
0000
0001
0000
0000
0000
1000
0000
0000
0000
0010
0000
0000
0000
0100
0000
0000
0000
0001
,  // measure 398
0000
0000
0000
1000
0000
0000
0000
0100
0000
0000
0000
0010
0000
0000
0000
0100
0000
0000
0000
1000
0000
0000
0000
0010
0000
0000
0000
0200
0000
0000
0000
0000
,  // measure 399
0000
0000
0000
0000
0000
0000
0000
0000
0000
0000
0000
0000
0000
0000
0000
0000
0000
0000
0000
0000
0000
0000
0000
0000
0000
0000
0000
0000
0000
0000
0000
0000
0000
0000
0000
0000
0000
0000
0000
0000
0000
0000
0000
0000
0000
0000
0000
0000
0000
0000
0000
0000
0000
0000
0000
0000
0000
0000
0000
0000
0000
0000
0000
0000
0000
0000
0000
0000
0000
0000
0000
0000
0000
0000
0000
0000
0000
0000
0000
0000
0000
0000
0000
0000
0000
0000
0000
0000
0000
0000
0000
0000
0000
0000
0000
0000
0000
0000
0000
0000
0000
0000
0000
0000
0000
0000
0000
0000
0000
0000
0000
0000
0000
0000
0000
0000
0000
0000
0000
0000
0000
0000
0000
0000
0000
0000
0000
0000
0000
0000
0000
0000
0000
0000
0000
0000
0000
0000
0300
0000
0000
0000
0000
0000
0000
0000
0000
0000
0000
0000
0000
0000
0000
0000
0000
0000
0000
0000
0000
0000
0000
0000
0000
0001
0000
0000
0000
0000
0000
0000
0000
0000
0000
0000
0000
0000
0000
0000
0000
0000
0000
0000
0000
0000
0000
0000
0000
0010
0000
0000
0000
0000
,  // measure 400
0000
0000
0000
0000
0000
0000
0000
0000
0000
0000
0000
0000
0000
0000
0000
0000
0000
0000
0000
0100
0000
0000
0000
0000
0000
0000
0000
0000
0000
0000
0000
0000
0000
0000
0000
0000
0000
0000
0000
0000
0000
0000
0000
1000
0000
0000
0000
0000
0000
0000
0000
0000
0000
0000
0000
0000
0000
0000
0000
0000
0000
0000
0000
0000
0000
0000
0000
0010
0000
0000
0000
0000
0000
0000
0000
0000
0000
0000
0000
0000
0000
0000
0000
0000
0000
0000
0000
0000
0000
0000
0000
0100
0000
0000
0000
0000
0000
0000
0000
0000
0000
0000
0000
0000
0000
0000
0000
0000
0000
0000
0000
0000
0000
0000
0000
0001
0000
0000
0000
0000
0000
0000
0000
0000
0000
0000
0000
0000
0000
0000
0000
0000
0000
0000
0000
0000
0000
0000
0000
0000
0000
0000
0000
0000
0000
0000
0000
0000
0000
0000
0000
0000
0000
0000
0000
0000
0000
0000
0000
0000
0000
0000
0000
0000
0000
0000
0000
0000
0000
0000
0000
0000
0000
0000
0000
0000
0000
0000
0000
0000
0000
0000
0000
0000
0000
0000
0000
0000
0000
0000
0000
0000
;

//---------------dance-single - ----------------
#NOTES:
     dance-single:
     :
     Challenge:
     10:
     0.845,1.000,0.373,0.195,0.523:
0000
0000
0000
0000
,
0000
0000
0000
0000
,
0000
0000
0000
0000
,
0000
0000
0000
0000
,
0000
0000
0000
0000
,
1000
0010
0000
0010
0100
0000
0100
0001
0000
0001
0010
0000
1100
0000
0000
0000
,
0001
0010
0000
0010
0100
0000
0100
1000
0000
1000
0010
0000
0101
0000
1000
0000
,
0100
1000
0000
1000
0100
0000
0010
0001
0000
0001
0100
0000
0001
1000
0001
0000
,
0010
0100
0001
0100
1000
0001
0100
0010
,
1000
0001
0000
0010
0100
0000
1000
0010
0000
1000
0100
0000
0011
0000
0000
0000
,
0100
0001
0000
0010
0001
0000
1000
0100
0000
1000
0010
0000
0110
0000
1001
0000
,
0100
1000
0000
0001
0100
0000
0010
0100
0000
0001
0010
0000
1100
0000
0000
0000
,
1000
0000
0010
0000
1000
0000
0100
0000
0010
0001
0010
0000
0001
1000
0001
0000
,
1010
0000
0000
0000
0101
0000
0000
0000
0010
0000
0100
1000
0000
1000
0010
0000
,
0100
0010
1000
0100
0010
0100
1000
0010
,
0101
0000
0000
0000
0110
0000
0000
0000
0010
0000
0100
0001
0000
0001
1000
0000
,
0100
0000
0010
0000
0001
0000
0100
0000
1000
0100
0000
0001
0000
0010
0100
0000
,
1100
0000
0000
0000
0101
0000
0000
0000
0010
0000
0100
0001
0000
0010
0001
0000
,
1100
0000
0000
0000
0101
0000
0000
0000
1000
0000
0001
0100
0000
0100
0001
0000
,
0010
0000
0100
0000
1000
0000
0001
1000
0000
1000
0001
0000
0100
0000
0010
0000
,
0100
0001
0010
0100
0001
0100
1000
0010
,
0001
1000
0100
0001
1000
0100
0010
0001
,
0100
0000
0001
0010
0001
0000
1000
0010
1000
0000
0001
0100
0001
0000
1000
0002
,
2000
0000
0000
3003
,
0010
0100
1000
0001
0100
0001
0010
0100
,
1000
0010
0100
0001
1000
0100
0001
0100
,
1000
0010
0101
0000
0001
0010
1100
0000
,
1000
1000
0001
0100
0010
0100
0001
0010
,
0100
0100
0001
0100
1000
0010
1000
0100
,
0010
0010
0001
1000
0010
0100
0001
0010
,
0001
1000
0100
1000
1000
0001
0100
0001
,
0010
0100
1000
0010
0010
0100
0001
1000
,
0200
1000
1000
1000
1000
1000
1300
0001
,
0200
0001
0001
0001
0001
0001
0301
0000
,
0010
1000
0000
1000
0010
0000
0100
0010
0000
0010
0100
0000
1001
0000
0000
0000
,
0001
0010
0000
0010
0001
0000
1000
0010
0000
0010
1000
0000
0101
0000
1000
0000
,
0001
1000
0000
1000
0001
0000
0010
0001
0000
0001
0010
0000
0100
1000
0100
0000
,
0010
0001
0100
0001
1000
0100
0010
0100
,
1000
0010
0000
0100
0001
0000
1000
0100
0000
1000
0010
0000
0101
0000
0000
0000
,
0001
0010
0000
0100
1000
0000
0001
0100
0000
0010
1000
0000
0110
0000
1001
0000
,
0100
0010
0000
1000
0100
0000
0010
0100
0000
1000
0001
0000
0110
0000
0000
0000
,
0001
0000
0010
0000
0100
0000
1000
0000
0001
1000
0001
0000
0010
0100
0010
0000
,
0001
0100
0002
0000
1003
0100
2000
0000
,
3010
0100
0020
0000
1030
0001
2000
0000
,
3001
0010
0002
0000
0103
0010
0200
0000
,
0310
1000
0020
0000
1030
0001
0010
0100
,
1000
0100
1000
0100
0001
0100
0001
0100
,
0010
0100
0001
0100
1000
0100
0010
0001
,
1000
0010
1000
0010
0001
0010
0001
0010
,
0100
0010
0001
0010
1000
0010
0100
0001
,
0010
0100
1000
0010
0100
0010
1000
0100
,
0001
0000
0100
0000
1000
0000
0001
0000
0100
0000
0010
0000
1000
0000
0001
1000
,
0100
0000
0010
0000
0001
0000
0100
0000
0010
0000
0001
0000
0010
0000
1000
0001
,
0010
0000
0100
0000
1000
0000
0001
0000
1000
0000
0010
0000
0100
0000
0001
0010
,
0100
1000
1001
0000
1000
0010
0101
0000
,
0010
0000
0100
0000
0001
0000
1000
0000
0100
0000
0010
0000
0100
0000
1000
0001
,
0100
0000
0010
0000
1000
0000
0001
0000
0010
0000
0100
0000
1000
0000
0010
1000
,
0001
0000
0100
0000
0010
0000
0010
0000
0100
0000
0001
0000
0010
0000
0100
1000
,
0001
0000
0010
0000
0001
0000
0100
0000
0001
0000
1000
0000
0100
0000
0010
0001
,
0100
0010
1001
0000
0001
0010
1100
0000
,
1000
0001
0110
0000
0010
1000
0101
0000
,
2010
0010
3010
0010
0102
0100
0103
0100
,
0001
1000
0100
1000
0001
0000
0010
0001
0000
1000
0010
0000
0100
0000
0001
0000
,
0010
0001
1000
0001
0010
0000
0100
1000
0000
0001
0100
0000
0001
0000
0010
0000
,
0100
1000
0001
1000
0100
0000
0010
0001
0000
0100
0010
0000
0100
0000
0001
0000
,
1000
0001
0010
0001
1000
0000
0010
1000
0000
0001
0010
0000
0100
0000
1000
0000
,
0001
1000
0001
1000
0001
0000
1000
0010
0000
0100
0001
0000
0110
0000
2002
0000
,
0000
0000
0000
3003
,
0010
0100
0001
1000
0100
0010
0001
0100
,
1001
0000
0000
0000
1010
0000
0000
0000
1001
0000
0000
0000
0011
0000
0000
0010
,
0001
0000
0000
0001
1000
0000
1020
0000
0000
0000
0100
0000
0100
0000
0130
0000
,
0010
0000
0000
0000
0101
0000
0000
0000
1001
0000
0000
0000
1100
0000
0000
0100
,
1000
0000
0000
1000
0001
0000
0201
0000
0000
0000
0010
0000
0010
0000
0310
0000
,
0100
0000
1010
0000
1001
0000
0010
0100
,
0100
0000
0010
1000
0000
0100
0010
0001
,
1000
0010
0000
0000
0010
0100
0000
0000
0100
0001
0000
0000
1001
0000
1010
0000
,
0000
1001
0000
1100
0000
0010
0001
0010
,
0100
1000
1100
0000
1001
0000
0101
0000
,
0010
1000
0001
0100
0000
0010
1000
1000
,
0100
0100
0011
0000
1001
0000
1100
0010
,
0001
0000
0100
0010
0000
1000
0001
0100
,
0010
1000
0000
0000
1000
0010
0000
0000
0101
0000
0000
0000
1000
0000
0100
0000
,
0000
0000
0010
0000
0001
0000
0000
0000
1000
0100
1000
0000
0001
0000
1000
0000
,
0100
0000
0010
0000
0011
0000
0000
0000
1001
0000
0010
0000
1010
0000
0000
0010
,
1000
0000
0000
1000
0001
0000
0021
0000
0000
0000
0100
0000
0100
0000
0130
0000
,
0010
0000
0100
0000
1100
0000
0000
0000
1001
0000
0100
0000
0101
0000
0000
0100
,
0001
0000
0000
0001
1000
0000
1200
0000
0000
0000
0010
0000
0010
0000
0310
0000
,
0100
0010
0011
0000
1001
0010
0100
0001
,
0001
0000
1000
0010
0000
0100
0100
0100
,
0010
1000
0000
0000
1000
0001
0000
0000
0001
0010
0000
0000
0110
0000
1100
0000
,
0000
1001
0000
0101
0000
0010
1000
0010
,
0100
0001
0101
1000
1001
0100
1100
0000
,
0010
0001
1000
0100
0000
0010
0001
0001
,
0100
0100
1010
1000
1001
0001
0101
0010
,
1000
0100
0001
0100
1000
0010
1000
0100
,
0010
0001
0000
0000
0001
0010
0000
0000
0010
0100
0000
0000
1100
0000
0010
0000
,
0001
0100
1000
0100
0001
0010
0001
0100
,
0010
1000
0000
0000
1000
0010
0000
0000
0010
0100
0000
0000
0101
0000
1010
0000
,
0000
0000
1000
0000
0100
0000
0010
0000
0001
0100
0001
0000
1001
0000
0000
0000
,
1000
0000
0100
0000
1000
0000
0010
0000
0100
0001
0100
0000
0001
0000
0010
0000
,
0001
0100
1000
0100
0001
0010
0001
0100
,
0010
1000
0100
1000
0010
0001
0010
1000
,
0100
0010
0000
0000
0010
0001
0000
0000
0001
1000
0000
0000
1000
0010
0000
0000
,
0100
0000
0001
0000
0010
0000
0001
0000
0100
0010
0100
0000
0001
0000
1000
0000
,
0100
0010
0001
0100
0010
1000
0100
0001
,
0100
1000
0010
0100
0001
0010
0100
1000
,
2100
0000
3001
0012
0000
1003
1001
0000
,
0001
0100
1000
0100
0001
0010
0100
1000
,
0010
0100
0001
0100
1000
0100
0001
0010
,
0100
1000
0000
0000
1000
0001
0000
0000
0001
0100
0000
0000
0100
0010
0000
0000
,
0010
0001
0000
0000
0001
0010
0000
0000
0010
1000
0000
0000
1000
0001
0000
0000
,
0001
0100
1000
0010
1000
0100
0010
1000
,
1000
0100
0001
0010
0001
0100
0010
0001
,
0001
0100
0000
0000
0100
1000
0000
0000
1000
0100
0000
0000
0100
0001
0000
0000
,
0001
0000
0100
0000
0010
0000
0000
1000
0100
0000
0000
0001
0010
0000
0110
0000
,
1000
0010
0001
0100
0001
0010
0100
0001
,
0001
0010
1000
0100
1000
0010
0100
1000
,
1000
0010
0000
0000
0010
0001
0000
0000
0001
0010
0000
0000
0010
1000
0000
0000
,
1000
0100
0000
0100
0010
0000
0002
0000
1000
0000
1000
0000
1003
0000
0000
0000
,
0001
0100
0000
0100
0010
0000
2000
0000
0001
0000
0001
0000
3001
0000
0000
0000
,
1000
0100
0000
0100
0010
0000
0010
0001
0000
0001
0100
0000
0010
0000
0010
0000
,
2200
0000
3300
0002
,
1003
0100
0020
0000
0002
0030
0003
1000
,
0100
0010
0001
0200
0000
0000
0320
0000
,
1030
0100
0010
0001
0000
0001
0000
0010
,
0100
1000
0010
0100
0000
0001
2000
0000
,
3001
0000
0100
0000
0000
0000
0001
1000
0000
0001
1000
0000
0001
0000
0010
0000
,
0001
0100
0001
2000
0000
0000
3010
0000
,
0100
0001
1000
1100
0000
0101
0000
1000
,
0010
0010
1000
0020
0000
0000
0130
0000
,
0001
0100
0010
0000
1000
0100
1000
0001
,
0010
0100
1000
0020
0000
0000
0130
0000
,
0001
0100
0010
1000
0000
1000
0000
0010
,
0100
0001
1000
0100
0000
0010
0001
0000
,
1000
0000
0100
0000
0000
0000
1000
0001
0000
1000
0001
0000
1000
0000
0010
0000
,
0100
0001
0010
0200
0000
0000
1300
0000
,
0100
1000
0010
0101
0000
1010
0000
1000
,
0001
0001
1000
0001
0000
0000
0010
0000
,
0001
0100
0010
0000
1000
1000
0000
0001
,
0010
0000
0002
0000
0000
0000
1000
0000
0000
1000
0000
0000
1003
0000
1000
0000
,
0010
0000
2000
0000
0000
0000
0001
0000
0000
0001
0000
0000
3001
0000
0001
0000
,
0100
0000
0010
0000
0000
0000
1000
0000
0000
0010
0000
0000
0100
0000
0010
0000
,
0010
0000
0010
0000
0000
0000
1000
0001
0000
1000
0001
0000
1000
0000
0001
0000
,
0001
0000
0001
0000
0000
0000
1000
0000
0000
1000
0000
0000
1000
0000
0010
0000
,
0010
0000
0010
0000
0000
0000
0100
0000
0000
0100
0000
0000
0100
0000
0010
0000
,
1000
0000
0100
0000
0000
0000
0010
0000
0000
0001
0000
0000
0100
0000
0001
1000
,
0000
0000
1000
0100
0000
0000
0100
0010
0000
0000
0010
0001
0000
0000
0010
0000
,
0001
0100
0010
2000
0000
3001
0100
0000
,
0001
0001
1000
0002
0000
0003
0000
0010
,
0100
1000
0001
0100
0000
0010
1000
0000
,
0000
0000
0001
0000
0000
0000
1000
0100
0000
0100
1000
0000
0001
0000
0100
0000
,
0001
1000
0010
0200
0000
0301
1000
0000
,
0001
0001
1000
0002
0000
0003
0000
0100
,
0001
0000
0010
0000
0100
0000
2000
0000
0000
0000
3001
0000
0100
0000
0001
1000
,
0000
1000
0001
0000
0100
0000
0001
1000
0000
1000
0001
0000
0010
0000
0002
0000
,
0000
0103
0000
1200
0000
0000
1300
0000
,
1000
1100
0000
0202
0000
0303
0000
2000
,
0000
3100
0000
1000
0010
1000
0100
0020
,
0001
0030
0000
1000
0100
1000
0000
0002
,
0000
0103
0000
1200
0000
0000
1300
0000
,
1000
1100
0000
0101
0000
0100
0010
1000
,
0100
1000
0000
0002
0000
0103
0000
0010
,
1000
0010
1000
0001
0100
0001
0000
0010
,
1000
0100
0010
0011
0000
0000
0010
0000
,
0001
0100
0010
1010
0000
0101
0000
0010
,
1000
0100
0010
0001
0000
1000
0100
0000
,
0010
0000
0001
0000
0000
0000
0001
1000
0000
1000
0001
0000
1000
0000
0010
0000
,
0100
0001
1000
2002
0000
3003
0010
0000
,
1000
0001
1000
0101
0000
1010
0000
0100
,
0001
0001
0100
0001
0000
0000
0010
0001
,
0100
0000
0001
0000
0000
0000
1000
0100
0000
0100
1000
0000
0001
0000
0010
0000
,
1000
0010
0100
0101
0000
0000
1000
0000
,
0100
0010
0001
1100
0000
0011
0000
0010
,
0100
0100
0010
0100
0000
0001
1000
0000
,
0001
1000
0000
0010
0010
0010
0010
1000
,
0100
0010
0001
1001
0000
0010
0000
0000
,
0100
0010
0001
1100
0000
0011
0000
1000
,
0001
0001
1000
0001
0000
0000
1100
0000
,
0011
0011
1100
0000
0101
0000
1100
0000
,
0001
0010
0001
0010
0001
0100
0010
0000
,
1000
0010
1000
0010
1000
0100
0010
0000
,
0100
1000
0100
0000
0010
0001
0010
0000
,
1000
0010
0100
0010
1000
0001
0100
0000
,
0001
0010
0100
1000
0100
1000
0001
0000
,
1000
0010
0100
0001
0100
0001
1000
0000
,
0001
0100
0001
0000
1000
0010
1000
0000
,
0010
0100
0010
1000
0001
1000
0100
0000
,
1100
0100
1000
0010
0100
0010
1000
0001
,
0010
0001
0000
0000
0100
1000
0010
0000
,
0100
1000
0001
0010
0001
0100
1000
0100
,
0010
1000
0000
0000
0010
0001
0100
0000
,
1000
0010
0100
0001
0010
0001
0100
0001
,
1000
0010
0000
0000
0100
1000
0001
0000
,
0010
1000
0100
0000
0010
0001
0100
0000
,
1000
0000
0001
0000
0001
0010
0100
0000
,
1001
0100
0001
0100
0010
0100
0001
1000
,
0010
0100
1000
0000
0010
0001
0100
0000
,
0100
0001
0010
0001
1000
0100
0010
0001
,
1000
0100
0000
0000
0010
1000
0100
0000
,
1000
0100
0010
1000
0010
0001
0010
0001
,
0100
0010
1000
0000
0001
0000
1000
0000
,
1010
1000
0100
0000
0011
0001
0100
0000
,
0010
1000
0100
0010
0001
0100
0010
0100
,
0002
0000
0010
0000
0103
0010
0100
0000
,
0010
1000
0010
0000
1000
0100
1000
0000
,
0200
0000
0001
0000
0310
0001
0010
0000
,
1000
0010
1000
0000
1000
0010
0100
0000
,
0101
0100
0001
0000
0010
0100
0010
0000
,
0100
1000
0100
0000
0001
1000
0010
0000
,
2000
0000
0100
0000
3001
0010
0001
0000
,
1000
0010
1000
0000
0010
0001
0100
0000
,
1001
0100
0000
0110
0000
1010
0000
1100
,
0000
2002
0000
0000
0000
0000
0000
3003
,
0001
1000
0000
0110
0000
0011
0000
0101
,
0000
2002
0000
0000
0000
0000
0000
3003
,
1001
0100
0000
0010
0000
0200
0000
0300
,
1001
0001
0000
0010
0000
0022
0000
0033
,
1001
0100
0000
0001
0100
1000
0000
0020
,
0000
0000
0000
0000
0000
0000
0000
0030
,
0010
0100
0001
0100
0010
0100
0001
0100
,
1000
0010
0100
0000
1000
0100
0001
0000
,
0010
0100
1000
0010
0100
0001
1000
0010
,
0100
0001
0010
0000
0010
0001
1000
0000
,
0101
0100
0001
0100
0001
0010
0001
0010
,
1000
0010
1000
0000
1000
0001
0100
0000
,
1001
0100
0001
0000
1001
0100
1000
0000
,
0011
0000
0000
0000
0000
0000
0000
0000
0000
0000
0000
0000
0000
0000
0000
0000
1001
0000
0000
0000
0000
0000
0000
0000
0000
0000
0000
0000
0000
0000
0000
0000
2200
0300
0000
0000
0000
0000
0000
0000
0000
0000
0000
0000
0000
0000
0000
0000
3010
0000
0000
0000
0000
0000
0000
0000
1000
0000
0000
0000
0000
0000
0000
0000
,
0100
0010
0001
1000
0100
1000
0001
0010
,
1000
0000
1000
0010
0001
0000
0101
0001
,
0010
0000
1100
1000
0010
0000
1010
1000
,
0001
0100
0001
0000
0100
1000
0001
1000
,
0100
0010
0001
0010
0100
1000
0001
0100
,
0010
0100
0001
1000
0100
0001
1000
0001
,
0100
1000
0001
1000
0100
0000
0110
0000
,
1100
0000
0011
0000
0010
1000
0100
0001
,
0100
1000
0010
0001
0010
1000
0100
0001
,
0100
1000
0010
0000
0110
0000
0010
1000
,
0100
0000
1001
0000
0110
0000
0010
0001
,
0100
0000
1001
0000
0001
0100
1000
0100
,
0001
0010
0001
0100
1000
0100
0001
0010
,
0001
0100
1000
0000
0101
0000
0010
1000
,
0100
1000
0001
0000
1100
0000
0010
0001
,
0100
0001
1000
0000
1000
0010
0100
0010
,
1000
0100
0001
0100
1000
0010
0100
0001
,
0010
0100
1000
0000
1001
0000
0100
0010
,
0100
1000
0001
0000
1001
0000
0100
0010
,
0100
0001
1000
0000
0110
0000
0001
1000
,
0100
0000
0010
0001
0100
0000
0010
1000
,
0100
0010
0001
0000
1100
0000
0010
0100
,
0001
0000
0100
1000
0010
0000
0100
0001
,
1000
0100
0010
0001
1001
0000
1000
0010
,
0100
0000
1000
0100
0001
0010
0001
0100
,
1000
0100
0001
0010
0110
0000
1000
0010
,
0001
0010
1000
0100
0001
0100
1000
0010
,
0001
0010
1000
0000
0220
0000
0330
0001
,
2000
0000
3000
0100
0020
0000
0030
0001
,
0200
0000
0310
0000
2002
0000
3003
0010
,
0200
0000
0300
1000
0200
0000
0300
0001
,
0200
0000
0310
0000
0022
0000
0033
1000
,
0020
0000
0030
0010
0200
0000
0300
0001
,
2000
0000
3100
0000
0202
0000
0303
0001
,
0020
0030
1001
0110
,
0001
0010
0100
0000
0100
1000
0010
0001
,
0010
1000
0100
0010
0100
1000
0001
0100
,
0010
0100
0001
0000
0001
0010
0100
1000
,
0010
0001
0010
1000
0100
0010
0001
0100
,
1000
0100
0001
0000
1000
0100
1000
0010
,
0100
0001
0010
0100
1000
0001
0100
1000
,
0100
0010
1000
0000
0001
1000
0010
0100
,
0001
0010
0100
1000
0001
0100
1000
0100
,
1000
0100
0001
0010
0001
0010
1000
0010
,
1000
0010
0001
0100
0010
1000
0010
0100
,
0010
1000
0010
0100
0010
1000
0010
0100
,
0010
1000
0010
0100
0001
1000
0001
1000
,
0001
1000
0001
1000
0010
0100
0010
0100
,
0010
0110
0001
1000
,
0100
0010
0001
0000
0100
0000
0010
0000
,
0100
1000
0100
0001
0010
0100
1000
0010
,
0001
0010
1000
0100
,
2000
3000
0020
0030
,
0100
0001
0010
1000
0010
0001
0100
1000
,
0100
0110
2002
3003
,
0100
0202
0303
0010
,
2200
3300
0010
0100
,
0010
0000
0100
0000
1001
0000
0010
1000
,
0100
0000
0010
1000
0100
0000
0001
0010
,
0100
1000
0010
0000
1001
0000
0010
0100
,
0001
0000
0010
0100
0001
0000
0001
0010
,
1000
0010
0001
0000
0110
0000
0001
0100
,
1000
0100
0010
1000
0001
0010
0100
1000
,
0010
0001
0010
0000
1001
0000
0100
0010
,
0100
1000
0010
0001
0010
1000
0001
0010
,
0100
1000
0010
0000
0100
0001
0010
0100
,
1000
0001
0100
0001
0010
0100
0001
0100
,
1000
0010
1000
0100
0001
0100
1000
0010
,
0001
0010
1000
0100
1000
0010
0001
0010
,
1000
0100
0001
0100
1000
0010
0001
0010
,
1000
0100
0010
1000
0010
0001
0100
1000
,
0100
0001
0010
1000
0010
0001
0100
0010
,
0001
0010
1000
0100
0001
0100
1000
0001
,
0010
1000
0010
0001
1000
0000
0010
0000
,
0100
0001
0100
0010
,
1000
0100
0010
0001
,
1000
0010
1000
0001
,
0100
0010
0100
1000
,
0100
0001
1000
0010
,
1000
0100
0010
0100
,
1000
0001
0010
0100
,
0001
0100
1000
0010
,
0100
0001
1000
0100
,
1000
0010
0100
0001
,
0100
1000
0100
0010
,
1000
0001
0010
0100
,
1000
0100
0001
0100
,
0010
0001
0100
0010
,
1000
0100
1000
0001
,
0100
0010
0100
1001
,
0010
0000
1000
0100
1000
0000
0001
0000
,
1000
0010
1000
0000
0100
0000
0010
0001
,
0010
0000
0100
0000
1000
0001
1000
0000
,
0010
0100
0010
0100
0001
0100
0001
0100
,
0010
0000
1000
0000
0001
0100
0001
0000
,
0010
0000
0100
1000
0100
0000
1000
0000
,
0001
0010
0001
0010
0100
1000
0100
1000
,
0001
0000
0000
0010
0000
0001
0010
0001
,
0000
1000
0000
0100
0010
0100
0000
1000
,
0000
0010
1000
0010
0000
0100
0000
0001
,
1000
0001
0000
0010
0100
0010
0100
1000
,
0100
1000
0100
0010
0001
0010
0000
0100
,
0000
0010
0100
0010
0000
0001
0000
1000
,
0010
1000
0010
0100
0001
0100
0001
1000
,
0001
0000
1000
0000
0010
0000
0100
0000
0010
0000
1000
0000
0001
0100
0010
0000
,
1000
0000
0000
0100
0000
0000
0010
0000
0000
0000
0000
0000
0001
0000
0000
0000
0000
0000
0100
0000
0000
0000
0000
0000
0001
0000
0000
0000
0000
0000
0001
0000
0000
0000
0010
0000
0000
0000
1000
0000
0000
0000
0010
0000
0000
0000
0001
0000
,
0000
0100
0000
1000
0000
0000
0100
0000
0000
0010
0000
0000
0100
0000
0000
0001
0000
0010
0000
0100
0000
1001
0000
0000
,
0000
0000
0000
0000
0000
0000
0000
0000
0000
0000
0000
0000
0000
0000
0000
0000
0000
0000
0000
0000
0000
0000
0000
0000
0100
0000
0000
0000
0000
0000
0000
0000
0000
0000
0000
0000
0000
0000
0000
0000
0001
0000
0000
0000
0000
0000
0000
0000
0000
0000
0000
0000
0000
0000
0000
0000
0010
0000
0000
0000
0000
0000
0000
0000
0000
0000
0000
0000
0000
0000
0000
0000
0001
0000
0000
0000
0000
0000
0000
0000
0000
0000
0000
0000
0000
0000
0000
0000
0100
0000
0000
0000
0000
0000
0000
0000
0000
0000
0000
0000
0000
0000
0000
0000
0001
0000
0000
0000
0000
0000
0000
0000
0000
0000
0000
0000
0000
0000
0000
0000
1000
0000
0000
0000
0000
0000
0000
0000
0000
0000
0000
0000
0010
0000
0000
0000
0000
0000
0000
0000
0000
0000
0000
0000
1000
0000
0000
0000
0000
0000
0000
0000
0000
0000
0000
0000
0100
0000
0000
0000
0000
0000
0000
0000
0000
0000
0000
0000
0010
0000
0000
0000
0000
0000
0001
0000
0000
0000
0000
0000
0010
0000
0000
0000
0000
0000
0001
0000
0000
0000
0000
0000
,
1000
0001
1000
0001
0010
0000
0100
0000
0000
0000
0000
0000
0100
0000
1000
0000
0000
0000
0000
0000
1000
0000
0010
0000
0000
0000
0000
0000
0010
0000
0100
0000
,
0000
0000
0100
0001
0000
0000
0001
0010
0000
0000
0010
1000
0000
0000
1000
0000
,
0001
0000
0100
1000
0000
0000
1000
0001
0000
0000
0001
0010
0000
0000
0010
0100
,
0000
0000
0100
1000
0000
0000
1000
0010
0000
0000
0010
0100
0000
0000
0100
0000
,
1000
0000
0100
0001
0000
0000
0001
1000
0000
0000
1000
0100
0000
0000
0100
0010
,
0000
0000
0010
0100
0000
0000
0100
1000
0000
0000
1000
0010
0000
0000
0010
0000
,
0100
0000
0001
0010
0000
0000
0010
0001
0000
0000
0001
0100
0000
0000
0100
1000
,
0000
0000
1000
0100
0000
0000
0100
0001
0000
0000
0001
0010
0000
0000
0010
0000
,
0100
0000
1000
0100
0000
0000
0100
0010
0000
0000
0010
0001
0000
0000
0001
0100
,
0000
0000
0100
0010
0000
0000
0010
1000
0000
0000
1000
0100
0000
0000
0100
0000
,
0001
0000
0100
1000
0000
0000
1000
0010
0000
0000
0010
0100
0000
0000
0100
0001
,
0000
0000
0001
0010
0000
0000
0010
0001
0000
0000
0001
0000
0100
0000
0010
0000
,
1000
0000
0100
1000
0000
0000
0001
0010
0000
0000
1000
0010
0000
0000
0001
1000
,
0000
0000
0001
0100
0000
0000
0001
0010
0000
0000
0100
1000
0000
0000
0010
0000
,
0100
0000
0001
1000
0000
0000
0100
1000
0000
0000
0010
0100
0000
0000
1000
0100
,
0000
0000
0001
0100
0000
0000
0010
1000
0000
0000
0100
0010
0000
0000
0100
1000
,
0000
0000
0010
0100
0000
0000
0010
1000
0000
0000
0001
0100
0000
0000
0001
0000
,
0010
0000
0100
1000
0000
0000
0001
0100
0000
0000
0010
0100
0000
0000
0001
0000
,
1000
0000
0100
0010
0000
0000
0001
0000
1000
0000
0100
0000
1000
0000
0001
0100
,
0000
0000
0010
0000
1000
0000
0001
0000
1000
0000
0010
0100
0000
0000
0001
0000
,
0010
0000
0001
0000
0100
0000
0010
1000
0000
0000
0001
1000
0000
0000
0100
1000
,
0000
0000
0001
0010
0000
0000
0001
0000
1000
0000
0010
0000
0100
0000
0001
0000
,
0010
0000
0100
0010
0000
0000
0001
0100
0000
0000
0010
0100
0000
0000
1000
0000
,
0100
0000
0001
0000
0010
0000
0100
1000
0000
0000
0010
0000
0100
0000
0001
0000
,
0100
0000
0000
0010
0000
1000
0000
0100
0000
0010
0000
0100
0000
1000
0000
0010
0000
0100
0000
0010
0000
1000
0000
0001
,
0000
0010
0000
0100
0000
1000
0000
0001
0000
0100
0000
0010
0000
0100
0000
0001
0000
0010
0000
0001
0000
1000
0000
0010
,
0000
0000
0000
0000
0000
0000
0000
0000
1000
0000
0000
0000
0000
0000
0000
0000
0000
0000
0000
0000
0100
0000
0000
0000
0000
0000
0000
0000
0000
0000
0000
0000
0000
0000
0000
0000
0010
0000
0000
0000
0000
0000
0000
0000
0000
0000
0000
0000
0000
0000
0000
0000
0001
0000
0000
0000
0000
0000
0000
0000
0000
0000
0000
0000
0000
0000
0000
0000
0000
0010
0000
0000
0000
0000
0000
0000
0000
0000
0000
0000
0000
0000
0000
0000
0000
0100
0000
0000
0000
0000
0000
0000
0000
0000
0000
0000
0000
0000
0000
0000
0000
1000
0000
0000
0000
0000
0000
0000
0000
0000
0000
0000
0000
0000
0000
0000
0000
0100
0000
0000
0000
0000
0000
0000
0000
0000
0000
0000
0000
0000
0000
0000
0000
0001
0000
0000
0000
0000
0000
0000
0000
0000
0000
0000
0000
0000
0000
0000
0000
0100
0000
0000
0000
0000
0000
0000
0000
0000
0000
0000
0000
0000
0000
0000
0000
1000
0000
0000
0000
0000
0000
0000
0000
0000
0000
0000
0000
0000
0000
0000
0000
0010
0000
0000
0000
0000
0000
0000
0000
0000
0000
0000
,
0000
0000
0000
0000
0000
0001
0000
0000
0000
0000
0000
0000
0000
0000
0000
0000
0000
0000
0000
0000
0000
0010
0000
0000
0000
0000
0000
0000
0000
0000
0000
0000
0000
0000
0000
0000
0000
1000
0000
0000
0000
0000
0000
0000
0000
0000
0000
0000
0000
0000
0000
0000
0000
0001
0000
0000
0000
0000
0000
0000
0000
0000
0000
0000
0000
0000
0000
0000
0000
0100
0000
0000
0000
0000
0000
0000
0000
0000
0000
0000
0000
0000
0000
0000
0000
0010
0000
0000
0000
0000
0000
0000
0000
0000
0000
0000
0000
0000
0000
0000
0000
1000
0000
0000
0000
0000
0000
0000
0000
0000
0000
0000
0000
0000
0000
0000
0000
0100
0000
0000
0000
0000
0000
0000
0000
0000
0000
0000
0000
0000
0000
0000
0000
0010
0000
0000
0000
0000
0000
0000
0000
0000
0000
0000
0000
0000
0000
0000
0000
0001
0000
0000
0000
0000
0000
0000
0000
0000
0000
0000
0000
0000
0000
0000
0000
0000
0000
0000
0000
0000
0000
0000
0000
0000
0000
0000
0000
0000
0000
0000
0000
0000
0000
0000
0000
0000
0000
0000
0000
0000
0000
0000
,
0000
0000
0000
0000
0000
1000
0000
0000
0000
0000
0000
0000
0000
0000
0000
0000
0000
0000
0000
0000
0000
0000
0000
0000
0000
0000
0000
0000
0000
0000
0000
0000
0000
0000
0000
0000
0000
0000
0000
0000
0000
0000
0000
0000
0000
0000
0000
0000
0000
0000
0000
0000
0000
0010
0000
0000
0000
0000
0000
0000
0000
0000
0000
0000
0000
0000
0000
0000
0000
0000
0000
0000
0000
0000
0000
0000
0000
0100
0000
0000
0000
0000
0000
0000
0000
0000
0000
0000
0000
0000
0000
0000
0000
0000
0000
0000
0000
0000
0000
0000
0000
0010
0000
0000
0000
0000
0000
0000
0000
0000
0000
0000
0000
0000
0000
0000
0000
0000
0000
0000
0000
0000
0000
0000
0000
0100
0000
0000
0000
0000
0000
0000
0000
0000
0000
0000
0000
0000
0000
0000
0000
0000
0000
0000
0000
0000
0000
0000
0000
0010
0000
0000
0000
0000
0000
0000
0000
0000
0000
0000
0000
0000
0000
0000
0000
0000
0000
0000
0000
0000
0000
0000
0000
0000
0000
0000
0000
0000
0000
0000
0000
0000
0000
0000
0000
0000
0000
0000
0000
0000
0000
0000
,
0000
1000
0000
0000
0000
0000
0000
0000
0000
0001
0000
0000
0000
0100
0000
0000
0000
0001
0000
0000
0000
0100
0000
0000
0000
0001
0000
0000
0000
0000
0000
0000
,
0000
0010
0000
0000
0000
0000
0000
0000
0000
0100
0000
0000
0000
1000
0000
0000
0000
0100
0000
0000
0000
1000
0000
0000
0000
0100
0000
0000
0000
0000
0000
0000
,
0000
0000
0000
0000
0000
0000
1000
0000
0000
0000
0000
0000
0000
0000
0000
0000
0000
0000
0000
0000
0000
0000
0000
0000
0000
0000
0000
0000
0000
0000
0000
0000
0000
0000
0000
0000
0000
0000
0000
0000
0000
0000
0000
0000
0000
0000
0000
0000
0000
0000
0000
0000
0000
0000
0010
0000
0000
0000
0000
0000
0000
0000
0000
0000
0000
0000
0000
0000
0000
0000
0000
0000
0000
0000
0000
0000
0000
0000
0100
0000
0000
0000
0000
0000
0000
0000
0000
0000
0000
0000
0000
0000
0000
0000
0000
0000
0000
0000
0000
0000
0000
0000
0010
0000
0000
0000
0000
0000
0000
0000
0000
0000
0000
0000
0000
0000
0000
0000
0000
0000
0000
0000
0000
0000
0000
0000
0100
0000
0000
0000
0000
0000
0000
0000
0000
0000
0000
0000
0000
0000
0000
0000
0000
0000
0000
0000
0000
0000
0000
0000
0000
0010
0000
0000
0000
0000
0000
0000
0000
0000
0000
0000
0000
0000
0000
0000
0000
0000
0000
0000
0000
0000
0000
0000
0000
0000
0000
0000
0000
0000
0000
0000
0000
0000
0000
0000
0000
0000
0000
0000
0000
0000
,
0000
0000
0000
0000
0000
0000
0000
1000
0000
0000
0000
0000
0000
0000
0000
0000
0000
0000
0000
0000
0000
0000
0000
0000
0000
0000
0000
0000
0000
0000
0000
0000
0000
0000
0000
0000
0000
0000
0000
0000
0000
0000
0000
0000
0000
0000
0000
0000
0000
0000
0000
0000
0000
0000
0000
0001
0000
0000
0000
0000
0000
0000
0000
0000
0000
0000
0000
0000
0000
0000
0000
0000
0000
0000
0000
0000
0000
0000
0000
0010
0000
0000
0000
0000
0000
0000
0000
0000
0000
0000
0000
0000
0000
0000
0000
0000
0000
0000
0000
0000
0000
0000
0000
0001
0000
0000
0000
0000
0000
0000
0000
0000
0000
0000
0000
0000
0000
0000
0000
0000
0000
0000
0000
0000
0000
0000
0000
0010
0000
0000
0000
0000
0000
0000
0000
0000
0000
0000
0000
0000
0000
0000
0000
0000
0000
0000
0000
0000
0000
0000
0000
0001
0000
0000
0000
0000
0000
0000
0000
0000
0000
0000
0000
0000
0000
0000
0000
0000
0000
0000
0000
0000
0000
0000
0000
0000
0000
0000
0000
0000
0000
0000
0000
0000
0000
0000
0000
0000
0000
0000
0000
0000
,
0000
0000
0000
0000
0000
0000
0000
0100
0000
0000
0000
0000
0000
0000
0000
0000
0000
0000
0000
0000
0000
0000
0000
0000
0000
0000
0000
0000
0000
0000
0000
0000
0000
0000
0000
0000
0000
0000
0000
0000
0000
0000
0000
0000
0000
0000
0000
0000
0000
0000
0000
0000
0000
0000
0000
0010
0000
0000
0000
0000
0000
0000
0000
0000
0000
0000
0000
0000
0000
0000
0000
0000
0000
0000
0000
0000
0000
0000
0000
1000
0000
0000
0000
0000
0000
0000
0000
0000
0000
0000
0000
0000
0000
0000
0000
0000
0000
0000
0000
0000
0000
0000
0000
0010
0000
0000
0000
0000
0000
0000
0000
0000
0000
0000
0000
0000
0000
0000
0000
0000
0000
0000
0000
0000
0000
0000
0000
1000
0000
0000
0000
0000
0000
0000
0000
0000
0000
0000
0000
0000
0000
0000
0000
0000
0000
0000
0000
0000
0000
0000
0000
0010
0000
0000
0000
0000
0000
0000
0000
0000
0000
0000
0000
0000
0000
0000
0000
0000
0000
0000
0000
0000
0000
0000
0000
0000
0000
0000
0000
0000
0000
0000
0000
0000
0000
0000
0000
0000
0000
0000
0000
0000
,
0000
0000
0000
0000
0000
0000
0000
0100
0000
0000
0000
0000
0000
0000
0000
0000
0000
0000
0000
0000
0000
0000
0000
0000
0000
0000
0000
0000
0000
0000
0000
0000
0000
0000
0000
0000
0000
0000
0000
0000
0000
0000
0000
0000
0000
0000
0000
0000
0000
0000
0000
0000
0000
0000
0000
0001
0000
0000
0000
0000
0000
0000
0000
0000
0000
0000
0000
0000
0000
0000
0000
0000
0000
0000
0000
0000
0000
0000
0000
0000
1000
0000
0000
0000
0000
0000
0000
0000
0000
0000
0000
0000
0000
0000
0000
0000
0000
0000
0000
0000
0000
0000
0000
0000
0001
0000
0000
0000
0000
0000
0000
0000
0000
0000
0000
0000
0000
0000
0000
0000
0000
0000
0000
0000
0000
0000
0000
0000
1000
0000
0000
0000
0000
0000
0000
0000
0000
0000
0000
0000
0000
0000
0000
0000
0000
0000
0000
0000
0000
0000
0000
0000
0001
0000
0000
0000
0000
0000
0000
0000
0000
0000
0000
0000
0000
0000
0000
0000
0000
0000
0000
0000
0000
0000
0000
0000
0000
0000
0000
0000
0000
0000
0000
0000
0000
0000
0000
0000
0000
0000
0000
0000
,
0000
0010
0000
0000
0000
0000
0000
0100
0000
0000
1000
0000
0000
0100
0000
0000
1000
0000
0000
0100
0000
0000
0000
0000
,
0000
1000
0000
0000
0000
0000
0000
0001
0000
0000
0010
0000
0000
0001
0000
0000
1000
0000
0000
0001
0000
0000
0000
0000
,
0000
0000
0000
0100
0000
0000
0000
0000
0000
0000
0000
0000
0000
0000
0000
0000
0000
0000
0000
0010
0000
0000
0000
0000
0000
0000
0000
0100
0000
0000
0000
0000
0000
0000
0000
1000
0000
0000
0000
0000
0000
0000
0000
0100
0000
0000
0000
0000
0000
0000
0000
0010
0000
0000
0000
0000
0000
0000
0000
0000
0000
0000
0000
0000
,
0000
0000
0000
1000
0000
0000
0000
0000
0000
0000
0000
0000
0000
0000
0000
0000
0000
0000
0000
0100
0000
0000
0000
0000
0000
0000
0000
0010
0000
0000
0000
0000
0000
0000
0000
0100
0000
0000
0000
0000
0000
0000
0000
1000
0000
0000
0000
0000
0000
0000
0000
0100
0000
0000
0000
0000
0000
0000
0000
0000
0000
0000
0000
0000
,
0000
0000
0000
0000
0000
0000
0000
0000
0000
0010
0000
0000
0000
0000
0000
0000
0000
0000
0000
0000
0000
0000
0000
0000
0000
0000
0000
0000
0000
0000
0000
0000
0000
0000
0000
0000
0000
0000
0000
0000
0000
0000
0000
0000
0000
0000
0000
0000
0000
0000
0000
0000
0000
0000
0000
0000
0000
0001
0000
0000
0000
0000
0000
0000
0000
0000
0000
0000
0000
0000
0000
0000
0000
0000
0000
0000
0000
0000
0000
0000
0000
0010
0000
0000
0000
0000
0000
0000
0000
0000
0000
0000
0000
0000
0000
0000
0000
0000
0000
0000
0000
0000
0000
0000
0000
0001
0000
0000
0000
0000
0000
0000
0000
0000
0000
0000
0000
0000
0000
0000
0000
0000
0000
0000
0000
0000
0000
0000
0000
0100
0000
0000
0000
0000
0000
0000
0000
0000
0000
0000
0000
0000
0000
0000
0000
0000
0000
0000
0000
0000
0000
0000
0000
0000
0001
0000
0000
0000
0000
0000
0000
0000
0000
0000
0000
0000
0000
0000
0000
0000
0000
0000
0000
0000
0000
0000
0000
0000
0000
0000
0000
0000
0000
0000
0000
0000
0000
0000
0000
0000
0000
0000
,
0000
0000
0000
0000
0000
0000
0000
0000
0000
0000
1000
0000
0000
0000
0000
0000
0000
0000
0000
0000
0000
0000
0000
0000
0000
0000
0000
0000
0000
0000
0000
0000
0000
0000
0000
0000
0000
0000
0000
0000
0000
0000
0000
0000
0000
0000
0000
0000
0000
0000
0000
0000
0000
0000
0000
0000
0000
0000
0010
0000
0000
0000
0000
0000
0000
0000
0000
0000
0000
0000
0000
0000
0000
0000
0000
0000
0000
0000
0000
0000
0000
0000
0100
0000
0000
0000
0000
0000
0000
0000
0000
0000
0000
0000
0000
0000
0000
0000
0000
0000
0000
0000
0000
0000
0000
0000
0010
0000
0000
0000
0000
0000
0000
0000
0000
0000
0000
0000
0000
0000
0000
0000
0000
0000
0000
0000
0000
0000
0000
0000
0001
0000
0000
0000
0000
0000
0000
0000
0000
0000
0000
0000
0000
0000
0000
0000
0000
0000
0000
0000
0000
0000
0000
0000
0010
0000
0000
0000
0000
0000
0000
0000
0000
0000
0000
0000
0000
0000
0000
0000
0000
0000
0000
0000
0000
0000
0000
0000
0000
0000
0000
0000
0000
0000
0000
0000
0000
0000
0000
0000
0000
0000
,
0000
0000
0000
0000
0000
0000
0000
0000
0000
0000
0100
0000
0000
0000
0000
0000
0000
0000
0000
0000
0000
0000
0000
0000
0000
0000
0000
0000
0000
0000
0000
0000
0000
0000
0000
0000
0000
0000
0000
0000
0000
0000
0000
0000
0000
0000
0000
0000
0000
0000
0000
0000
0000
0000
0000
0000
0000
0000
0001
0000
0000
0000
0000
0000
0000
0000
0000
0000
0000
0000
0000
0000
0000
0000
0000
0000
0000
0000
0000
0000
0000
0000
1000
0000
0000
0000
0000
0000
0000
0000
0000
0000
0000
0000
0000
0000
0000
0000
0000
0000
0000
0000
0000
0000
0000
0000
0001
0000
0000
0000
0000
0000
0000
0000
0000
0000
0000
0000
0000
0000
0000
0000
0000
0000
0000
0000
0000
0000
0000
0000
0100
0000
0000
0000
0000
0000
0000
0000
0000
0000
0000
0000
0000
0000
0000
0000
0000
0000
0000
0000
0000
0000
0000
0000
0001
0000
0000
0000
0000
0000
0000
0000
0000
0000
0000
0000
0000
0000
0000
0000
0000
0000
0000
0000
0000
0000
0000
0000
0000
0000
0000
0000
0000
0000
0000
0000
0000
0000
0000
0000
0000
0000
,
0000
0000
0000
0000
0000
0000
0000
0000
0000
0000
1000
0000
0000
0000
0000
0000
0000
0000
0000
0000
0000
0000
0000
0000
0000
0000
0000
0000
0000
0000
0000
0000
0000
0000
0000
0000
0000
0000
0000
0000
0000
0000
0000
0000
0000
0000
0000
0000
0000
0000
0000
0000
0000
0000
0000
0000
0000
0000
0100
0000
0000
0000
0000
0000
0000
0000
0000
0000
0000
0000
0000
0000
0000
0000
0000
0000
0000
0000
0000
0000
0000
0000
0000
0001
0000
0000
0000
0000
0000
0000
0000
0000
0000
0000
0000
0000
0000
0000
0000
0000
0000
0000
0000
0000
0000
0000
0000
0100
0000
0000
0000
0000
0000
0000
0000
0000
0000
0000
0000
0000
0000
0000
0000
0000
0000
0000
0000
0000
0000
0000
0000
0010
0000
0000
0000
0000
0000
0000
0000
0000
0000
0000
0000
0000
0000
0000
0000
0000
0000
0000
0000
0000
0000
0000
0000
0100
0000
0000
0000
0000
0000
0000
0000
0000
0000
0000
0000
0000
0000
0000
0000
0000
0000
0000
0000
0000
0000
0000
0000
0000
0000
0000
0000
0000
0000
0000
0000
0000
0000
0000
0000
0000
,
0000
0000
0000
0000
0000
0000
0000
0000
0000
0000
0000
1000
0000
0000
0000
0000
0000
0000
0000
0000
0000
0000
0000
0000
0000
0000
0000
0000
0000
0000
0000
0000
0000
0000
0000
0000
0000
0000
0000
0000
0000
0000
0000
0000
0000
0000
0000
0000
0000
0000
0000
0000
0000
0000
0000
0000
0000
0000
0000
0010
0000
0000
0000
0000
0000
0000
0000
0000
0000
0000
0000
0000
0000
0000
0000
0000
0000
0000
0000
0000
0000
0000
0000
0100
0000
0000
0000
0000
0000
0000
0000
0000
0000
0000
0000
0000
0000
0000
0000
0000
0000
0000
0000
0000
0000
0000
0000
0001
0000
0000
0000
0000
0000
0000
0000
0000
0000
0000
0000
0000
0000
0000
0000
0000
0000
0000
0000
0000
0000
0000
0000
0000
0000
0000
0000
0000
0000
0000
0000
0000
0000
0000
0000
0000
0000
0000
0000
0000
0000
0000
0000
0000
0000
0000
0000
0000
1001
0000
0000
0000
0000
0000
0000
0000
0000
0000
0000
0000
0000
0000
0000
0000
0000
0000
0000
0000
0000
0000
0000
0000
0000
0000
0000
0000
0000
0000
0000
0000
0000
0000
0000
0000
,
0000
0010
0000
0000
0000
1000
0000
0000
0000
0101
0000
0000
0000
1000
0000
0000
,
0000
0100
0000
0000
0000
0011
0000
0000
0000
0100
0000
0000
0000
0001
0000
0000
,
0000
1010
0000
0000
0000
0001
0000
0000
0000
1000
0000
0000
0000
0110
0000
0000
,
0000
0000
0000
0000
0000
0000
0000
0000
0000
0000
0000
0000
0001
0000
0000
0000
0000
0000
0000
0000
0000
0000
0000
0000
0000
0000
0000
0000
0000
0000
0000
0000
0000
0000
0000
0000
0000
0000
0000
0000
0000
0000
0000
0000
0000
0000
0000
0000
0000
0000
0000
0000
0000
0000
0000
0000
0000
0000
0000
0000
0010
0000
0000
0000
0000
0000
0000
0000
0000
0000
0000
0000
0000
0000
0000
0000
0000
0000
0000
0000
0000
0000
0000
0000
0000
0000
0000
0000
0000
0000
0000
0000
0000
0000
0000
0000
0000
0000
0000
0000
0000
0000
0000
0000
0000
0000
0000
0000
0101
0000
0000
0000
0000
0000
0000
0000
0000
0000
0000
0000
0000
0000
0000
0000
0000
0000
0000
0000
0000
0000
0000
0000
0000
0000
0000
0000
0000
0000
0000
0000
0000
0000
0000
0000
0000
0000
0000
0000
0000
0000
0000
0000
0000
0000
0000
0000
0000
1000
0000
0000
0000
0000
0000
0000
0000
0000
0000
0000
0000
0000
0000
0000
0000
0000
0000
0000
0000
0000
0000
0000
0000
0000
0000
0000
0000
0000
0000
0000
0000
0000
0000
0000
,
0000
0000
0000
0000
0000
0000
0000
0000
0000
0000
0000
0000
0000
0010
0000
0000
0000
0000
0000
0000
0000
0000
0000
0000
0000
0000
0000
0000
0000
0000
0000
0000
0000
0000
0000
0000
0000
0000
0000
0000
0000
0000
0000
0000
0000
0000
0000
0000
0000
0000
0000
0000
0000
0000
0000
0000
0000
0000
0000
0000
0000
0100
0000
0000
0000
0000
0000
0000
0000
0000
0000
0000
0000
0000
0000
0000
0000
0000
0000
0000
0000
0000
0000
0000
0000
0000
0000
0000
0000
0000
0000
0000
0000
0000
0000
0000
0000
0000
0000
0000
0000
0000
0000
0000
0000
0000
0000
0000
0000
1001
0000
0000
0000
0000
0000
0000
0000
0000
0000
0000
0000
0000
0000
0000
0000
0000
0000
0000
0000
0000
0000
0000
0000
0000
0000
0000
0000
0000
0000
0000
0000
0000
0000
0000
0000
0000
0000
0000
0000
0000
0000
0000
0000
0000
0000
0000
0000
0001
0000
0000
0000
0000
0000
0000
0000
0000
0000
0000
0000
0000
0000
0000
0000
0000
0000
0000
0000
0000
0000
0000
0000
0000
0000
0000
0000
0000
0000
0000
0000
0000
0000
0000
,
0000
0000
0000
0000
0000
0000
0000
0000
0000
0000
0000
0000
0000
0010
0000
0000
0000
0000
0000
0000
0000
0000
0000
0000
0000
0000
0000
0000
0000
0000
0000
0000
0000
0000
0000
0000
0000
0000
0000
0000
0000
0000
0000
0000
0000
0000
0000
0000
0000
0000
0000
0000
0000
0000
0000
0000
0000
0000
0000
0000
0000
1100
0000
0000
0000
0000
0000
0000
0000
0000
0000
0000
0000
0000
0000
0000
0000
0000
0000
0000
0000
0000
0000
0000
0000
0000
0000
0000
0000
0000
0000
0000
0000
0000
0000
0000
0000
0000
0000
0000
0000
0000
0000
0000
0000
0000
0000
0000
0000
0010
0000
0000
0000
0000
0000
0000
0000
0000
0000
0000
0000
0000
0000
0000
0000
0000
0000
0000
0000
0000
0000
0000
0000
0000
0000
0000
0000
0000
0000
0000
0000
0000
0000
0000
0000
0000
0000
0000
0000
0000
0000
0000
0000
0000
0000
0000
0000
1000
0000
0000
0000
0000
0000
0000
0000
0000
0000
0000
0000
0000
0000
0000
0000
0000
0000
0000
0000
0000
0000
0000
0000
0000
0000
0000
0000
0000
0000
0000
0000
0000
0000
0000
,
0000
0000
0000
0000
0000
0000
0000
0000
0000
0000
0000
0000
0000
0101
0000
0000
0000
0000
0000
0000
0000
0000
0000
0000
0000
0000
0000
0000
0000
0000
0000
0000
0000
0000
0000
0000
0000
0000
0000
0000
0000
0000
0000
0000
0000
0000
0000
0000
0000
0000
0000
0000
0000
0000
0000
0000
0000
0000
0000
0000
0000
0010
0000
0000
0000
0000
0000
0000
0000
0000
0000
0000
0000
0000
0000
0000
0000
0000
0000
0000
0000
0000
0000
0000
0000
0000
0000
0000
0000
0000
0000
0000
0000
0000
0000
0000
0000
0000
0000
0000
0000
0000
0000
0000
0000
0000
0000
0000
0000
0000
0100
0000
0000
0000
0000
0000
0000
0000
0000
0000
0000
0000
0000
0000
0000
0000
0000
0000
0000
0000
0000
0000
0000
0000
0000
0000
0000
0000
0000
0000
0000
0000
0000
0000
0000
0000
0000
0000
0000
0000
0000
0000
0000
0000
0000
0000
0000
0000
1001
0000
0000
0000
0000
0000
0000
0000
0000
0000
0000
0000
0000
0000
0000
0000
0000
0000
0000
0000
0000
0000
0000
0000
0000
0000
0000
0000
0000
0000
0000
0000
0000
0000
,
0000
0000
0000
0000
0000
0000
0000
0000
0000
0000
0000
0000
0000
0000
0100
0000
0000
0000
0000
0000
0000
0000
0000
0000
0000
0000
0000
0000
0000
0000
0000
0000
0000
0000
0000
0000
0000
0000
0000
0000
0000
0000
0000
0000
0000
0000
0000
0000
0000
0000
0000
0000
0000
0000
0000
0000
0000
0000
0000
0000
0000
0000
0001
0000
0000
0000
0000
0000
0000
0000
0000
0000
0000
0000
0000
0000
0000
0000
0000
0000
0000
0000
0000
0000
0000
0000
0000
0000
0000
0000
0000
0000
0000
0000
0000
0000
0000
0000
0000
0000
0000
0000
0000
0000
0000
0000
0000
0000
0000
0000
1010
0000
0000
0000
0000
0000
0000
0000
0000
0000
0000
0000
0000
0000
0000
0000
0000
0000
0000
0000
0000
0000
0000
0000
0000
0000
0000
0000
0000
0000
0000
0000
0000
0000
0000
0000
0000
0000
0000
0000
0000
0000
0000
0000
0000
0000
0000
0000
0001
0000
0000
0000
0000
0000
0000
0000
0000
0000
0000
0000
0000
0000
0000
0000
0000
0000
0000
0000
0000
0000
0000
0000
0000
0000
0000
0000
0000
0000
0000
0000
0000
0000
,
0000
0000
0000
0000
0000
0000
0000
0000
0000
0000
0000
0000
0000
0000
1000
0000
0000
0000
0000
0000
0000
0000
0000
0000
0000
0000
0000
0000
0000
0000
0000
0000
0000
0000
0000
0000
0000
0000
0000
0000
0000
0000
0000
0000
0000
0000
0000
0000
0000
0000
0000
0000
0000
0000
0000
0000
0000
0000
0000
0000
0000
0000
0100
0000
0000
0000
0000
0000
0000
0000
0000
0000
0000
0000
0000
0000
0000
0000
0000
0000
0000
0000
0000
0000
0000
0000
0000
0000
0000
0000
0000
0000
0000
0000
0000
0000
0000
0000
0000
0000
0000
0000
0000
0000
0000
0000
0000
0000
0000
0000
0011
0000
0000
0000
0000
0000
0000
0000
0000
0000
0000
0000
0000
0000
0000
0000
0000
0000
0000
0000
0000
0000
0000
0000
0000
0000
0000
0000
0000
0000
0000
0000
0000
0000
0000
0000
0000
0000
0000
0000
0000
0000
0000
0000
0000
0000
0000
0000
1000
0000
0000
0000
0000
0000
0000
0000
0000
0000
0000
0000
0000
0000
0000
0000
0000
0000
0000
0000
0000
0000
0000
0000
0000
0000
0000
0000
0000
0000
0000
0000
0000
0000
,
0000
0000
0000
0000
0000
0010
0000
0000
0000
0000
0000
0000
0000
0000
0000
0000
0000
0000
0000
0000
0000
0101
0000
0000
0000
0000
0000
0000
0000
0000
0000
0000
0000
0000
0000
0000
0000
1000
0000
0000
0000
0000
0000
0000
0000
0000
0000
0000
0000
0000
0000
0000
0000
0001
0000
0000
0000
0000
0000
0000
0000
0000
0000
0000
,
0000
0000
0000
0000
0000
0110
0000
0000
0000
0000
0000
0000
0000
0000
0000
0000
0000
0000
0000
0000
0000
0001
0000
0000
0000
0000
0000
0000
0000
0000
0000
0000
0000
0000
0000
0000
0000
1000
0000
0000
0000
0000
0000
0000
0000
0000
0000
0000
0000
0000
0000
0000
0000
0010
0000
0000
0000
0000
0000
0000
0000
0100
0000
0000
,
0000
0000
0000
0000
0000
0000
0000
0000
0000
0000
0000
0000
0000
0000
0000
0001
0000
0000
0000
0000
0000
0000
0000
0000
0000
0000
0000
0000
0000
0000
0000
0000
0000
0000
0000
0000
0000
0000
0000
1000
0000
0000
0000
0000
0000
0000
0000
0000
0000
0000
0000
0000
0000
0000
0000
0000
0000
0000
0000
0000
0000
0000
0000
0100
0000
0000
0000
0000
0000
0000
0000
0000
0000
0000
0000
0000
0000
0000
0000
0000
0000
0000
0000
0000
0000
0000
0000
0010
0000
0000
0000
0000
0000
0000
0000
0000
0000
0000
0000
0000
0000
0000
0000
0000
0000
0000
0000
0000
0000
0000
0000
0001
0000
0000
0000
0000
0000
0000
0000
0000
0000
0000
0000
0000
0000
0000
0000
0000
0000
0000
0000
0000
0000
0000
0000
1000
0000
0000
0000
0000
0000
0000
0000
0000
0000
0000
0000
0000
0000
0000
0000
0000
0000
0000
0000
0000
0000
0000
0000
0000
0010
0000
0000
0000
0000
0000
0000
0000
0000
0000
0000
0000
0010
0000
0000
0000
0000
0000
0000
0000
0000
0000
0000
0000
1000
0000
0000
0000
0000
0000
0000
0000
,
0000
0001
0000
0000
0001
0000
0000
1000
0000
0000
0100
0000
0000
0100
0000
0000
0010
0000
0000
0001
0000
0000
1000
0000
0000
1000
0000
0000
0010
0000
0000
0100
0000
0000
0100
0000
0000
0010
0000
0000
1000
0000
0000
0000
0000
0000
0000
0000
,
0000
0000
0001
0000
0000
0100
0000
0000
0001
0000
0000
1000
0000
0000
0010
0000
0000
0100
0000
0000
0000
0000
0000
0001
,
0000
0000
0000
0000
0000
0000
0000
0000
0000
0000
0000
0000
0000
0000
0000
0000
1000
0000
0000
0000
0000
0000
0000
0000
0000
0000
0000
0000
0000
0000
0000
0000
0000
0000
0000
0000
0000
0000
0000
0000
0100
0000
0000
0000
0000
0000
0000
0000
0000
0000
0000
0000
0000
0000
0000
0000
0000
0000
0000
0000
0000
0000
0000
0000
1000
0000
0000
0000
0000
0000
0000
0000
0000
0000
0000
0000
0000
0000
0000
0000
0000
0000
0000
0000
0000
0000
0000
0000
0000
0001
0000
0000
0000
0000
0000
0000
0000
0000
0000
0000
0000
0000
0000
0000
0000
0000
0000
0000
0000
0000
0000
0000
0000
0100
0000
0000
0000
0000
0000
0000
0000
0000
0000
0000
0000
0000
0000
0000
0000
0000
0000
0000
0000
0000
0000
0000
0000
0000
0000
0000
0000
0000
0000
0000
0000
0000
0000
0000
0000
0000
0000
0000
0000
0000
0000
0000
0000
0000
0000
0000
0000
0010
0000
0000
0000
0000
0000
0000
0000
0000
0000
0000
0000
0000
0000
0000
0000
0000
0000
0000
0000
0000
0000
0000
0000
1000
0000
0000
0000
0000
0000
0000
,
0000
0000
0000
0000
0000
0000
0000
0000
0000
0000
0000
0000
0000
0000
0000
0000
0000
0010
0000
0000
0000
0000
0000
0000
0000
0000
0000
0000
0000
0000
0000
0000
0000
0000
0000
0000
0000
0000
0000
0000
0000
1000
0000
0000
0000
0000
0000
0000
0000
0000
0000
0000
0000
0000
0000
0000
0000
0000
0000
0000
0000
0000
0000
0000
0000
0020
0000
0000
0000
0000
0000
0000
0000
0000
0000
0000
0000
0000
0000
0000
0000
0000
0000
0000
0000
0000
0000
0000
0000
0000
0000
0000
0000
0000
0000
0000
0000
0000
0000
0000
0000
0000
0000
0000
0000
0000
0000
0000
0000
0000
0000
0000
0000
0030
0000
0000
0000
0000
0000
0000
0000
0000
0000
0000
0000
0000
0000
0000
0000
0000
0000
0000
0000
0000
0000
0000
0000
0000
0000
0000
0000
0000
0000
0000
0000
0000
0000
0000
0000
0000
0000
0000
0000
0000
0000
0000
0000
0000
0000
0000
0000
0100
0000
0000
0000
0000
0000
0000
0000
0000
0000
0000
0000
0000
0000
0000
0000
0000
0000
0000
0000
0000
0000
0000
0000
0010
0000
0000
0000
0000
0000
0000
,
0000
0000
0000
0000
0000
0000
0000
0000
0000
0000
0000
0000
0000
0000
0000
0000
0000
0200
0000
0000
0000
0000
0000
0000
0000
0000
0000
0000
0000
0000
0000
0000
0000
0000
0000
0000
0000
0000
0000
0000
0000
0000
0000
0000
0000
0000
0000
0000
0000
0000
0000
0000
0000
0000
0000
0000
0000
0000
0000
0000
0000
0000
0000
0000
0000
0300
0000
0000
0000
0000
0000
0000
0000
0000
0000
0000
0000
0000
0000
0000
0000
0000
0000
0000
0000
0000
0000
0000
0000
0000
0000
0000
0000
0000
0000
0000
0000
0000
0000
0000
0000
0000
0000
0000
0000
0000
0000
0000
0000
0000
0000
0000
0000
0001
0000
0000
0000
0000
0000
0000
0000
0000
0000
0000
0000
0000
0000
0000
0000
0000
0000
0000
0000
0000
0000
0000
0000
0100
0000
0000
0000
0000
0000
0000
0000
0000
0000
0000
0000
0000
0000
0000
0000
0000
0000
0000
0000
0000
0000
0000
0000
0002
0000
0000
0000
0000
0000
0000
0000
0000
0000
0000
0000
0000
0000
0000
0000
0000
0000
0000
0000
0000
0000
0000
0000
0000
0000
0000
0000
0000
0000
0000
,
0000
0000
0000
0003
0000
0000
0000
0000
0000
0000
0000
0010
0000
0000
0000
0001
0000
0000
0000
1000
0000
0000
0000
0010
0000
0000
0000
0100
0000
0000
0000
0001
,
0000
0000
0000
1000
0000
0000
0000
0100
0000
0000
0000
0010
0000
0000
0000
0100
0000
0000
0000
1000
0000
0000
0000
0010
0000
0000
0000
0200
0000
0000
0000
0000
,
0000
0000
0000
0000
0000
0000
0000
0000
0000
0000
0000
0000
0000
0000
0000
0000
0000
0000
0000
0000
0000
0000
0000
0000
0000
0000
0000
0000
0000
0000
0000
0000
0000
0000
0000
0000
0000
0000
0000
0000
0000
0000
0000
0000
0000
0000
0000
0000
0000
0000
0000
0000
0000
0000
0000
0000
0000
0000
0000
0000
0000
0000
0000
0000
0000
0000
0000
0000
0000
0000
0000
0000
0000
0000
0000
0000
0000
0000
0000
0000
0000
0000
0000
0000
0000
0000
0000
0000
0000
0000
0000
0000
0000
0000
0000
0000
0000
0000
0000
0000
0000
0000
0000
0000
0000
0000
0000
0000
0000
0000
0000
0000
0000
0000
0000
0000
0000
0000
0000
0000
0000
0000
0000
0000
0000
0000
0000
0000
0000
0000
0000
0000
0000
0000
0000
0000
0000
0000
0300
0000
0000
0000
0000
0000
0000
0000
0000
0000
0000
0000
0000
0000
0000
0000
0000
0000
0000
0000
0000
0000
0000
0000
0000
0001
0000
0000
0000
0000
0000
0000
0000
0000
0000
0000
0000
0000
0000
0000
0000
0000
0000
0000
0000
0000
0000
0000
0000
0010
0000
0000
0000
0000
,
0000
0000
0000
0000
0000
0000
0000
0000
0000
0000
0000
0000
0000
0000
0000
0000
0000
0000
0000
0100
0000
0000
0000
0000
0000
0000
0000
0000
0000
0000
0000
0000
0000
0000
0000
0000
0000
0000
0000
0000
0000
0000
0000
1000
0000
0000
0000
0000
0000
0000
0000
0000
0000
0000
0000
0000
0000
0000
0000
0000
0000
0000
0000
0000
0000
0000
0000
0010
0000
0000
0000
0000
0000
0000
0000
0000
0000
0000
0000
0000
0000
0000
0000
0000
0000
0000
0000
0000
0000
0000
0000
0100
0000
0000
0000
0000
0000
0000
0000
0000
0000
0000
0000
0000
0000
0000
0000
0000
0000
0000
0000
0000
0000
0000
0000
0001
0000
0000
0000
0000
0000
0000
0000
0000
0000
0000
0000
0000
0000
0000
0000
0000
0000
0000
0000
0000
0000
0000
0000
0000
0000
0000
0000
0000
0000
0000
0000
0000
0000
0000
0000
0000
0000
0000
0000
0000
0000
0000
0000
0000
0000
0000
0000
0000
0000
0000
0000
0000
0000
0000
0000
0000
0000
0000
0000
0000
0000
0000
0000
0000
0000
0000
0000
0000
0000
0000
0000
0000
0000
0000
0000
0000
;
