#TITLE:ENCORE!!;
#SUBTITLE:(One More ExtraStage!);
#ARTIST:baconman;
#TITLETRANSLIT:;
#SUBTITLETRANSLIT:;
#ARTISTTRANSLIT:;
#CREDIT:;
#BANNER:BOSS2.png;
#BACKGROUND:BOSSX-bg2.png;
#LYRICSPATH:;
#CDTITLE:./CDTITLES/DANCE DANCE REVOLUTION.PNG;
#MUSIC:BOSSX.mp3;
#OFFSET:-1.639;
#SAMPLESTART:78.140;
#SAMPLELENGTH:12.000;
#SELECTABLE:YES;
#DISPLAYBPM:*;
#BPMS:0.000=150.000,232.000=148.000,280.000=149.000,296.000=148.000,364.000=147.500,448.000=170.000,449.000=190.000,961.000=180.000,1169.000=359.999,1337.000=170.000,1444.000=175.000;
#STOPS:685.000=0.947
,749.500=0.360
,812.000=0.600
,1337.000=0.495
,1339.875=0.540
,1346.375=0.540
,1352.875=0.520
,1359.375=0.520
,1363.375=0.700
,1365.875=0.540
,1367.375=0.700
,1376.375=0.520
,1380.375=0.540
,1382.875=0.700
,1390.375=0.700
,1394.375=0.895
,1401.875=0.700
,1407.875=0.330
,1408.000=0.335
,1412.000=0.325
,1412.125=0.330
,1412.250=0.325
,1412.375=0.330
,1416.375=1.500
,1419.875=0.325
,1420.000=0.325
,1420.125=0.325
,1420.250=0.345
,1425.250=0.325
,1425.375=0.325
,1425.500=0.355
,1431.000=1.100
,1434.500=0.345
,1437.500=0.345
,1440.500=0.355
;
#BGCHANGES:;

//---------------dance-single - ----------------
#NOTES:
     dance-single:
     :
     Easy:
     5:
     0.356,0.505,0.215,0.164,0.116: // measure 1
0000
0000
0000
0000
,  // measure 2
0000
0000
0000
0000
,  // measure 3
0000
0000
0000
0000
,  // measure 4
0000
0000
0000
0000
,  // measure 5
0010
1010
0000
0100
,  // measure 6
0010
0100
0001
1000
,  // measure 7
0010
0011
0000
0100
,  // measure 8
0010
0100
0000
1001
,  // measure 9
0100
0000
1000
0110
,  // measure 10
0001
0010
0001
1000
,  // measure 11
0100
0010
0001
0010
,  // measure 12
0100
0100
0010
0110
,  // measure 13
0100
0000
0001
0110
,  // measure 14
1000
0010
1000
0001
,  // measure 15
0100
0010
1000
0010
,  // measure 16
0100
0100
0010
0110
,  // measure 17
1010
1001
0100
0100
,  // measure 18
0010
0000
0100
0110
,  // measure 19
0001
0000
0100
0110
,  // measure 20
1000
0000
0100
0110
,  // measure 21
0011
1001
0100
0100
,  // measure 22
0010
0000
0100
0110
,  // measure 23
1000
0000
0100
0110
,  // measure 24
0001
0000
0100
0110
,  // measure 25
0000
0100
0000
0001
,  // measure 26
0000
0100
0010
0110
,  // measure 27
0000
0100
0000
1000
,  // measure 28
0000
0100
0010
0110
,  // measure 29
0010
0011
0001
1001
,  // measure 30
1000
1100
0100
0110
,  // measure 31
0010
0001
1000
0100
,  // measure 32
0010
0010
0100
0110
,  // measure 33
0010
0000
0001
0110
,  // measure 34
1000
0100
1000
0001
,  // measure 35
0010
0100
1000
0100
,  // measure 36
0010
0010
0100
0110
,  // measure 37
0010
0000
1000
0110
,  // measure 38
0001
0100
0001
1000
,  // measure 39
0010
0100
0001
0100
,  // measure 40
0010
0010
0100
0110
,  // measure 41
1010
1001
0000
0110
,  // measure 42
0000
1001
0000
1001
,  // measure 43
0000
0110
0000
0110
,  // measure 44
0100
0100
0000
1001
,  // measure 45
0011
1001
0000
0110
,  // measure 46
0000
1001
0000
1001
,  // measure 47
0000
0110
0000
0110
,  // measure 48
0100
0100
0000
1001
,  // measure 49
1100
1001
0000
0110
,  // measure 50
0000
1001
0000
0110
,  // measure 51
0000
1001
0000
0110
,  // measure 52
0010
0100
0000
1001
,  // measure 53
1100
1001
0000
0110
,  // measure 54
0000
1001
0000
0110
,  // measure 55
0000
1001
0000
0110
,  // measure 56
0010
0100
0010
1001
,  // measure 57
0100
0100
0100
1001
,  // measure 58
1001
0000
0000
0010
,  // measure 59
0002
0000
0003
0100
,  // measure 60
2000
3000
0100
0001
,  // measure 61
0020
0000
0030
1000
,  // measure 62
0002
0000
0000
0003
,  // measure 63
0010
0000
1000
0000
,  // measure 64
0100
0000
0001
0000
,  // measure 65
0200
0000
0000
0300
,  // measure 66
0001
1000
0000
0100
,  // measure 67
0020
0000
0030
1000
,  // measure 68
0002
0003
0100
1000
,  // measure 69
0020
0000
0030
0100
,  // measure 70
0002
0000
0000
0003
,  // measure 71
1000
0000
0010
0000
,  // measure 72
0100
0000
0001
0000
,  // measure 73
1001
0000
0100
0010
,  // measure 74
0220
0000
0000
0330
,  // measure 75
0020
0000
0030
0100
,  // measure 76
0002
0000
0003
0100
,  // measure 77
0020
0000
0030
0100
,  // measure 78
2000
0000
3000
0100
,  // measure 79
0002
0000
0003
0100
,  // measure 80
0010
1000
0000
0100
,  // measure 81
0010
0002
0000
0003
,  // measure 82
1001
0000
0000
0000
,  // measure 83
0020
0030
0001
1000
,  // measure 84
0002
0003
0200
0300
,  // measure 85
0020
0030
1000
0001
,  // measure 86
2000
0000
3000
0100
,  // measure 87
0001
0000
0001
0000
,  // measure 88
0001
0000
0001
0100
,  // measure 89
1000
0000
1000
0000
,  // measure 90
1000
0000
1000
0100
,  // measure 91
0010
0000
0010
0000
,  // measure 92
0010
0000
0010
0100
,  // measure 93
0001
0100
0010
1000
,  // measure 94
0000
0000
0000
0100
,  // measure 95
0020
0000
0030
1000
,  // measure 96
0002
0003
1000
0100
,  // measure 97
0020
0000
0030
0001
,  // measure 98
2000
0000
0000
3000
,  // measure 99
0010
0100
0000
1000
,  // measure 100
0100
0001
0000
0010
,  // measure 101
1000
0000
1000
0000
,  // measure 102
0001
0100
0000
0100
,  // measure 103
0020
0000
0030
1000
,  // measure 104
0002
0003
1000
0100
,  // measure 105
0020
0000
0030
0001
,  // measure 106
1000
0000
0010
0000
,  // measure 107
0100
0000
0100
0001
,  // measure 108
0000
1000
0000
0001
0000
1000
0000
0001
,  // measure 109
0020
0030
1000
1000
,  // measure 110
0200
0300
0001
0001
,  // measure 111
0200
0300
0010
0010
,  // measure 112
0100
0000
0000
1000
1001
0000
0000
0000
,  // measure 113
0000
1000
0000
1001
,  // measure 114
0000
1000
0001
1000
,  // measure 115
0000
0001
0000
0001
,  // measure 116
0000
0001
1000
1001
,  // measure 117
0000
1000
0000
1000
,  // measure 118
0000
0001
0000
0001
,  // measure 119
0000
1000
0000
0001
,  // measure 120
0000
1000
1000
0001
,  // measure 121
0000
0001
0000
1001
,  // measure 122
0000
1000
0001
0100
,  // measure 123
0000
0001
0000
0001
,  // measure 124
0000
0001
1000
0100
,  // measure 125
0000
1000
0000
0001
,  // measure 126
0000
1000
0001
0100
,  // measure 127
0000
1000
0000
1000
,  // measure 128
0000
0001
1000
0100
,  // measure 129
0000
0010
1000
0100
,  // measure 130
0000
0100
1000
0010
,  // measure 131
0000
0010
1000
0100
,  // measure 132
0000
0100
1000
0010
,  // measure 133
0000
0001
0000
0001
,  // measure 134
0000
1000
0000
1000
,  // measure 135
0000
0001
0000
0001
,  // measure 136
0000
0100
0000
0100
,  // measure 137
0000
0010
0001
0100
,  // measure 138
0000
0100
0001
0010
,  // measure 139
0000
0010
0001
0100
,  // measure 140
0000
0100
0001
0010
,  // measure 141
0000
0010
0000
1000
,  // measure 142
0000
0010
0000
1000
,  // measure 143
0000
0100
0000
0001
,  // measure 144
0000
0100
0000
0001
,  // measure 145
0000
1000
0010
0001
,  // measure 146
0010
0100
0010
0100
,  // measure 147
0010
1000
0010
0001
,  // measure 148
0010
0100
0010
0100
,  // measure 149
0010
1000
0100
0001
,  // measure 150
0100
0010
0100
0010
,  // measure 151
0100
1000
0100
0001
,  // measure 152
0100
0010
0100
0010
,  // measure 153
0100
1000
0000
0001
,  // measure 154
0000
1000
0000
0001
,  // measure 155
0000
0010
0000
0100
,  // measure 156
0000
0010
1000
0100
,  // measure 157
0000
1001
0000
1000
,  // measure 158
0000
0001
0000
1001
,  // measure 159
0000
1000
0100
0001
,  // measure 160
0000
0001
0100
1000
,  // measure 161
0000
1000
0000
0001
,  // measure 162
0000
1000
0000
0001
,  // measure 163
0000
0010
0000
0100
,  // measure 164
0000
0010
1000
0100
,  // measure 165
0000
1001
0000
1000
,  // measure 166
0000
0001
0000
1001
,  // measure 167
0000
1000
0100
0001
,  // measure 168
0000
0001
0100
1000
,  // measure 169
0000
1000
0000
1001
,  // measure 170
0000
0001
0000
1001
,  // measure 171
0000
0010
0000
0100
,  // measure 172
0000
1001
1000
0000
,  // measure 173
0001
0001
0100
0000
,  // measure 174
0100
0100
2000
3000
,  // measure 175
0002
0003
1000
0001
,  // measure 176
1000
0000
0001
0000
,  // measure 177
1000
1000
0010
0000
,  // measure 178
0001
0001
0010
0000
,  // measure 179
0100
0000
0010
0100
,  // measure 180
0110
0000
0020
0030
,  // measure 181
1000
0000
0200
0300
,  // measure 182
0001
0000
1000
0000
,  // measure 183
0001
0000
0010
0100
,  // measure 184
0001
0000
1000
0000
,  // measure 185
0001
0001
1000
0000
,  // measure 186
0001
0000
0100
1000
,  // measure 187
0001
0000
2000
3000
,  // measure 188
0002
0003
1001
0000
,  // measure 189
0000
0000
0020
0030
,  // measure 190
1000
0100
0200
0300
,  // measure 191
0001
0100
0001
1000
,  // measure 192
0001
2000
0000
3001
,  // measure 193
0100
0002
0000
1003
,  // measure 194
0100
0020
0030
2002
,  // measure 195
3003
0200
0300
1000
,  // measure 196
0002
1003
0000
0100
,  // measure 197
1000
0100
0000
0001
,  // measure 198
1000
0001
0000
0010
,  // measure 199
0001
0010
0000
0010
,  // measure 200
0010
0000
0000
1001
0000
0000
0000
0000
,  // measure 201
0100
0000
0000
0110
0000
0000
0000
0000
,  // measure 202
0010
0000
0000
0220
0000
0000
0000
0000
,  // measure 203
0330
0000
0000
0000
,  // measure 204
1001
0000
0001
0001
,  // measure 205
0001
0000
1000
1000
,  // measure 206
1000
0000
0010
0000
,  // measure 207
0100
0000
0010
1000
,  // measure 208
0001
0000
0100
0100
,  // measure 209
0100
0000
0010
0010
,  // measure 210
0010
0000
1000
0100
,  // measure 211
0001
1000
0001
0100
,  // measure 212
1001
0000
2000
3000
,  // measure 213
0100
0000
0020
0030
,  // measure 214
0100
0000
0001
0001
,  // measure 215
1000
1000
0010
1000
,  // measure 216
1000
0002
0103
0200
,  // measure 217
0301
1000
0000
0001
,  // measure 218
0000
0001
1000
0001
,  // measure 219
1000
0010
0010
0100
,  // measure 220
0002
0000
0103
0000
,  // measure 221
2000
0000
3100
0000
,  // measure 222
0020
0000
0000
0030
,  // measure 223
0200
0000
0000
0300
,  // measure 224
0000
0000
0010
0100
,  // measure 225
0001
0001
1000
1000
,  // measure 226
0100
0100
0001
0001
,  // measure 227
1000
1000
0100
0001
,  // measure 228
1000
0001
0100
0010
,  // measure 229
0010
0010
1000
0100
,  // measure 230
0100
0100
0001
0100
,  // measure 231
0001
0001
1000
1000
,  // measure 232
0001
0000
0000
1000
0000
0000
0001
0000
,  // measure 233
2000
3100
0100
0001
,  // measure 234
0002
0103
0100
1000
,  // measure 235
0001
1000
1000
0100
,  // measure 236
0001
1000
0001
0100
,  // measure 237
2000
0100
3100
0010
,  // measure 238
0002
0100
0103
1000
,  // measure 239
0002
1000
2003
0001
,  // measure 240
3010
0001
0100
1000
,  // measure 241
0100
0000
0110
0000
0000
1000
0000
0000
,  // measure 242
0000
0000
0110
0000
0000
0001
0000
0000
,  // measure 243
0000
0000
0110
0000
0000
1001
0000
0000
,  // measure 244
0020
0000
0000
0030
,  // measure 245
0000
1000
0000
0100
,  // measure 246
0000
0010
0000
0001
,  // measure 247
0000
1000
0000
0001
,  // measure 248
0000
0100
0010
1000
,  // measure 249
0001
1000
0000
0100
,  // measure 250
0000
0010
0000
0001
,  // measure 251
0000
1000
0000
0001
,  // measure 252
0000
0100
0010
1000
,  // measure 253
0001
1000
0010
1000
,  // measure 254
0000
0001
0010
0001
,  // measure 255
0000
1000
0100
1000
,  // measure 256
0000
0001
0010
0001
,  // measure 257
0000
1000
0001
0010
,  // measure 258
0001
1000
0010
1000
,  // measure 259
0000
0001
0100
0001
,  // measure 260
0000
1000
0100
1000
,  // measure 261
0110
1000
1000
0100
,  // measure 262
0100
0010
0010
0001
,  // measure 263
1001
1000
1000
0010
,  // measure 264
0010
0100
0100
0001
,  // measure 265
1001
0001
0001
0100
,  // measure 266
0100
0010
0010
1000
,  // measure 267
1001
0001
0001
0010
,  // measure 268
0010
0100
0100
1000
,  // measure 269
1001
0020
0130
2000
,  // measure 270
3001
0200
0310
0002
,  // measure 271
0013
0020
1030
2000
,  // measure 272
3001
0200
1300
0002
,  // measure 273
0103
0020
0130
0002
,  // measure 274
1003
0200
0310
2000
,  // measure 275
3001
0020
1030
0002
,  // measure 276
0013
0200
0301
2000
,  // measure 277
3100
0100
0010
0100
,  // measure 278
0001
0100
0010
0100
,  // measure 279
1000
0010
0100
0010
,  // measure 280
0001
0010
1000
0010
,  // measure 281
0100
0000
0000
0000
1000
0000
0000
0001
0000
0000
1000
0000
0000
0100
0000
0000
,  // measure 282
0100
0000
0000
0000
0001
0000
0000
1000
0000
0000
0001
0000
0000
0100
0000
0000
,  // measure 283
0100
0000
0000
0000
0010
0000
0000
0100
0000
0000
0010
0000
0000
0100
0000
0000
,  // measure 284
0100
1001
0000
0000
,  // measure 285
0100
0000
0000
0000
1000
0000
0000
0100
0000
0000
0010
0000
0000
0100
0000
0000
,  // measure 286
1000
0000
0000
0000
0001
0000
0000
0010
0000
0000
0100
0000
0000
0010
0000
0000
,  // measure 287
0001
0000
0000
0000
1000
0000
0000
0100
0000
0000
0010
0000
0000
0100
0000
0000
,  // measure 288
1000
0000
0000
0000
0001
0000
0000
0010
0000
0000
0100
0000
0000
0010
0000
0000
,  // measure 289
0001
0000
0000
0000
1000
0000
0000
0010
0000
0000
0100
0000
0000
0010
0000
0000
,  // measure 290
1000
0000
0000
0000
0001
0000
0000
0100
0000
0000
0010
0000
0000
0100
0000
0000
,  // measure 291
0001
0000
0000
0000
1000
0000
0000
0010
0000
0000
0100
0000
0000
0010
0000
0000
,  // measure 292
1000
0001
0000
0000
,  // measure 293
0000
0000
1000
0000
0000
0100
0000
0000
,  // measure 294
1000
0000
0000
0001
0000
0000
0100
0000
,  // measure 295
0000
0000
0001
0000
0000
0100
0000
0000
,  // measure 296
0001
0000
0000
1000
0000
0000
0100
0000
,  // measure 297
0000
0000
1000
0000
0000
0010
0000
0000
,  // measure 298
1000
0000
0000
0001
0000
0000
0010
0000
,  // measure 299
0000
0000
0001
0000
0000
0010
0000
0000
,  // measure 300
0001
0000
1000
0000
0000
0010
0000
0000
,  // measure 301
0000
0100
0000
0101
,  // measure 302
0000
0100
0000
0000
,  // measure 303
0000
0010
0000
1010
,  // measure 304
0000
0010
0000
0000
,  // measure 305
0000
1000
0000
1100
,  // measure 306
0000
1000
0000
0000
,  // measure 307
0000
0001
0000
0101
,  // measure 308
0000
0001
0000
0100
,  // measure 309
0000
0010
0000
0011
,  // measure 310
0000
0010
0000
0000
,  // measure 311
0000
0100
0000
1100
,  // measure 312
0000
0100
0000
0000
,  // measure 313
0000
1000
0000
1010
,  // measure 314
0000
1000
0000
0000
,  // measure 315
0000
0001
0000
0011
,  // measure 316
0000
0001
0000
0010
,  // measure 317
0000
0100
0000
0011
,  // measure 318
0000
1000
0100
1000
,  // measure 319
0000
0100
0000
1010
,  // measure 320
0000
0001
0100
0001
,  // measure 321
0000
0100
0000
1010
,  // measure 322
0000
0010
0100
0001
,  // measure 323
0000
0100
0000
0011
,  // measure 324
0000
0010
0100
1000
,  // measure 325
0001
0000
1000
0000
0000
0100
0000
0000
,  // measure 326
1000
0000
0000
0010
0000
0000
1000
0000
,  // measure 327
0000
0000
0001
0000
0000
0100
0000
0000
,  // measure 328
0001
0000
0000
0010
0000
0000
0001
0000
,  // measure 329
0000
0000
0010
0000
0000
1000
0000
0000
,  // measure 330
0010
0000
0000
0001
0000
0000
0010
0000
,  // measure 331
0000
0000
0100
0000
0000
0001
0000
0000
,  // measure 332
0100
0000
0000
1000
0000
0000
0000
0000
,  // measure 333
0020
0200
0000
0000
,  // measure 334
0000
0000
0000
0000
,  // measure 335
0000
0000
0000
0000
0000
0000
0000
0000
0330
0000
0000
0000
0000
0000
0000
0100
0000
0000
0000
0000
0000
0000
0000
1000
0000
0000
0000
0000
0000
0000
0000
0010
,  // measure 336
0000
0000
0000
0001
0000
0000
0000
0000
0000
0000
0000
0010
0000
0000
0000
0000
0000
0000
0000
1000
0000
0000
0000
0100
0000
0000
0000
0000
0000
0000
0000
0000
,  // measure 337
0000
0000
0000
0010
0000
0000
0000
0000
0000
0000
0000
0001
0000
0000
0000
0000
0000
0000
0000
0100
0000
0000
0000
1000
0000
0000
0000
0000
0000
0000
0000
0001
,  // measure 338
0000
0000
0000
0000
0000
0000
0000
0100
0000
0000
0000
0001
0000
0000
0000
0000
0000
0000
0000
0000
0000
0000
0000
0100
0000
0000
0000
0000
0000
0000
0000
0010
,  // measure 339
0000
0000
0000
0000
0000
0000
0000
0001
0000
0000
0000
0100
0000
0000
0000
0000
0000
0000
0000
0010
0000
0000
0000
0000
0000
0000
0000
0001
0000
0000
0000
1000
,  // measure 340
0000
0000
0000
0000
0000
0000
0000
0010
0000
0000
0000
0000
0000
0000
0000
1000
0000
0000
0000
0000
0000
0000
0000
0100
0000
0000
0000
0001
0000
0000
0000
0000
,  // measure 341
0000
0000
0000
0010
0000
0000
0000
0000
0000
0000
0000
1000
0000
0000
0000
0010
0000
0000
0000
0000
0000
0000
0000
0001
0000
0000
0000
0010
0000
0000
0000
0000
,  // measure 342
0000
0000
0000
0001
0000
0000
0000
0000
0000
0000
0000
0100
0000
0000
0000
0000
0000
0000
0000
0010
0000
0000
0000
0000
0000
0000
0000
1000
0000
0000
0000
0000
,  // measure 343
0000
0000
0000
0001
0000
0000
0000
0000
0000
0000
0000
0010
0000
0000
0000
0100
0000
0000
0000
0000
0000
0000
0000
1000
0000
0000
0000
0000
0000
0000
0000
0110
,  // measure 344
0000
0000
0000
0000
0000
0000
0000
0001
0000
0000
0000
0000
0000
0000
0000
0100
0000
0000
0000
0000
0000
0000
0000
0010
0000
0000
0000
0000
0000
0000
0000
1000
,  // measure 345
0000
0000
0000
0000
0000
0000
0000
0100
0000
0000
0000
0000
0000
0000
0000
0010
0000
0000
0000
0000
0000
0000
0000
0100
0000
0000
0000
0000
0000
0000
0000
0010
,  // measure 346
0000
0000
0000
0001
0000
0000
0000
0000
0000
0000
0000
1000
0000
0000
0000
0000
0000
0000
0000
0010
0000
0000
0000
0100
0000
0000
0000
0000
0000
0000
0000
1001
,  // measure 347
0000
0000
0000
0000
0000
0000
0000
0010
0000
0000
0000
0000
0000
0000
0000
1000
0000
0000
0000
0000
0000
0000
0000
0100
0000
0000
0000
0000
0000
0000
0000
1000
,  // measure 348
0000
0000
0000
0000
0000
0000
0000
0010
0000
0000
0000
0000
0000
0000
0000
0001
0000
0000
0000
0000
0000
0000
0000
0100
0000
0000
0000
0000
0000
0000
0000
0001
,  // measure 349
0000
0000
0000
0000
0000
0000
0000
1000
0000
0000
0000
0000
0000
0000
0000
0001
0000
0000
0000
0100
0000
0000
0000
0000
0000
0000
0000
0010
0000
0000
0000
0000
,  // measure 350
0000
0000
0000
1000
0000
0000
0000
0000
0000
0000
0000
0010
0000
0000
0000
0000
0000
0000
0000
0001
0000
0000
0000
0000
0000
0000
0000
0010
0000
0000
0000
0000
,  // measure 351
0000
0000
0000
0100
0000
0000
0000
0000
0000
0000
0000
0010
0000
0000
0000
0000
0000
0000
0000
0001
0000
0000
0000
0000
0000
0000
0000
0100
0000
0000
0000
0000
,  // measure 352
0000
0000
0000
1000
0000
0000
0000
0000
0000
0000
0000
0100
0000
0000
0000
0000
0000
0000
0000
0001
0000
0000
0000
0000
0000
0000
0000
1000
0000
0000
0000
0001
,  // measure 353
0000
0010
0000
1000
0000
0010
0000
0100
,  // measure 354
1000
0001
0100
0000
0000
0000
0010
0000
0000
0000
0000
0000
0000
0000
0001
0000
0000
0000
0000
0000
0000
0000
0100
0000
0000
0000
0000
0000
0000
0000
0010
0000
,  // measure 355
0000
0000
0100
0000
0000
0000
0000
0000
0000
0000
0010
0000
0000
0000
0000
0000
0000
0000
1000
0000
0000
0000
0000
0000
0000
0000
0001
0000
0000
0000
0000
1000
,  // measure 356
0100
0010
0000
0000
0000
0000
0100
0000
0000
0000
0000
0000
0000
0000
0010
0000
0000
0000
0000
0000
0000
0000
0001
0000
0000
0000
0000
0000
0000
0000
1000
0000
,  // measure 357
0000
0000
0010
0000
0000
0000
0000
0000
0000
0000
0100
0001
1000
0000
0000
0000
0100
0000
0000
0000
0000
0000
0100
0000
0000
0000
0000
0000
0100
0000
0000
0000
,  // measure 358
0010
0000
1000
0002
0000
0000
0103
0000
,  // measure 359
0010
0100
0001
0100
,  // measure 360
0001
0100
0010
0100
,  // measure 361
1000
0100
0010
0001
,  // measure 362
1000
0010
0001
0100
,  // measure 363
1000
0010
0001
0100
,  // measure 364
0010
0001
0100
0000
0010
1000
0100
0000
,  // measure 365
0010
0100
1000
0000
0010
0100
0001
0000
,  // measure 366
1001
0000
0000
0000
;

//---------------dance-single - ----------------
#NOTES:
     dance-single:
     :
     Medium:
     7:
     0.513,0.649,0.470,0.121,0.195: // measure 1
0000
0000
0000
0000
,  // measure 2
0000
0000
0000
0000
,  // measure 3
0000
0000
0000
0000
,  // measure 4
0000
0000
0000
0000
,  // measure 5
1010
1001
0100
0110
,  // measure 6
0010
0001
0010
0000
0100
0000
0110
0000
,  // measure 7
0100
1000
0100
0000
0100
0000
0110
0000
,  // measure 8
0001
1000
0100
0000
0010
0000
0110
0000
,  // measure 9
0010
0001
0020
0000
0130
0000
1100
0000
,  // measure 10
0010
0100
0010
0000
0100
0000
0011
0000
,  // measure 11
0100
1000
0100
0010
0100
0000
0110
0000
,  // measure 12
0011
0110
1100
1001
,  // measure 13
0010
1000
0020
0000
0130
0000
0101
0000
,  // measure 14
0010
0100
0010
0000
0100
0000
1010
0000
,  // measure 15
0100
0001
0100
0010
0100
0000
0110
0000
,  // measure 16
1010
0110
0101
1001
,  // measure 17
1100
0000
0101
0000
0010
0100
0010
0100
,  // measure 18
0000
0110
0100
1001
,  // measure 19
0010
0000
1010
0000
0100
0001
0100
0010
,  // measure 20
0000
1001
0100
1010
,  // measure 21
0101
0000
1100
0000
0010
0100
0010
0100
,  // measure 22
0000
0110
0100
1001
,  // measure 23
0010
0000
0011
0000
0100
1000
0100
0010
,  // measure 24
0000
1001
0100
0011
,  // measure 25
0100
0000
0000
0100
0010
0000
0011
0000
,  // measure 26
0100
0000
0000
1000
0000
0000
1100
0000
,  // measure 27
0010
0000
0000
0010
0100
0000
1100
0000
,  // measure 28
0010
0000
0000
0001
0000
0000
0011
0000
,  // measure 29
0110
1100
1001
0101
,  // measure 30
0110
1010
0110
0011
,  // measure 31
0110
1010
1001
1100
,  // measure 32
0110
0101
0110
1100
,  // measure 33
0001
0100
0002
0000
1003
0000
1010
0000
,  // measure 34
0100
0010
1000
1010
,  // measure 35
0100
0001
0100
0000
0010
0000
0110
0000
,  // measure 36
0101
1001
1100
0110
,  // measure 37
1000
0100
2000
0000
3001
0000
0011
0000
,  // measure 38
0100
0010
0001
0011
,  // measure 39
0100
1000
0100
0000
0010
0000
0110
0000
,  // measure 40
1100
1001
0101
0110
,  // measure 41
1010
0000
0101
0000
0100
0001
1000
0010
,  // measure 42
0000
0010
1000
0000
1001
0000
0101
0000
,  // measure 43
0010
1000
0001
0000
0010
0000
0011
0000
,  // measure 44
0100
0010
0001
0000
1100
0000
1001
0000
,  // measure 45
0101
0000
1010
0000
0010
1000
0001
0100
,  // measure 46
0000
0100
0001
0000
1001
0000
1010
0000
,  // measure 47
0100
0001
1000
0000
0100
0000
1100
0000
,  // measure 48
0010
0100
1000
0000
0011
0000
1001
0000
,  // measure 49
1010
0000
0011
0000
0100
0010
1000
0001
,  // measure 50
0000
0000
0011
0000
0100
0010
0001
1000
,  // measure 51
0000
0000
1010
0000
0100
0001
1000
0010
,  // measure 52
0000
0110
1000
1010
,  // measure 53
0011
0000
1010
0000
0100
0010
0001
1000
,  // measure 54
0000
0000
1010
0000
0100
0010
1000
0001
,  // measure 55
0100
0110
0001
1001
,  // measure 56
1100
0110
0011
1001
,  // measure 57
0100
0000
0000
0010
0000
0000
0001
0000
0000
1000
0000
0000
0010
0000
0110
0000
,  // measure 58
1001
0000
0000
0000
0000
0000
0010
1000
,  // measure 59
0010
0000
1000
0000
0010
0000
0100
0001
,  // measure 60
0100
0000
0001
0000
0100
0000
1000
0010
,  // measure 61
1000
0000
0001
0000
0100
0000
0001
0100
,  // measure 62
0001
0000
1000
0000
0000
0100
0000
0010
,  // measure 63
0001
0000
1000
0000
0100
0000
0100
0010
,  // measure 64
0100
0000
0001
0000
1000
0000
0100
1000
,  // measure 65
0100
0010
0000
1000
0000
0001
0000
0100
,  // measure 66
0010
1000
0000
0100
,  // measure 67
0010
0000
1000
0000
0100
0000
0001
1000
,  // measure 68
0001
0000
0010
0000
0100
0000
1000
0001
,  // measure 69
1000
0000
0001
0000
0010
0000
0100
0010
,  // measure 70
1000
0000
0001
0000
0000
0100
0000
1000
,  // measure 71
0010
0000
0000
1000
0001
0000
1000
0000
,  // measure 72
0000
0100
0000
0001
0000
0010
0001
0100
,  // measure 73
1000
0000
0010
0000
0010
0000
0001
1000
,  // measure 74
0100
0100
1000
1001
,  // measure 75
0020
0000
0000
0000
0030
0000
0100
1000
,  // measure 76
0020
0000
0000
0000
0030
0000
0001
1000
,  // measure 77
0020
0000
0000
0000
0030
0000
0100
0001
,  // measure 78
0020
0000
0000
0000
0030
0000
1000
0001
,  // measure 79
0020
0000
0000
0000
0030
0000
0001
0100
,  // measure 80
0010
0000
2000
0000
3000
0000
1000
0100
,  // measure 81
0010
0000
0002
0000
0000
0000
0003
0100
,  // measure 82
1000
0001
0000
0010
0000
1000
0000
0100
,  // measure 83
0020
0030
1000
0001
,  // measure 84
2000
0000
3000
0000
0100
0000
0100
0001
,  // measure 85
0020
0030
0001
1000
,  // measure 86
0002
0003
0100
0100
,  // measure 87
0020
0100
0000
1000
0000
0100
0000
1000
,  // measure 88
0000
0100
0000
1000
0030
0000
0100
0001
,  // measure 89
0020
0100
0000
0001
0000
0100
0000
0001
,  // measure 90
0000
0100
0000
0001
0030
0000
1000
0001
,  // measure 91
0020
0001
0000
1000
0000
0001
0000
1000
,  // measure 92
0000
0001
0000
1000
0030
0001
0000
0000
,  // measure 93
0010
0000
0001
0000
1000
0100
0010
0001
,  // measure 94
0000
0000
0000
1000
,  // measure 95
0001
0010
0001
0000
0100
0000
0100
0000
,  // measure 96
0001
0001
1000
1000
,  // measure 97
1000
0010
1000
0000
0100
0000
0100
0000
,  // measure 98
1000
0000
1000
0000
0001
0100
0000
0001
,  // measure 99
0010
0100
0010
0000
1000
0000
0001
0100
,  // measure 100
0010
0100
0010
0000
0001
0000
1000
0000
,  // measure 101
0100
0001
0000
0010
0000
0100
0000
1000
,  // measure 102
0010
0000
1000
0000
0001
0000
0100
0010
,  // measure 103
0001
0010
0001
0000
0100
0000
0100
0000
,  // measure 104
0001
0001
1000
1000
,  // measure 105
1000
0010
1000
0000
0100
0000
0100
0000
,  // measure 106
0001
0010
0000
1000
0000
0010
0000
0100
,  // measure 107
0010
1000
0000
0100
0001
0000
0010
0000
,  // measure 108
0000
1000
0000
0001
0000
0010
0001
0100
,  // measure 109
0010
0000
1000
0100
1000
0000
0001
0000
,  // measure 110
0010
0000
0001
0100
0001
0000
1000
0000
,  // measure 111
0010
0000
1000
0001
1000
0000
0100
0000
,  // measure 112
1001
0000
0000
0100
0110
0000
0000
0000
,  // measure 113
0000
0010
0001
1000
,  // measure 114
1001
0100
1000
0001
,  // measure 115
1001
0010
0001
0100
,  // measure 116
1000
0010
1000
0100
,  // measure 117
0100
0010
1000
0001
,  // measure 118
1001
0100
0001
1000
,  // measure 119
1001
0010
1000
0001
,  // measure 120
0010
0100
1000
0001
,  // measure 121
0000
0110
0001
0110
,  // measure 122
1000
0010
0100
0001
,  // measure 123
0010
1100
0010
1000
,  // measure 124
0100
0010
0001
1000
,  // measure 125
1000
0010
1000
0100
,  // measure 126
1000
0001
0101
1000
,  // measure 127
0100
0010
0110
0001
,  // measure 128
0010
0100
1000
0010
,  // measure 129
0000
0010
0001
0100
,  // measure 130
0001
1000
0000
1000
0001
0000
0100
0000
,  // measure 131
0001
0010
0100
1000
,  // measure 132
0100
0010
0000
0010
0100
0000
1000
0000
,  // measure 133
0001
2000
0000
0200
,  // measure 134
3300
0001
0100
1000
,  // measure 135
1000
0010
1000
0100
,  // measure 136
0010
0100
0000
1000
0001
0000
0100
0000
,  // measure 137
0010
0010
1000
0100
,  // measure 138
1000
0001
0000
0001
1000
0000
0100
0000
,  // measure 139
1000
0010
0100
0001
,  // measure 140
0100
0010
0000
0010
0100
0000
0001
0000
,  // measure 141
1000
0020
0000
0200
,  // measure 142
0330
0001
0001
1000
,  // measure 143
0001
0010
0001
1000
,  // measure 144
0010
0100
0000
0001
1000
0000
0001
0000
,  // measure 145
0100
2000
0000
3010
,  // measure 146
0000
0002
0000
0013
,  // measure 147
0000
2000
3000
0002
,  // measure 148
0003
0100
0001
1000
,  // measure 149
0100
2000
0000
3010
,  // measure 150
0000
0002
0000
0013
,  // measure 151
0000
0200
0300
0020
,  // measure 152
0030
0001
1000
0001
,  // measure 153
0100
0010
1001
0100
,  // measure 154
0001
1000
0000
1000
0001
0000
0100
0000
,  // measure 155
1001
0001
0101
1000
,  // measure 156
1000
0100
0000
0001
0100
0000
1000
0000
,  // measure 157
0100
0020
0030
0200
,  // measure 158
0300
0010
0100
0010
,  // measure 159
0100
0010
1000
0100
,  // measure 160
1000
1000
0100
0001
,  // measure 161
0100
1000
1100
0001
,  // measure 162
0001
0100
0000
1000
0100
0000
0001
0000
,  // measure 163
0100
0010
1001
0100
,  // measure 164
1000
0001
0000
0001
1000
0000
0100
0000
,  // measure 165
1001
2000
0000
0002
,  // measure 166
3003
1000
0100
0001
,  // measure 167
0100
0010
1000
0001
,  // measure 168
0010
0100
1000
0001
,  // measure 169
0100
1000
0100
0001
,  // measure 170
0100
1000
1000
0001
,  // measure 171
0001
1000
0100
0001
,  // measure 172
0010
1000
0110
0010
,  // measure 173
0010
0000
0010
0001
1000
0000
1000
0000
,  // measure 174
0001
0100
0001
0000
0100
0000
0100
0000
,  // measure 175
0100
0010
0100
0000
1000
0100
1000
0000
,  // measure 176
0001
0000
0001
0100
,  // measure 177
1000
0100
0001
0100
,  // measure 178
1000
0001
1000
0000
0001
0000
0100
0000
,  // measure 179
1000
0010
0001
0100
,  // measure 180
1001
0000
0100
1000
,  // measure 181
2000
3000
0100
0010
,  // measure 182
0002
0000
0003
0000
1000
0001
1000
0000
,  // measure 183
0001
0100
0001
0000
0010
0000
0010
0000
,  // measure 184
0110
0000
0001
0001
,  // measure 185
0001
1000
0001
0000
0100
0000
0100
0000
,  // measure 186
0010
0100
0001
0000
1000
0000
1000
0000
,  // measure 187
1000
0001
1000
0000
0001
0010
0001
1000
,  // measure 188
0100
0000
1001
0001
,  // measure 189
0010
0000
1000
0001
0000
0100
0000
0010
,  // measure 190
0000
1000
0001
0100
0000
0010
0000
0100
,  // measure 191
0000
0001
0010
0100
0000
0001
0000
0101
,  // measure 192
0000
0000
0000
1000
0000
0001
0000
0100
,  // measure 193
0001
0010
0000
1000
0000
0100
0000
1000
,  // measure 194
0010
0100
0000
0001
0000
1000
0000
0001
,  // measure 195
0010
0100
0000
1000
0000
0001
0000
1000
,  // measure 196
0200
0000
0300
1000
0000
0010
0000
0100
,  // measure 197
0001
0010
0000
0001
0000
0001
0000
0010
,  // measure 198
0100
1000
0000
0010
0000
0001
0000
1000
,  // measure 199
0001
0100
0000
0001
0000
1000
0000
0000
,  // measure 200
0010
0000
0000
0101
0000
0000
0000
0000
,  // measure 201
1000
0000
0000
1100
0000
0000
0000
0000
,  // measure 202
0010
0000
0000
0220
0000
0000
0000
0000
,  // measure 203
0000
0000
0000
0330
,  // measure 204
1001
0000
1001
0100
,  // measure 205
0001
0100
1000
1000
,  // measure 206
0001
0100
0001
0000
1000
0000
0100
0000
,  // measure 207
1000
0100
0001
0001
,  // measure 208
1000
0010
1000
0000
0010
0000
0010
0000
,  // measure 209
1000
0010
0100
0100
,  // measure 210
0001
0100
0001
0100
,  // measure 211
1000
0000
0100
0000
0001
0010
0100
0000
,  // measure 212
1001
0000
0002
0003
,  // measure 213
0100
0100
2000
3000
,  // measure 214
0010
0010
1000
0000
,  // measure 215
0001
0001
0010
1000
,  // measure 216
0001
0200
0300
0001
,  // measure 217
0001
0020
0030
1000
,  // measure 218
1000
0010
0000
0001
,  // measure 219
0001
1000
0001
0100
,  // measure 220
0002
0000
0000
0000
,  // measure 221
2003
0000
0000
0000
,  // measure 222
3200
0000
0000
0000
,  // measure 223
0020
0000
0000
0000
,  // measure 224
0330
0000
0001
1000
,  // measure 225
1000
0001
0000
0100
0000
0020
0000
1030
,  // measure 226
0000
0100
0000
0100
0000
1000
0001
1000
,  // measure 227
0000
0001
0000
1000
0000
0010
0000
0200
,  // measure 228
0000
0301
0000
1000
0000
2002
0000
3003
,  // measure 229
0000
0001
0000
0001
0000
0100
0000
1000
,  // measure 230
0000
0001
0000
0100
0000
0001
1000
0001
,  // measure 231
0000
0100
0000
0100
0000
0100
0000
0001
,  // measure 232
0100
0000
0000
1001
0000
0000
1010
0000
,  // measure 233
0010
0100
0000
0010
0000
0001
0000
0001
,  // measure 234
0000
0010
0000
0100
0000
1000
0001
1000
,  // measure 235
0000
0100
0000
0001
0000
0100
0000
0010
,  // measure 236
0000
1000
0000
0100
0000
0002
0000
0103
,  // measure 237
0000
1000
0000
1000
0000
0001
0000
0001
,  // measure 238
0000
0010
0000
1000
0000
0100
1000
0001
,  // measure 239
0000
0001
0000
1000
0000
1000
0000
0001
,  // measure 240
0000
0100
0000
0100
0000
1000
0010
0100
,  // measure 241
0000
0000
2001
0000
0000
0200
0000
0000
,  // measure 242
3300
0000
1002
0000
0000
0200
0000
0000
,  // measure 243
0303
0000
1001
0000
0000
0110
0000
0000
,  // measure 244
2002
0000
0000
0000
,  // measure 245
3003
0000
0000
0000
0100
0000
0000
0000
0001
0000
0000
0000
0100
0000
0000
0010
,  // measure 246
1000
0000
0000
0000
0100
0000
0000
0000
1000
0000
0000
0000
0100
0000
0000
0010
,  // measure 247
0001
0000
0000
0000
1000
0000
0000
0000
0001
0000
0000
0000
1000
0000
0000
0010
,  // measure 248
0100
1001
0010
1001
,  // measure 249
0100
0000
0000
0000
0010
0000
0000
0000
0001
0000
0000
0000
0010
0000
0000
0100
,  // measure 250
1000
0000
0000
0000
0010
0000
0000
0000
1000
0000
0000
0000
0010
0000
0000
0100
,  // measure 251
0001
0000
0000
0000
1000
0000
0000
0000
0001
0000
0000
0000
1000
0000
0000
0100
,  // measure 252
0010
0000
0000
0000
1001
0000
0000
0000
0100
0000
0000
0000
1001
0000
0000
0010
,  // measure 253
0100
0000
0000
0000
0010
0000
0000
0000
0011
0000
0000
0000
0100
1000
0000
0000
,  // measure 254
1000
0000
0000
0000
0100
0000
0000
0000
0101
0000
0000
1000
0100
0000
0000
0000
,  // measure 255
0000
0000
0000
0100
0010
0000
0000
0000
1010
0000
0000
0000
0100
0001
0000
0000
,  // measure 256
0001
0000
0000
0000
0100
0000
0000
0000
1100
0000
0000
0001
0100
0000
0000
0000
,  // measure 257
0000
0000
0000
0010
0100
0000
0000
0000
0101
0000
0000
0000
0010
1000
0000
0000
,  // measure 258
1000
0000
0000
0000
0010
0000
0000
0000
0011
0000
0000
1000
0010
0000
0000
0000
,  // measure 259
0000
0000
0000
0010
0100
0000
0000
0000
1100
0000
0000
0000
0010
0001
0000
0000
,  // measure 260
0001
0000
0000
0000
0010
0000
0000
0000
1010
0000
0000
0001
0010
0000
0000
0000
,  // measure 261
0000
0000
0000
0100
0010
0000
0000
0010
0001
0000
0000
0001
0010
0000
0000
0010
,  // measure 262
1000
0000
0000
1000
0010
0000
0000
0000
0011
0000
0000
0000
0100
0000
0000
0000
,  // measure 263
1100
0000
0000
0000
0010
0000
0000
0010
1000
0000
0000
1000
0010
0000
0000
0010
,  // measure 264
0001
0000
0000
0001
0010
0000
0000
0000
1010
0000
0000
0000
0100
0000
0000
0000
,  // measure 265
0101
0000
0000
0000
0100
0000
0000
0100
0001
0000
0000
0001
0100
0000
0000
0100
,  // measure 266
1000
0000
0000
1000
0100
0000
0000
0000
0101
0000
0000
0000
0010
0000
0000
0000
,  // measure 267
1010
0000
0000
0000
0100
0000
0000
0100
1000
0000
0000
1000
0100
0000
0000
0100
,  // measure 268
0001
0000
0000
0001
0100
0000
0000
0000
1100
0000
0000
0000
0010
0000
0000
0000
,  // measure 269
0011
1000
1001
1000
,  // measure 270
0101
1000
1001
1000
,  // measure 271
0101
0001
1001
0001
,  // measure 272
1100
0001
1001
0001
,  // measure 273
1100
1000
0011
1000
,  // measure 274
0101
1000
0011
1000
,  // measure 275
0101
0001
1010
0001
,  // measure 276
1100
0001
1010
0001
,  // measure 277
1100
0000
0000
0000
0100
0000
0000
0010
0001
0000
0000
0000
0010
0000
0000
0000
,  // measure 278
0001
0000
0000
0000
0100
0000
0000
0010
1000
0000
0000
0000
0010
0000
0000
0100
,  // measure 279
0001
0000
0000
0000
0100
0000
0000
0010
1000
0000
0000
0000
0010
0000
0000
0000
,  // measure 280
1000
0000
0000
0000
0100
0000
0000
0010
0001
0000
0000
0000
0010
0000
0000
0100
,  // measure 281
1000
0000
0000
0000
0001
0000
0000
1000
0000
0000
0001
0000
0000
0100
0000
0000
,  // measure 282
0110
0000
0000
0000
1000
0000
0000
0001
0000
0000
1000
0000
0000
0100
0000
0000
,  // measure 283
0110
0000
0000
0000
0010
0000
0000
0100
0000
0000
0010
0000
0000
0100
0000
0000
,  // measure 284
0110
1001
0000
0000
,  // measure 285
0100
0000
0000
0000
0001
0000
0000
0110
0000
0000
0011
0000
0000
0110
0000
0000
,  // measure 286
0001
0000
0000
0000
1000
0000
0000
0110
0000
0000
1100
0000
0000
0110
0000
0000
,  // measure 287
1000
0000
0000
0000
0001
0000
0000
0110
0000
0000
0011
0000
0000
0110
0000
0000
,  // measure 288
0001
0000
0000
0000
1000
0000
0000
0110
0000
0000
1100
0000
0000
0110
0000
0000
,  // measure 289
1000
0000
0000
0000
0001
0000
0000
0110
0000
0000
1100
0000
0000
0110
0000
0000
,  // measure 290
0001
0000
0000
0000
1000
0000
0000
0110
0000
0000
0011
0000
0000
0110
0000
0000
,  // measure 291
1000
0000
0000
0000
0001
0000
0000
0110
0000
0000
1100
0000
0000
0110
0000
0000
,  // measure 292
0001
1001
0000
0000
,  // measure 293
0000
0000
1010
0000
0000
1001
0000
0000
,  // measure 294
1100
0000
0000
0110
0000
0000
0011
0000
,  // measure 295
0000
0000
0110
0000
0000
1100
0000
0000
,  // measure 296
1001
0000
0000
0101
0000
0000
0110
0000
,  // measure 297
0000
0000
0101
0000
0000
1001
0000
0000
,  // measure 298
0011
0000
0000
0110
0000
0000
1100
0000
,  // measure 299
0000
0000
0010
0000
0000
0001
0000
0000
,  // measure 300
1000
0000
0000
0100
0000
0000
0010
0000
,  // measure 301
0000
0000
0001
0000
0000
1000
0100
0000
,  // measure 302
0000
1000
0000
0011
,  // measure 303
0000
0000
1000
0000
0000
0001
0100
0000
,  // measure 304
0000
0001
0000
1010
,  // measure 305
0000
0000
0001
0000
0000
1000
0010
0000
,  // measure 306
0000
1000
0000
0101
,  // measure 307
0000
0000
1000
0000
0000
0001
0010
0000
,  // measure 308
0000
0001
0000
1100
,  // measure 309
0000
0010
0100
0000
0000
0010
0001
0000
,  // measure 310
0000
0010
0000
1001
,  // measure 311
0000
0000
0100
0000
0000
0010
1000
0000
,  // measure 312
0000
0010
0000
1001
,  // measure 313
0000
0000
0010
0000
0000
0100
0001
0000
,  // measure 314
0000
0100
0000
1001
,  // measure 315
0000
0000
0010
0000
0000
0100
1000
0000
,  // measure 316
0000
0100
0000
1001
,  // measure 317
0000
0010
0100
0000
1000
0000
0100
0000
,  // measure 318
1000
0010
0001
0010
,  // measure 319
0001
0100
0010
0100
,  // measure 320
0010
1000
0001
1000
,  // measure 321
0001
0100
0001
0100
,  // measure 322
0001
0010
1000
0010
,  // measure 323
1000
0100
0001
0100
,  // measure 324
0001
0010
1000
0010
,  // measure 325
1000
0000
0101
0000
0000
0110
0000
0000
,  // measure 326
1010
0000
0000
0110
0000
0000
0101
0000
,  // measure 327
0000
0000
1100
0000
0000
0110
0000
0000
,  // measure 328
0011
0000
0000
0110
0000
0000
1100
0000
,  // measure 329
0000
0000
0101
0000
0000
0110
0000
0000
,  // measure 330
1001
0000
0000
0110
0000
0000
0101
0000
,  // measure 331
0000
0000
1000
0000
0000
0010
0000
0000
,  // measure 332
1000
0000
0000
0100
0000
0000
0000
0000
,  // measure 333
0020
0200
0000
0000
,  // measure 334
0000
0000
0000
0000
,  // measure 335
0000
0000
0000
0000
0000
0000
0000
0000
0330
0000
0000
0000
0000
0000
0000
0100
0000
0000
0000
0000
0000
0000
0000
0010
0000
0000
0000
0100
0000
0000
0000
0001
,  // measure 336
0000
0000
0000
0100
0000
0000
0000
0000
0000
0000
0000
1000
0000
0000
0000
0100
0000
0000
0000
0010
0000
0000
0000
0000
0000
0000
0000
0001
0000
0000
0000
0100
,  // measure 337
0000
0000
0000
0000
0000
0000
0000
0000
0000
0000
0000
0001
0000
0000
0000
0010
0000
0000
0000
1000
0000
0000
0000
0001
0000
0000
0000
0000
0000
0000
0000
0001
,  // measure 338
0000
0000
0000
0010
0000
0000
0000
0001
0000
0000
0000
0000
0000
0000
0000
1000
0000
0000
0000
0010
0000
0000
0000
0000
0000
0000
0000
0000
0000
0000
0000
0100
,  // measure 339
0000
0000
0000
0001
0000
0000
0000
0010
0000
0000
0000
0100
0000
0000
0000
0000
0000
0000
0000
0010
0000
0000
0000
0001
0000
0000
0000
1000
0000
0000
0000
0000
,  // measure 340
0000
0000
0000
0001
0000
0000
0000
0100
0000
0000
0000
0000
0000
0000
0000
0000
0000
0000
0000
1000
0000
0000
0000
0010
0000
0000
0000
0001
0000
0000
0000
0100
,  // measure 341
0000
0000
0000
0000
0000
0000
0000
0010
0000
0000
0000
1000
0000
0000
0000
0100
0000
0000
0000
0000
0000
0000
0000
0001
0000
0000
0000
0100
0000
0000
0000
0000
,  // measure 342
0000
0000
0000
0001
0000
0000
0000
0000
0000
0000
0000
0000
0000
0000
0000
0010
0000
0000
0000
0100
0000
0000
0000
0000
0000
0000
0000
1000
0000
0000
0000
0001
,  // measure 343
0000
0000
0000
1000
0000
0000
0000
0000
0000
0000
0000
0100
0000
0000
0000
0010
0000
0000
0000
0100
0000
0000
0000
1000
0000
0000
0000
0000
0000
0000
0000
0110
,  // measure 344
0000
0000
0000
0000
0000
0000
0000
0001
0000
0000
0000
0010
0000
0000
0000
0000
0000
0000
0000
0001
0000
0000
0000
0100
0000
0000
0000
0000
0000
0000
0000
1000
,  // measure 345
0000
0000
0000
0001
0000
0000
0000
0010
0000
0000
0000
0000
0000
0000
0000
0100
0000
0000
0000
0000
0000
0000
0000
0010
0000
0000
0000
0001
0000
0000
0000
0100
,  // measure 346
0000
0000
0000
0001
0000
0000
0000
1000
0000
0000
0000
0000
0000
0000
0000
0010
0000
0000
0000
0100
0000
0000
0000
0010
0000
0000
0000
0000
0000
0000
0000
0001
,  // measure 347
0000
0000
0000
0100
0000
0000
0000
0001
0000
0000
0000
0000
0000
0000
0000
1000
0000
0000
0000
0100
0000
0000
0000
0001
0000
0000
0000
0000
0000
0000
0000
1000
,  // measure 348
0000
0000
0000
0100
0000
0000
0000
0001
0000
0000
0000
0000
0000
0000
0000
1000
0000
0000
0000
0100
0000
0000
0000
0010
0000
0000
0000
0000
0000
0000
0000
0001
,  // measure 349
0000
0000
0000
0010
0000
0000
0000
1000
0000
0000
0000
0000
0000
0000
0000
0001
0000
0000
0000
0010
0000
0000
0000
0001
0000
0000
0000
0100
0000
0000
0000
0000
,  // measure 350
0000
0000
0000
0010
0000
0000
0000
0001
0000
0000
0000
0100
0000
0000
0000
0000
0000
0000
0000
0010
0000
0000
0000
1000
0000
0000
0000
0100
0000
0000
0000
0000
,  // measure 351
0000
0000
0000
0010
0000
0000
0000
1000
0000
0000
0000
0100
0000
0000
0000
0001
0000
0000
0000
0100
0000
0000
0000
0000
0000
0000
0000
0010
0000
0000
0000
0100
,  // measure 352
0000
0000
0000
1000
0000
0000
0000
0000
0000
0000
0000
0010
0000
0000
0000
0100
0000
0000
0000
0001
0000
0000
0000
0000
0000
0000
0000
1000
0000
0000
0000
0001
,  // measure 353
0010
0100
0000
1000
0001
0100
0000
0010
,  // measure 354
1000
0001
0010
0100
0000
0000
0000
0010
0000
0000
0000
0000
0000
0000
0000
0100
0000
0000
0000
1000
0000
0000
0000
0010
0000
0000
0000
0000
0000
0000
0000
0100
,  // measure 355
0000
0000
0000
0010
0000
0000
0000
0000
0000
0000
0000
0100
0000
0000
0000
0001
0000
0000
0000
1000
0000
0000
0000
0000
0000
0000
0000
0100
0000
0000
0000
1000
,  // measure 356
0010
0100
0001
0000
0000
0000
0010
0000
0000
0000
0000
0000
0000
0000
0100
0000
0000
0000
0001
0000
0000
0000
0100
0000
0000
0000
0000
0000
0000
0000
1000
0000
,  // measure 357
0000
0000
0010
0000
0000
0000
1000
0000
0000
0000
0001
0100
1000
0000
0000
0000
0000
0000
0010
0000
0000
0000
0000
0000
0100
0000
0000
0000
0000
0000
0001
0000
,  // measure 358
0000
0010
0000
0000
1000
0000
0002
0000
0000
0000
0000
0000
0013
0000
1000
0000
,  // measure 359
0100
0000
0000
0010
0000
0000
0100
0000
0001
0000
1000
0000
0010
0000
0000
0100
,  // measure 360
0000
0000
0001
0000
0100
0000
1000
0000
0100
0000
0000
0010
0000
0000
0001
0000
,  // measure 361
1000
0000
0001
0000
0010
0000
0000
0100
0000
0000
0010
0000
0001
0000
0000
0000
,  // measure 362
1000
0100
0001
0000
1000
0100
0001
0000
,  // measure 363
1000
0010
0001
0000
1000
0010
0001
0000
,  // measure 364
0100
0001
0010
0001
0100
0001
0010
0001
,  // measure 365
0100
0010
1000
0100
0010
0001
0100
0010
,  // measure 366
1001
0000
0000
0000
;

//---------------dance-single - ----------------
#NOTES:
     dance-single:
     :
     Hard:
     10:
     0.702,1.000,0.409,0.113,0.483: // measure 1
0000
0000
0000
0000
,  // measure 2
0000
0000
0000
0000
,  // measure 3
0000
0000
0000
0000
,  // measure 4
0000
0000
0000
0000
,  // measure 5
1010
0000
0101
0000
0010
0100
1000
0100
,  // measure 6
0000
0000
0010
0000
0010
0000
0000
0000
0101
0000
0000
1010
0000
0000
1001
0000
,  // measure 7
0000
0000
0100
0000
0100
0000
0000
0000
0011
0000
0000
1100
0000
0000
1001
0000
,  // measure 8
0000
0000
0010
0000
0100
0000
0000
0000
1100
0000
0000
0011
0000
0000
1001
0000
,  // measure 9
0100
1000
0100
0010
0001
1000
0001
0000
,  // measure 10
0010
0001
0100
0001
0010
0100
0010
0000
,  // measure 11
0100
0001
0100
0010
1000
0010
0001
1000
,  // measure 12
0010
0000
0010
0000
0010
0000
0100
0010
0000
0000
0000
0000
1010
0000
0000
0000
,  // measure 13
0100
0001
0100
0010
1000
0001
1000
0000
,  // measure 14
0010
1000
0100
1000
0010
0100
0010
0000
,  // measure 15
0100
1000
0100
0010
0001
0010
1000
0001
,  // measure 16
0010
0000
0010
0000
0010
0000
0100
0010
0000
0000
0100
0000
1100
0000
0000
0000
,  // measure 17
0011
0000
1001
0000
0010
0100
0010
1000
,  // measure 18
0000
0001
1000
0100
0010
0001
0100
0010
,  // measure 19
0000
0010
0100
1000
0001
0010
0100
0010
,  // measure 20
0000
0000
0100
0000
1000
0000
0001
0000
1001
0000
0000
0101
0000
0000
0110
0000
,  // measure 21
1010
0000
1001
0000
0010
0100
0010
0001
,  // measure 22
0000
1000
0001
0100
0010
1000
0100
0010
,  // measure 23
0000
0010
0100
0001
1000
0010
0100
0010
,  // measure 24
0000
0000
0100
0000
0001
0000
1000
0000
1001
0000
0000
1100
0000
0000
0110
0000
,  // measure 25
0001
0000
0000
0001
0000
0000
0001
0000
0100
0000
0010
0000
0100
0000
0001
0000
,  // measure 26
1000
0000
0000
1000
0000
0000
0100
0000
0000
0000
1000
0000
0010
0000
0010
0000
,  // measure 27
1000
0000
0000
1000
0000
0000
1000
0000
0100
0000
0010
0000
0100
0000
1000
0000
,  // measure 28
0001
0000
0000
0001
0000
0000
0100
0000
0000
0000
0001
0000
0010
0000
0010
0000
,  // measure 29
0100
1000
0100
0010
0100
0001
0100
0010
,  // measure 30
0100
1000
0100
0010
0100
0001
0100
0000
,  // measure 31
0010
1000
0010
0100
0010
0001
0010
0100
,  // measure 32
0010
0000
0011
0000
0100
1000
1100
0000
,  // measure 33
0010
0000
0001
0000
0010
0000
0100
0010
0000
0000
0100
0000
1000
0000
0001
0000
,  // measure 34
0100
0000
1000
0000
0100
0000
0010
0100
0000
0000
0010
0000
1001
0000
0000
0000
,  // measure 35
1000
0000
0100
0000
1000
0000
0001
0010
0000
0000
0100
0000
0010
0000
0001
0000
,  // measure 36
1000
0000
1000
0000
1000
0000
0001
1000
0000
0000
0100
0000
0110
0000
0000
0000
,  // measure 37
0100
0000
1000
0000
0100
0000
0010
0100
0000
0000
0010
0000
0001
0000
1000
0000
,  // measure 38
0010
0000
0001
0000
0010
0000
0100
0010
0000
0000
0100
0000
1001
0000
0000
0000
,  // measure 39
0001
0000
0010
0000
0001
0000
1000
0100
0000
0000
0010
0000
0100
0000
1000
0000
,  // measure 40
0001
0000
0001
0000
0001
0000
1000
0001
0000
0000
0100
0000
0110
0000
0000
0000
,  // measure 41
0101
0000
0110
0000
0010
1000
0010
0100
,  // measure 42
0000
0000
0001
0000
0100
0000
0010
0000
1000
0000
0000
1000
0000
0000
0001
0000
,  // measure 43
0000
0000
0010
0000
0100
0000
0010
0001
0000
0000
1000
0000
0000
0000
0100
0000
,  // measure 44
0000
0000
0010
0000
0001
0000
1000
0000
0100
0000
0000
0100
0000
0000
0110
0000
,  // measure 45
1100
0000
0110
0000
0010
0001
0010
0100
,  // measure 46
0000
0000
1000
0000
0100
0000
0010
0000
0001
0000
0000
0001
0000
0000
1000
0000
,  // measure 47
0000
0010
0100
0010
0000
1000
0001
0100
,  // measure 48
0010
0000
1000
0000
0010
0000
0100
0010
0000
1000
0000
0001
0100
0000
0010
0000
,  // measure 49
0110
0000
1001
0000
0100
0010
0001
0010
,  // measure 50
0000
0000
0100
0000
1000
0000
0100
0000
0010
0000
0000
0100
0000
0000
0100
0000
,  // measure 51
0000
0010
0001
1000
0100
1000
0100
0010
,  // measure 52
0001
0010
0100
0010
0011
0000
1001
0000
,  // measure 53
1100
0000
0110
0000
0001
0010
0100
0010
,  // measure 54
0000
0100
1000
0100
0010
0001
0000
0010
,  // measure 55
0110
0000
0100
1000
1001
0000
0010
0100
,  // measure 56
0110
0011
0110
1010
,  // measure 57
0010
0100
0000
0010
1000
0000
0010
0100
0000
0010
0001
0000
0010
0000
1001
0000
,  // measure 58
0100
0000
0000
0000
0001
0000
0000
0000
0010
0000
0000
0100
1000
0000
0000
1000
,  // measure 59
0010
0000
0000
0000
0001
0000
0000
0000
1001
0000
0000
0010
1000
0000
0000
0100
,  // measure 60
1000
0000
0000
0000
0001
0000
0000
0000
0100
0000
0000
0001
0010
0000
0000
0010
,  // measure 61
0001
0000
0000
0000
1000
0000
0000
0000
1001
0000
0000
0100
0001
0000
0000
0010
,  // measure 62
0001
0000
0000
0000
1000
0000
0000
0000
0100
0000
0000
0001
1000
0000
0100
0000
,  // measure 63
0010
0000
0000
1000
0001
0000
0000
0000
0110
0000
0000
0100
0001
0000
0000
0010
,  // measure 64
0100
0000
1000
0000
0001
0000
0000
0000
0110
0000
0000
0001
0010
0000
0000
1000
,  // measure 65
0100
0000
0010
0000
0000
0000
1000
0000
0000
0000
0001
0000
0000
0000
1000
0100
,  // measure 66
1000
0000
0000
0000
0001
0000
0000
0000
0100
0000
0000
0001
1000
0000
0000
0100
,  // measure 67
0010
0000
0000
0000
0001
0000
0000
0000
0101
0000
0000
1000
0010
0000
0000
0001
,  // measure 68
0100
0000
0000
0000
0010
0000
0000
0000
0001
0000
0000
0100
0010
0000
0000
1000
,  // measure 69
0001
0000
0000
0000
0100
0000
0000
0001
1000
0000
0000
1000
0100
0000
0000
0001
,  // measure 70
1000
0000
0000
0000
0100
0000
0000
0010
0001
0000
0000
0100
0010
0000
1000
0000
,  // measure 71
0001
0000
0000
0000
0000
0000
1000
0100
1000
0000
0000
0000
0001
0000
0000
0000
,  // measure 72
0000
1000
0000
0001
0000
0010
0100
0010
,  // measure 73
0001
0000
0000
0000
0100
0000
0000
0001
0010
0000
0000
0000
0100
0000
0000
1000
,  // measure 74
0001
0100
1000
0100
0001
0010
1000
0010
,  // measure 75
0002
0000
0000
0000
0000
0000
0000
0000
1003
0000
0000
0000
0100
0000
0000
0001
,  // measure 76
0020
0000
0000
0000
0000
0000
0000
0000
0031
0000
0000
0000
0100
0000
0000
0001
,  // measure 77
0020
0000
0000
0000
0000
0000
0000
0000
1030
0000
0000
0000
0001
0000
0000
0100
,  // measure 78
2000
0000
0000
0000
0000
0000
0000
0000
3001
0000
0000
0000
0100
0000
0000
0001
,  // measure 79
0010
0000
0000
0000
1000
0000
0000
0000
0100
0000
0000
0000
0010
0000
0000
1000
,  // measure 80
0100
0000
0000
0000
0001
0000
0000
0000
0100
0000
0000
0000
0001
0000
0000
0100
,  // measure 81
0010
2000
0010
0001
,  // measure 82
0100
0000
3001
0000
0000
0100
0010
0100
,  // measure 83
0001
0000
0000
0000
0100
0000
0010
1000
0010
0000
0000
0000
1000
0000
0000
0000
,  // measure 84
0100
0000
0001
0100
0001
0000
1000
0000
,  // measure 85
1000
0000
0000
0000
0100
0000
0010
0001
0010
0000
0000
0000
0001
0000
0000
0000
,  // measure 86
0100
0000
0000
0000
1000
0000
0100
0000
1000
0000
0000
0000
0001
0000
0000
0100
,  // measure 87
0010
1000
0100
0010
0001
0100
0010
1000
,  // measure 88
0100
0000
0010
0000
0001
0000
1000
0000
0010
0000
0100
0000
0001
0000
0000
0100
,  // measure 89
0010
1000
0001
0010
0100
1000
0010
0100
,  // measure 90
0001
0000
1000
0000
0100
0000
0010
0000
0001
0000
1000
0000
0100
0000
0000
0010
,  // measure 91
0100
1000
0010
0100
0001
1000
0100
0010
,  // measure 92
0001
0100
0010
1000
0001
0010
0100
1000
,  // measure 93
0010
0000
0100
0000
0001
0000
1000
0000
0100
0000
0010
0000
0001
0100
0001
0000
,  // measure 94
0000
0000
0000
0000
0000
0000
0000
0000
0000
0000
0000
0100
0010
0000
0000
1000
,  // measure 95
0001
0000
0100
0000
0010
0000
1000
0000
0100
0000
0000
0001
1000
0000
0000
0100
,  // measure 96
0010
0000
1000
0000
0100
0000
0010
0000
0001
0000
0000
1000
0010
0000
0000
0100
,  // measure 97
0001
0000
1000
0000
0010
0000
0100
0000
0001
0000
0000
0010
0001
0000
0000
0100
,  // measure 98
1000
0000
0010
0000
0001
0000
0010
0000
1000
0100
0000
0100
0010
0000
0000
0001
,  // measure 99
0100
0000
0000
0010
1000
0000
0100
0000
0100
0000
0000
0010
0001
0000
0100
0000
,  // measure 100
0010
0000
1000
0000
0100
0000
0000
0000
0010
0000
0000
0001
1000
0000
0000
0100
,  // measure 101
0010
0000
0001
0000
0100
0000
0010
0000
1000
0000
0001
0000
0100
0000
0000
0010
,  // measure 102
0001
0000
0000
0000
0100
0000
0000
0000
0000
0000
0000
1000
0010
0000
0000
0001
,  // measure 103
0010
0000
0100
0000
0100
0000
0000
0000
0001
0000
0000
0100
1000
0000
0000
0100
,  // measure 104
0001
0000
0010
0000
0100
0000
0000
0100
0010
0000
0000
1000
0100
0000
0000
0001
,  // measure 105
0100
0000
0100
0000
0010
0000
0000
1000
0001
0000
0000
0010
1000
0000
0000
0100
,  // measure 106
0001
0000
1000
0000
0001
0000
0000
0100
0010
0000
1000
0000
0001
0000
0000
0000
,  // measure 107
0100
0000
0010
1000
0010
0001
0010
1000
,  // measure 108
0000
0100
0000
0010
0001
0100
0010
1000
,  // measure 109
0100
0000
0010
0001
0010
0000
0100
0000
1000
0000
0000
0000
1000
0000
0000
0001
,  // measure 110
0100
0000
0010
1000
0010
0000
0100
0000
0001
0000
0000
0000
0001
0000
0000
0100
,  // measure 111
0010
0000
1000
0001
1000
0000
0100
0000
0010
0000
0000
0000
0010
0000
0001
0100
,  // measure 112
0001
0000
1000
0000
1000
0010
0200
0000
0020
0000
0000
0000
0330
0000
0000
0000
,  // measure 113
0000
0000
1000
0000
0110
0000
0001
0010
,  // measure 114
0100
1000
0000
0010
0001
0000
0100
1000
,  // measure 115
0010
0001
1000
0000
0110
0000
0001
0010
,  // measure 116
0100
1000
0000
0010
0001
0000
0100
1000
,  // measure 117
0010
0001
1000
0000
0100
0000
0010
1000
,  // measure 118
0001
0010
0000
1000
0010
0000
0001
0100
,  // measure 119
1000
0010
1000
0000
0100
0000
0010
1000
,  // measure 120
0001
0010
0000
1000
0010
0001
0100
0000
,  // measure 121
1000
0000
0001
0000
0010
0000
1000
0010
,  // measure 122
0001
0010
0000
0001
0100
0000
1000
0100
,  // measure 123
0001
0100
1000
0000
0010
0000
0001
0010
,  // measure 124
1000
0010
0000
1000
0100
0000
0001
0100
,  // measure 125
1000
0100
0010
0000
0001
0000
0100
0001
,  // measure 126
0010
0001
0000
1000
0010
0000
0100
1000
,  // measure 127
0010
0100
0010
0000
0001
0000
0100
0001
,  // measure 128
0010
0001
0000
1000
0010
0100
1000
0000
,  // measure 129
0010
0001
0120
2030
,  // measure 130
3001
0010
0000
2000
0100
0000
3010
0000
,  // measure 131
0001
1000
0120
0032
,  // measure 132
1003
0010
0000
0002
0100
0000
0013
0000
,  // measure 133
1000
0000
0020
0000
0030
0010
0010
0000
,  // measure 134
0000
0200
2300
3002
,  // measure 135
0103
0010
2000
0001
,  // measure 136
3001
0100
0000
0200
1000
0300
0100
0000
,  // measure 137
0001
1000
0120
0032
,  // measure 138
1003
0010
0000
0002
0100
0000
0013
0000
,  // measure 139
1000
0001
0120
2030
,  // measure 140
3001
0010
0000
2000
0100
0000
3010
0000
,  // measure 141
0001
0000
0020
0000
0030
0010
0010
0000
,  // measure 142
0000
0200
0302
2003
,  // measure 143
3100
0010
0002
1000
,  // measure 144
1003
0100
0000
0200
0001
0300
0100
0000
,  // measure 145
1000
0000
1001
0000
1000
0100
0000
1000
,  // measure 146
0100
0000
0100
1000
0000
1000
0100
0000
,  // measure 147
1100
0000
1001
0000
0100
1000
0000
0100
,  // measure 148
1000
0000
0100
1000
0000
1000
0100
0000
,  // measure 149
1100
0000
1001
0000
0100
0001
0000
0001
,  // measure 150
0100
0000
0100
0001
0000
0001
0100
0000
,  // measure 151
0101
0000
1001
0000
0001
0100
0000
0001
,  // measure 152
0100
0000
0001
0100
0000
0001
0000
0100
,  // measure 153
0001
1100
0101
1100
,  // measure 154
0001
0100
0000
1000
0100
0000
0101
0000
,  // measure 155
1100
0010
0001
0100
,  // measure 156
0001
0010
0000
0001
0100
0000
0010
0000
,  // measure 157
0100
1100
0101
1100
,  // measure 158
0101
0010
1000
0100
,  // measure 159
0001
0010
1000
0100
,  // measure 160
0010
1000
0000
0100
1000
0000
0100
0000
,  // measure 161
0010
0000
0001
0000
0010
0000
1000
0001
,  // measure 162
0010
1000
0000
0001
0010
0000
1000
0010
,  // measure 163
0001
1000
0001
0000
0010
0000
1000
0001
,  // measure 164
0100
1000
0000
0001
0100
0000
1000
0100
,  // measure 165
0001
1000
1001
0001
,  // measure 166
1001
2001
3002
2003
,  // measure 167
3001
0110
0001
1100
,  // measure 168
0001
0100
0000
0010
1000
0000
0001
0000
,  // measure 169
0100
0000
1000
0000
1000
0100
0000
0001
,  // measure 170
0100
0100
0001
0000
0001
0100
0000
0100
,  // measure 171
1000
0100
1000
0000
0100
0001
0000
0100
,  // measure 172
0001
0100
1000
0000
1001
0000
1000
0000
,  // measure 173
0001
0010
0100
1000
,  // measure 174
0010
0100
0001
1000
0001
0000
0100
0000
,  // measure 175
0010
0100
0001
0100
,  // measure 176
0010
1000
0001
1000
0001
0000
0001
0000
,  // measure 177
1000
0010
0100
1000
,  // measure 178
0010
0100
0001
1000
0100
0010
0001
1000
,  // measure 179
0000
0001
0000
1000
0000
0001
0000
0001
,  // measure 180
0010
0100
1000
0000
0001
0000
1000
0000
,  // measure 181
0001
0100
0001
0100
0001
0000
0000
0000
1000
0000
0000
0000
0001
0000
0000
0000
,  // measure 182
1000
0010
1000
0010
1000
0000
0000
0000
1000
0000
0000
0000
0100
0000
0000
0000
,  // measure 183
0010
0100
1000
0100
,  // measure 184
0010
0001
1000
0001
1000
0000
1000
0000
,  // measure 185
0001
0010
0100
0001
,  // measure 186
0010
0100
1000
0001
0100
0001
1000
0001
,  // measure 187
0000
0011
0000
1001
0000
1001
0000
1001
,  // measure 188
0000
0110
0000
2002
3003
1000
0000
1000
,  // measure 189
0000
0010
1000
0001
0000
0100
0000
0001
,  // measure 190
0000
1000
0100
0010
0000
0001
0000
0001
,  // measure 191
0000
0010
0100
1000
0000
0100
0000
0001
,  // measure 192
0000
1000
0001
1000
0000
1000
0000
0010
,  // measure 193
1000
0001
0000
0100
0000
0001
0000
1000
,  // measure 194
0100
0010
0000
0001
0000
0001
0000
0010
,  // measure 195
0001
0100
0000
0100
0000
0001
0000
1000
,  // measure 196
0020
0000
0031
0000
0100
0000
0010
0100
,  // measure 197
0001
0000
0001
0000
0100
0000
0010
1000
,  // measure 198
0100
0000
0010
0000
0001
0000
1000
0001
,  // measure 199
0100
0000
0010
0000
1000
0000
0100
1000
,  // measure 200
1100
0000
0000
0101
0000
0000
1001
0000
,  // measure 201
0010
0000
0000
1010
0000
0000
0100
0000
,  // measure 202
0010
0000
0010
0100
0020
0200
0000
0000
,  // measure 203
0000
0000
0000
0330
,  // measure 204
1001
0000
0010
0010
,  // measure 205
0001
0001
0100
0100
,  // measure 206
1000
1000
0010
0001
,  // measure 207
0001
1000
0010
0100
0001
0000
0100
0000
,  // measure 208
0100
0010
0100
0010
1000
0000
0100
0000
,  // measure 209
0010
0001
1000
0100
0010
0000
0010
0000
,  // measure 210
0010
1000
0010
0100
0010
1000
0001
0100
,  // measure 211
0010
1000
0100
0010
0001
0000
1000
0000
,  // measure 212
1001
0000
0001
0000
0001
0000
0001
0100
,  // measure 213
0000
0100
0000
0010
0000
0010
0000
0010
,  // measure 214
0000
0001
1000
0100
1100
0000
1100
0000
,  // measure 215
1000
0100
1000
0100
0001
0100
0001
0100
,  // measure 216
0001
0000
0001
0000
0001
0010
0000
0010
,  // measure 217
0000
0100
0000
0100
0000
0100
0000
0001
,  // measure 218
1000
0010
1010
0000
1010
0000
0010
1000
,  // measure 219
0010
1000
0010
0001
0010
0001
0010
0000
,  // measure 220
0012
0000
0010
1003
,  // measure 221
0200
0000
0010
1000
,  // measure 222
0302
0000
0000
0003
,  // measure 223
0000
0000
0000
0000
0000
0000
0000
0010
,  // measure 224
0000
0000
0101
1100
,  // measure 225
0010
0100
0010
0000
1000
0001
0100
0000
,  // measure 226
0001
1000
0010
0000
0100
0001
0010
0000
,  // measure 227
0100
1000
0001
0000
1000
0100
1000
0000
,  // measure 228
0001
1000
0100
0000
1000
0001
0100
0000
,  // measure 229
0010
1000
0100
0000
0010
0100
1000
0000
,  // measure 230
0001
0100
0001
0000
0100
1000
0100
0000
,  // measure 231
1000
0010
1000
0000
0010
0001
0010
0000
,  // measure 232
2002
0000
3003
0202
0000
0303
0110
0000
,  // measure 233
1000
0001
1000
0010
1000
0100
1000
0010
,  // measure 234
0100
0001
0010
0100
0010
0100
1000
0100
,  // measure 235
0010
0001
0010
0100
1000
0001
1000
0010
,  // measure 236
0100
0010
0100
0001
0010
0001
0100
0010
,  // measure 237
1000
0100
1000
0100
0010
0001
1000
0010
,  // measure 238
1000
0001
0100
0010
0100
0001
1000
0010
,  // measure 239
0100
0001
0010
0100
1000
0001
0100
0010
,  // measure 240
1000
0010
0100
0010
0001
0010
0100
0010
,  // measure 241
0000
0000
0000
0000
1001
0000
0000
1000
0000
0000
0110
0000
0000
0001
0000
0000
,  // measure 242
1001
0000
0000
0000
0110
0000
0000
0010
0000
0000
1001
0000
0000
0100
0000
0000
,  // measure 243
0110
0000
0000
0000
1001
0000
0000
0001
0000
0000
0110
0000
0000
1000
0000
0000
,  // measure 244
1001
0020
0000
0000
,  // measure 245
0030
0000
0000
0000
0100
0000
0000
0001
0100
0000
0000
0100
0010
0000
0000
0010
,  // measure 246
1000
0000
0000
0000
0100
0000
0000
1000
0100
0000
0000
0100
0010
0000
0000
0010
,  // measure 247
0001
0000
0000
0000
0100
0000
0000
0001
0100
0000
0000
1000
0100
0000
0000
0001
,  // measure 248
1000
0000
0000
0000
0001
0100
0000
0000
0010
1000
0000
0000
1000
0100
0000
0000
,  // measure 249
0010
0001
0000
0000
0010
0000
0000
0001
0010
0000
0000
0010
0100
0000
0000
0100
,  // measure 250
1000
0000
0000
0000
0010
0000
0000
1000
0010
0000
0000
0010
0100
0000
0000
0100
,  // measure 251
0001
0000
0000
0000
0010
0000
0000
0001
0010
0000
0000
1000
0010
0000
0000
0001
,  // measure 252
1000
0000
0000
0000
0100
0000
0000
0000
0010
0000
0000
0000
0100
0000
0000
1000
,  // measure 253
0100
0000
0000
0001
0100
0000
0000
0001
1000
0000
0000
0000
1100
0000
0000
0001
,  // measure 254
0000
0000
0011
0000
0100
0000
0000
1000
0001
0000
0000
0010
0100
0000
0000
0000
,  // measure 255
0000
0000
0000
1000
0100
0000
0000
1000
0001
0000
0000
0000
1100
0000
0000
0001
,  // measure 256
0000
0000
0011
0000
1000
0100
0000
0000
0001
0010
0000
0000
1000
0010
0000
0000
,  // measure 257
0001
0100
0000
0000
0010
0000
0000
0000
1000
0001
0000
0000
0011
0000
0000
1000
,  // measure 258
0000
0000
1100
0000
0010
0000
0000
0001
1000
0000
0000
0100
0010
0000
0000
0000
,  // measure 259
0000
0000
0000
0001
0010
0000
0000
0001
1000
0000
0000
0000
0011
0000
0000
1000
,  // measure 260
0000
0000
1100
0000
0001
0010
0000
0000
1000
0100
0000
0000
0001
0100
0000
0000
,  // measure 261
1000
0010
0000
0000
0100
0001
0100
0000
0010
0000
0000
0010
1000
0000
0000
0001
,  // measure 262
0010
0100
0010
0000
0100
1000
0100
0000
0010
0000
0000
0010
0100
0000
0000
1000
,  // measure 263
0001
0000
0000
1000
0100
1000
0100
0000
0010
0000
0000
0010
0001
0000
0000
1000
,  // measure 264
0010
0100
0010
0000
0100
0001
0100
0000
0010
0000
0000
0010
0100
0000
0000
0001
,  // measure 265
1000
0000
0000
0001
0010
0001
0010
0000
0100
0000
0000
0100
1000
0000
0000
0001
,  // measure 266
0100
0010
0100
0000
0010
1000
0010
0000
0100
0000
0000
0100
0010
0000
0000
1000
,  // measure 267
0001
0000
0000
1000
0010
1000
0010
0000
0100
0000
0000
0100
0001
0000
0000
1000
,  // measure 268
0100
0010
0100
0000
0010
0001
0010
0000
0100
0000
0000
0100
0010
0000
0000
0001
,  // measure 269
1000
0000
0000
0001
0010
0000
0000
1000
0001
0000
0000
0000
0010
0000
0000
1000
,  // measure 270
0100
0000
0000
0000
0010
0000
0000
1000
0001
0000
0000
0000
0010
0000
0000
1000
,  // measure 271
0100
0000
0000
0000
0010
0000
0000
0001
1000
0000
0000
0000
0010
0000
0000
0001
,  // measure 272
0100
0000
0000
0000
0010
0000
0000
0001
1000
0000
0000
0000
0010
0000
0000
0001
,  // measure 273
0100
0010
1000
0000
0100
0000
0000
1000
0001
0000
0000
0000
0100
0000
0000
1000
,  // measure 274
0010
0000
0000
0000
0100
0000
0000
1000
0001
0000
0000
0000
0100
0000
0000
1000
,  // measure 275
0010
0000
0000
0000
0100
0000
0000
0001
1000
0000
0000
0000
0100
0000
0000
0001
,  // measure 276
0010
0000
0000
0000
0100
0000
0000
0001
1000
0000
0000
0000
0100
0000
0000
0000
,  // measure 277
1001
0000
0000
0000
0010
1000
0010
0000
0100
0000
0000
0100
0001
1000
0001
0000
,  // measure 278
0010
0000
0000
0010
0100
1000
0100
0000
0010
0000
0000
0010
0001
0000
0000
0001
,  // measure 279
1000
0100
0010
0000
0100
1000
0100
0000
0010
0000
0000
0010
0001
1000
0001
0000
,  // measure 280
0100
0000
0000
0100
0010
1000
0010
0000
0100
0000
0000
0100
0001
0000
0000
0001
,  // measure 281
1000
0010
0100
0000
0001
0000
0000
0110
0000
0000
0011
0000
0000
0110
0000
0000
,  // measure 282
1001
0000
0000
0000
1000
0000
0000
0110
0000
0000
1100
0000
0000
0110
0000
0000
,  // measure 283
1001
0000
0000
0000
0001
0000
0000
0110
0000
0000
1010
0000
0000
0110
0000
0000
,  // measure 284
1001
0110
0000
0000
,  // measure 285
0000
0000
0000
0000
0001
0000
0000
0011
0000
0000
0110
0000
0000
1010
0000
0000
,  // measure 286
1001
0000
0000
0000
1000
0000
0000
1100
0000
0000
0110
0000
0000
0101
0000
0000
,  // measure 287
1001
0000
0000
0000
1000
0000
0000
1010
0000
0000
0110
0000
0000
0011
0000
0000
,  // measure 288
1001
0000
0000
0000
0001
0000
0000
0101
0000
0000
0110
0000
0000
1100
0000
0000
,  // measure 289
1001
0000
0000
0000
0001
0000
0000
0101
0000
0000
0110
0000
0000
1100
0000
0000
,  // measure 290
1001
0000
0000
0000
1000
0000
0000
1010
0000
0000
0110
0000
0000
0011
0000
0000
,  // measure 291
1001
0000
0000
0000
0001
0000
0000
0011
0000
0000
0110
0000
0000
1100
0000
0000
,  // measure 292
1001
0110
0000
0000
,  // measure 293
0000
0000
0011
0000
0000
0101
0000
0000
,  // measure 294
1100
0000
0000
1010
0000
0000
0110
0000
,  // measure 295
0000
0000
1010
0000
0000
1100
0000
0000
,  // measure 296
0101
0000
0000
0011
0000
0000
0110
0000
,  // measure 297
0000
0000
0101
0000
0000
0011
0000
0000
,  // measure 298
1010
0000
0000
1100
0000
0000
0110
0000
,  // measure 299
0000
0001
0100
0000
0000
1000
0000
0000
,  // measure 300
0100
0000
0010
0000
0000
0001
0000
0000
,  // measure 301
0010
0000
0100
1000
0100
0010
0001
0000
,  // measure 302
1000
0010
1000
0000
0100
0010
0001
0100
,  // measure 303
0010
0000
0100
0001
0100
0010
1000
0000
,  // measure 304
0001
0010
0001
0000
0100
0010
1000
0100
,  // measure 305
0010
0000
0100
1000
0010
0100
0001
0000
,  // measure 306
1000
0100
1000
0000
0010
0100
0001
1000
,  // measure 307
0010
0000
0100
0001
0010
0100
1000
0000
,  // measure 308
0001
0100
0001
0000
0000
0000
1001
0000
,  // measure 309
0000
0000
0010
1000
0010
0100
0001
0000
,  // measure 310
1000
0100
1000
0000
0010
0100
0001
0010
,  // measure 311
0100
0000
0010
0001
0010
0100
1000
0000
,  // measure 312
0001
0100
0001
0000
0010
0100
1000
0010
,  // measure 313
0100
0000
0010
1000
0100
0010
0001
0000
,  // measure 314
1000
0010
1000
0000
0100
0010
0001
1000
,  // measure 315
0100
0000
0010
0000
0000
0100
1000
0000
,  // measure 316
0000
0001
0010
0000
0000
0000
1001
0000
,  // measure 317
0000
0000
1000
0100
1000
0100
0010
0001
,  // measure 318
0010
0001
1000
0100
1000
0100
0010
0001
,  // measure 319
0010
0001
1000
0010
1000
0010
0100
0001
,  // measure 320
0100
0001
1000
0100
1000
0100
0010
0001
,  // measure 321
0010
0001
1000
0100
0010
0001
1000
0100
,  // measure 322
0010
0001
1000
0010
0100
0001
1000
0010
,  // measure 323
0100
0001
1000
0100
0010
0001
1000
0010
,  // measure 324
0100
0001
1000
0100
0010
0001
1000
0010
,  // measure 325
0100
0000
0101
0000
0000
0110
0000
0000
,  // measure 326
1100
0000
0000
1001
0000
0000
1010
0000
,  // measure 327
0000
0000
0110
0000
0000
0011
0000
0000
,  // measure 328
1001
0000
0000
1100
0000
0000
0110
0000
,  // measure 329
0000
0000
0101
0000
0000
1001
0000
0000
,  // measure 330
1100
0000
0000
0110
0000
0000
1010
0000
,  // measure 331
0000
0001
0010
0000
0000
1000
0000
0000
,  // measure 332
0010
0000
0000
0100
0000
0000
0000
0000
,  // measure 333
2000
0002
0000
0000
,  // measure 334
0000
0000
0000
0000
,  // measure 335
0000
0000
0000
0000
0000
0000
0000
0000
3003
0000
0000
0000
0000
0000
0000
0100
0000
0000
0000
0001
0000
1000
0000
0000
0000
1000
0000
0100
0000
0000
0000
0001
,  // measure 336
0000
0000
0000
0100
0000
0000
0000
0010
0000
0001
0000
0000
0000
0001
0000
0100
0000
0000
0000
0001
0000
0000
0000
1000
0000
0100
0000
1000
0000
0100
0000
1000
,  // measure 337
0000
0000
0000
0010
0000
0000
0000
1000
0000
0001
0000
0000
0000
0001
0000
0010
0000
0000
0000
0100
0000
0000
0000
1000
0000
0000
0000
0010
0000
1000
0000
0000
,  // measure 338
0000
1000
0000
0001
0000
0000
0000
0100
0000
0000
0000
0010
0000
0100
0000
0001
0000
0100
0000
0010
0000
0000
0000
1000
0000
0000
0000
0100
0000
0001
0000
0000
,  // measure 339
0000
0001
0000
0100
0000
0000
0000
1000
0000
0000
0000
0010
0000
0000
0000
0100
0000
0010
0000
0000
0000
0010
0000
1000
0000
0000
0000
0100
0000
0000
0000
1000
,  // measure 340
0000
0001
0000
0100
0000
0001
0000
1000
0000
0000
0000
0010
0000
0000
0000
0100
0000
0001
0000
0000
0000
0001
0000
0100
0000
0000
0000
1000
0000
0000
0000
0010
,  // measure 341
0000
0000
0000
1000
0000
0100
0000
0000
0000
0100
0000
1000
0000
0000
0000
0001
0000
0000
0000
0100
0000
0010
0000
0100
0000
0010
0000
0100
0000
0000
0000
0000
,  // measure 342
0000
0000
0000
0001
0000
0000
0000
0010
0000
0000
0000
2000
0000
0000
0000
3100
0000
0000
0000
0010
0000
0000
0000
0000
0000
0000
0000
0002
0000
0000
0000
2003
,  // measure 343
0000
0000
0000
3001
0000
0000
0000
0000
0000
0000
0000
0001
0000
0000
0000
1000
0000
0000
0000
0100
0000
0000
0000
0010
0000
0001
0000
0010
0000
0001
0000
2000
,  // measure 344
0000
0000
0000
0000
0000
0000
0000
3001
0000
0100
0000
0001
0000
0100
0000
0010
0000
0000
0000
1000
0000
0000
0000
0010
0000
0000
0000
0000
0000
0000
0000
0001
,  // measure 345
0000
0000
0000
1000
0000
0100
0000
2000
0000
0000
0000
0000
0000
0000
0000
3010
0000
0100
0000
0020
0000
0000
0000
0000
0000
0000
0000
1030
0000
0100
0000
1000
,  // measure 346
0000
0002
0000
1003
0000
0000
0000
0100
0000
0000
0000
0010
0000
0000
0000
0100
0000
0000
0000
1000
0000
0000
0000
0010
0000
0000
0000
0001
0000
0000
0000
1000
,  // measure 347
0000
0000
0000
0010
0000
0100
0000
0010
0000
0000
0000
1000
0000
0000
0000
0001
0000
0000
0000
0010
0000
0000
0000
1000
0000
0000
0000
0100
0000
0000
0000
0001
,  // measure 348
0000
0000
0000
0010
0000
0000
0000
1000
0000
0000
0000
0100
0000
0000
0000
0010
0000
0001
0000
0010
0000
0000
0000
0100
0000
0000
0000
0001
0000
0000
0000
1000
,  // measure 349
0000
0000
0000
0100
0000
0000
0000
0001
0000
0000
0000
0010
0000
0000
0000
0100
0000
0001
0000
0100
0000
0000
0000
1000
0000
0000
0000
0001
0000
0100
0000
0001
,  // measure 350
0000
0000
0000
0010
0000
0000
0000
0100
0000
0000
0000
1000
0000
0001
0000
1000
0000
0000
0000
0100
0000
0000
0000
0001
0000
0000
0000
0010
0000
0100
0000
0010
,  // measure 351
0000
0000
0000
1000
0000
0000
0000
0001
0000
0000
0000
1000
0000
0010
0000
1000
0000
0000
0000
0100
0000
0000
0000
0010
0000
0000
0000
1000
0000
0100
0000
1000
,  // measure 352
0000
0000
0000
0010
0000
0000
0000
0001
0000
0000
0000
0100
0000
0010
0000
0100
0000
0000
0000
1000
0000
0000
0000
0010
0000
0000
0000
0001
0000
0000
0000
1001
,  // measure 353
0110
0000
1000
0000
0010
1000
0100
0000
0010
0001
0100
0000
0010
0100
0010
0000
,  // measure 354
1001
1010
0110
0101
0000
0000
0000
0100
0000
0000
0000
1000
0000
0010
0000
1000
0000
0000
0000
0001
0000
0010
0000
0001
0000
0000
0000
1000
0000
0010
0000
1000
,  // measure 355
0000
0000
0000
0100
0000
0000
0000
0001
0000
1000
0000
0001
0000
0000
0000
1000
0000
0100
0000
1000
0000
0000
0000
0100
0000
0000
0000
0010
0000
0000
0000
0101
,  // measure 356
1100
1010
0011
0000
0000
0000
0100
0000
0000
0000
0001
0000
0100
0000
0001
0000
0000
0000
1000
0000
0100
0000
1000
0000
0000
0000
0010
0000
0100
0000
0010
0000
,  // measure 357
0000
0000
0100
0000
0001
0000
0100
0000
0000
0000
1010
0101
0011
0000
0000
0000
0100
0000
0000
0000
0000
0000
0010
0000
0000
0000
0001
0000
1000
0000
0010
0000
,  // measure 358
0100
0000
0000
0001
1000
0002
0000
0000
0000
0000
0000
0000
0103
0000
0010
0000
,  // measure 359
1000
0001
0000
0001
0010
0000
0100
0000
1000
0000
0001
0000
0100
0010
0000
0100
,  // measure 360
0010
0000
1000
0000
0010
0000
0001
0000
0010
1000
0000
0001
0100
0000
1000
0000
,  // measure 361
0100
0000
0010
0000
0100
0001
0000
0001
0010
0000
0100
0000
1000
0000
0100
0000
,  // measure 362
0010
0000
1000
0001
1000
0000
0001
0100
0001
0000
0010
0100
0010
0000
0100
1000
,  // measure 363
0100
0000
1000
0010
1000
0000
0001
0010
0001
0000
1000
0100
1000
0000
0001
0100
,  // measure 364
0010
0100
0010
0100
1000
0100
1000
0100
0001
0100
0001
0100
1000
0100
1000
0100
,  // measure 365
0010
1000
0100
0010
0001
1000
0100
0001
0100
1000
0010
0001
1000
0100
0000
0001
,  // measure 366
1000
0000
0000
0000
;

//---------------dance-single - ----------------
#NOTES:
     dance-single:
     :
     Challenge:
     9:
     0.691,0.793,0.375,0.075,0.363: // measure 1
0000
0000
0000
0000
,  // measure 2
0000
0000
0000
0000
,  // measure 3
0000
0000
0000
0000
,  // measure 4
0000
0000
0000
0000
,  // measure 5
1010
0000
0100
0000
0010
0001
0100
0000
,  // measure 6
0001
1100
1000
0101
,  // measure 7
0010
0100
0010
0000
1000
0000
0001
0000
,  // measure 8
1000
0000
0101
0000
0001
0000
1000
0100
,  // measure 9
1000
0100
0010
0000
0010
0001
0100
0000
,  // measure 10
0100
0010
1000
0000
1000
0001
0010
0000
,  // measure 11
0010
0100
1000
0000
1000
0010
0100
0000
,  // measure 12
0100
0001
0010
0000
0010
0100
0010
0000
,  // measure 13
0100
1000
0001
0000
0100
0010
1000
0000
,  // measure 14
0100
0010
0001
0000
0100
0010
1000
0000
,  // measure 15
0100
0010
0001
0000
1000
0100
0010
0000
,  // measure 16
0001
0100
0010
0000
1000
0100
0001
0000
,  // measure 17
1000
0000
0100
0000
0010
0000
0001
0000
0100
0001
0100
0000
0001
0000
0000
0000
,  // measure 18
1000
0000
0100
0000
0010
0000
0001
0000
0100
0001
0100
0000
0001
0000
0000
0000
,  // measure 19
1000
0000
0100
0000
0010
0000
0001
0000
0100
0001
0100
0000
0010
0000
0000
0000
,  // measure 20
1000
0000
0100
0000
0010
0000
0001
0000
0100
0010
0100
0000
0010
0000
0000
0000
,  // measure 21
1000
0000
0001
0000
0100
0000
0010
0000
1001
0100
1000
0000
0100
0000
0000
0000
,  // measure 22
1000
0000
0001
0000
0100
0000
0010
0000
1000
0100
1000
0000
0010
0000
0000
0000
,  // measure 23
1000
0000
0001
0000
0100
0000
0010
0000
1000
0001
0100
0000
0010
0000
0000
0000
,  // measure 24
1000
0000
0100
0000
0010
0000
0001
0000
1000
0010
0100
0000
0001
0000
0000
0000
,  // measure 25
1000
0100
1000
0100
0001
0100
0001
0100
,  // measure 26
1000
0010
1000
0010
0001
0010
0001
0010
,  // measure 27
1000
0010
0001
1000
0100
0001
1000
0010
,  // measure 28
0001
1000
0100
0001
1000
0010
0001
0000
,  // measure 29
0001
1000
0010
0100
0010
0001
1000
0100
,  // measure 30
0010
0100
0001
1000
0010
0100
0001
0010
,  // measure 31
1000
0001
0010
1000
0100
0001
1000
0001
,  // measure 32
0100
1000
0010
0001
0100
0010
1000
0010
,  // measure 33
0100
0001
0100
1000
0100
0001
0100
1000
,  // measure 34
0100
0001
0100
1000
0100
0010
0100
0010
,  // measure 35
0100
0001
0100
1000
0100
0001
0100
1000
,  // measure 36
0100
0001
0100
0010
0100
1000
0100
0010
,  // measure 37
0001
0100
0001
0010
0001
0100
0001
0010
,  // measure 38
0001
1000
0001
1000
0001
0100
0001
0100
,  // measure 39
1000
0001
1000
0001
1000
0010
1000
0010
,  // measure 40
1000
0100
1000
0010
1000
0100
1010
0000
,  // measure 41
0001
0010
0100
0000
0100
0010
1000
0100
,  // measure 42
1000
0001
0010
0000
0010
1000
0100
0001
,  // measure 43
0010
1000
0100
0001
0010
1000
0100
0000
,  // measure 44
1010
0000
0101
0000
1000
0010
0100
0001
,  // measure 45
1000
0010
0100
0000
0001
0010
0100
0010
,  // measure 46
1000
0001
0010
0000
1000
0001
0010
0100
,  // measure 47
1000
1000
0010
0000
0001
0001
0010
0000
,  // measure 48
0110
0000
1001
0000
0010
0001
0100
0000
,  // measure 49
0010
0000
0000
0000
0010
0000
0000
0000
0100
0000
0000
0001
1000
0000
0010
0000
,  // measure 50
0100
0000
0100
0000
0100
0000
0010
1000
,  // measure 51
1000
0000
0000
0000
0001
0000
0000
0000
0100
0000
0000
0010
1000
0000
0001
0000
,  // measure 52
0100
0010
0100
0010
0100
0010
0100
0100
,  // measure 53
0001
0000
0000
0000
1000
0000
0000
0000
0010
0000
0000
1000
0001
0000
0100
0000
,  // measure 54
0010
0000
1010
0000
0100
0000
0010
1000
,  // measure 55
1000
0000
0000
0000
0001
0000
0000
0000
0100
0000
0000
0001
0010
0000
0001
0000
,  // measure 56
1000
0100
0010
0001
1000
1000
0100
0100
,  // measure 57
0010
0100
0000
0010
1000
0000
0010
0100
0000
0010
0001
0000
0010
0000
1001
0000
,  // measure 58
1001
0000
0000
0000
0000
0000
0000
0000
0000
0000
0000
0100
1000
0000
0000
1000
,  // measure 59
0010
0000
0000
0000
0001
0000
0000
0000
0001
0000
0000
0010
1000
0000
0000
1000
,  // measure 60
0100
0000
0000
0000
0001
0000
0000
0000
0100
0000
0000
0001
0010
0000
0000
0010
,  // measure 61
0001
0000
0000
0000
1000
0000
0000
0000
1000
0000
0000
0100
0001
0000
0000
0001
,  // measure 62
0010
0000
0000
0000
1000
0000
0000
0000
0100
0000
0000
0001
1000
0000
0100
0000
,  // measure 63
0010
0000
0000
1000
0001
0000
0000
0000
0100
0000
0000
0100
0001
0000
0000
0001
,  // measure 64
1000
0000
0100
0000
0001
0000
0000
0000
0100
0000
0000
0001
0010
0000
0000
0100
,  // measure 65
1000
0000
0010
0000
0000
0000
1000
0000
0000
0000
0001
0000
0000
0000
1000
0100
,  // measure 66
1000
0000
0000
0000
0001
0000
0000
0000
0100
0000
0000
0001
1000
0000
0000
0100
,  // measure 67
0010
0000
0000
0000
0001
0000
0000
0000
0100
0000
0000
0010
1000
0000
0000
0100
,  // measure 68
0001
0000
0000
0000
0010
0000
0000
0000
0001
0000
0000
0100
0010
0000
0000
1000
,  // measure 69
0001
0000
0000
0000
0100
0000
0000
0000
0010
0000
0000
1000
0100
0000
0000
1000
,  // measure 70
0001
0000
0000
0000
0100
0000
0000
0010
0001
0000
0000
0100
0010
0000
1000
0000
,  // measure 71
0001
0000
0000
0000
0000
0000
0000
0100
0001
0000
0000
0000
1000
0000
0000
0000
,  // measure 72
0000
1000
0000
0001
0000
0010
0100
0010
,  // measure 73
0001
0000
0000
0000
0100
0000
0000
0001
0010
0000
0000
0000
0100
0000
0000
1000
,  // measure 74
0001
0000
0010
0100
1000
0010
0100
0010
,  // measure 75
2000
0000
0000
0000
0000
0000
0000
0000
3001
0000
0000
0000
0100
0000
0000
0001
,  // measure 76
0020
0000
0000
0000
0000
0000
0000
0000
0031
0000
0000
0000
0100
0000
0000
1000
,  // measure 77
0002
0000
0000
0000
0000
0000
0000
0000
0103
0000
0000
0000
0010
0000
0000
1000
,  // measure 78
0200
0000
0000
0000
0000
0000
0000
0000
0310
0000
0000
0000
0100
0000
0000
0010
,  // measure 79
0001
0000
0000
0000
1000
0000
0000
0000
0100
0000
0000
0000
0010
0000
0000
1000
,  // measure 80
0100
0000
0000
0000
0001
0000
0000
0000
0100
0000
0000
0000
0001
0000
0000
0100
,  // measure 81
0010
2000
0100
0001
,  // measure 82
0100
0000
3001
0000
0000
0100
0010
0100
,  // measure 83
0001
0100
0010
1000
,  // measure 84
0100
0000
0001
0100
0001
0000
1000
0000
,  // measure 85
1000
0100
0010
0001
,  // measure 86
0100
0000
0000
0000
1000
0000
0100
0000
1000
0000
0000
0000
0001
0000
0000
0100
,  // measure 87
0010
0000
1000
0000
0001
0000
1000
0100
,  // measure 88
0010
0000
0000
0000
0001
0000
0000
0000
1000
0000
0000
0000
0001
0000
0000
0100
,  // measure 89
0010
0000
0001
0000
1000
0000
0001
0010
,  // measure 90
0100
0000
0000
0000
1000
0000
0000
0000
0001
0000
0000
0000
1000
0000
0000
0001
,  // measure 91
0100
0000
0010
0000
1000
0000
0010
0100
,  // measure 92
0001
0000
0100
0000
1000
0100
0010
1000
,  // measure 93
0100
0000
0010
0000
0001
0000
0100
0000
0001
0000
0010
0000
0100
1000
0100
0000
,  // measure 94
0000
0000
0000
0000
0000
0000
0000
0000
0000
0000
0000
0001
0100
0000
0000
0100
,  // measure 95
0010
0000
0000
0000
1000
0000
0000
0000
0001
0000
0000
0010
0100
0000
0000
0100
,  // measure 96
0001
0000
0000
0000
0010
0000
0000
0000
0100
0000
0000
0100
0001
0000
0000
0001
,  // measure 97
1000
0000
0000
0000
0100
0000
0000
0000
0010
0000
0000
1000
0100
0000
0000
0100
,  // measure 98
0010
0000
0000
0000
0001
0000
0000
0000
0100
0000
0000
0010
1000
0000
0001
1000
,  // measure 99
0001
0000
0000
0100
0010
0000
0000
0000
1000
0000
0000
0100
0010
0000
0000
0010
,  // measure 100
0001
0000
1000
0000
0100
0000
0000
0000
0010
0000
0000
0001
0100
0000
0000
0010
,  // measure 101
1000
0000
0100
0000
0000
0000
0010
0000
0000
0000
0001
0000
0100
0000
0010
1000
,  // measure 102
0010
0000
0000
0000
1000
0000
0000
0000
0100
0000
0000
0010
0001
0000
0000
0100
,  // measure 103
0001
0000
0000
0000
0010
0000
0000
0000
1000
0000
0000
0100
0010
0000
0000
0001
,  // measure 104
1000
0000
0000
0000
0100
0000
0000
0001
0010
0000
0000
0100
0010
0000
0000
0001
,  // measure 105
1000
0000
0000
0000
0010
0000
0000
0001
0100
0000
0000
0010
1000
0000
0000
0100
,  // measure 106
0010
0000
0000
0000
0001
0000
0000
0010
0100
0000
0000
0000
1000
0000
0001
0100
,  // measure 107
0001
0000
1000
0100
0010
0000
0001
0000
,  // measure 108
0000
0100
0000
1000
0000
0010
0001
0100
,  // measure 109
0001
0000
1000
0010
1000
0000
0100
0000
1010
0000
0000
0000
0001
0000
0000
0100
,  // measure 110
0010
0000
1000
0100
1000
0000
0100
0000
0010
0000
0000
0000
0001
0000
0000
1000
,  // measure 111
0010
0000
0100
0001
0100
0000
0010
0000
1000
0000
0000
0000
0100
0000
0000
0010
,  // measure 112
0001
0000
0000
0000
0100
0000
1000
0002
2000
0000
0000
0000
3003
0000
0000
0000
,  // measure 113
0000
0000
1000
0100
0010
0001
1000
0100
,  // measure 114
1000
0100
1000
0100
0010
0001
1000
0100
,  // measure 115
1000
0001
0100
0001
1000
0010
0100
0001
,  // measure 116
0100
0001
0100
0001
1000
0010
0100
0001
,  // measure 117
0100
0001
1000
0100
0010
0001
1000
0100
,  // measure 118
1000
0100
1000
0100
0010
0001
1000
0100
,  // measure 119
1000
0001
0100
0001
1000
0010
0100
0001
,  // measure 120
0100
0001
0010
0100
1000
0001
0100
0001
,  // measure 121
0100
0001
1000
0100
0010
0001
1000
0001
,  // measure 122
1000
0100
1000
0100
0010
0001
1000
0001
,  // measure 123
1000
0001
0100
0001
1000
0010
0100
0010
,  // measure 124
0100
0001
0100
0001
1000
0010
0100
0001
,  // measure 125
1000
0001
1000
0100
0010
0001
1000
0001
,  // measure 126
1000
0100
1000
0100
0010
0001
1000
0001
,  // measure 127
1000
0001
0100
0001
1000
0010
0100
0010
,  // measure 128
0100
0001
0010
0100
1000
0001
0100
0010
,  // measure 129
0100
0001
0010
0001
1000
0001
0100
0001
,  // measure 130
0100
0001
0010
0001
1000
0001
0100
0001
,  // measure 131
0100
0001
1000
0010
0100
0010
0001
0010
,  // measure 132
0001
0010
1000
0010
0100
0010
0001
0010
,  // measure 133
0001
0010
1000
0100
1000
0001
1000
0100
,  // measure 134
1000
0100
1000
0100
1000
0001
0100
0001
,  // measure 135
1000
0100
0010
0001
1000
0001
1000
0001
,  // measure 136
1000
0100
0010
0001
0010
0100
0010
0100
,  // measure 137
1000
0100
0001
0100
0010
0100
1000
0100
,  // measure 138
1000
0100
0001
0100
0010
0100
1000
0100
,  // measure 139
1000
0100
0010
0001
1000
0001
0100
0001
,  // measure 140
0100
0001
0010
0001
1000
0001
0100
0001
,  // measure 141
0100
0001
1000
0100
1000
0001
1000
0100
,  // measure 142
1000
0100
1000
0100
0010
1000
0010
0100
,  // measure 143
0010
0001
0010
0001
1000
0001
0100
0010
,  // measure 144
0001
0010
0001
0010
0100
0010
1000
0001
,  // measure 145
0010
0100
0010
0001
0100
0010
1000
0100
,  // measure 146
0010
0001
0100
1000
0100
0001
1000
0100
,  // measure 147
1000
0100
0010
0100
1000
0010
0100
0001
,  // measure 148
0010
0100
1000
0001
0100
1000
0100
0001
,  // measure 149
0100
0001
1000
0010
0001
1000
0100
0001
,  // measure 150
0100
1000
0100
0001
0010
0100
1000
0100
,  // measure 151
1000
0100
0001
0100
1000
0001
0010
1000
,  // measure 152
0010
0001
0100
0010
1000
0010
0100
0010
,  // measure 153
1000
0010
0100
0001
1000
0001
0010
0001
,  // measure 154
0010
0001
0100
0001
1000
0001
0010
0001
,  // measure 155
0010
0001
1000
0100
0010
0100
0001
0100
,  // measure 156
0001
0100
1000
0100
0010
0100
0001
0100
,  // measure 157
0001
0100
1000
0100
1000
0001
1000
0100
,  // measure 158
1000
0100
1000
0001
0010
0001
0010
0100
,  // measure 159
1000
0001
0010
0100
1000
0001
0100
0010
,  // measure 160
1000
0010
0001
0010
1000
0010
0100
0010
,  // measure 161
0100
0001
1000
0100
1000
0001
1000
0010
,  // measure 162
1000
0010
1000
0100
1000
0001
1000
0010
,  // measure 163
1000
0010
0100
0001
0100
0010
0100
1000
,  // measure 164
0100
1000
0100
0001
0100
0010
0100
1000
,  // measure 165
0100
1000
0100
0001
0100
0010
0100
0001
,  // measure 166
0100
0001
0100
0001
1000
0010
1000
0001
,  // measure 167
1000
0100
1000
0010
0100
0010
0100
0001
,  // measure 168
1000
0010
0100
0010
0100
0001
0010
0100
,  // measure 169
1000
0100
1000
0100
0001
0100
0001
0100
,  // measure 170
1000
0100
1000
0010
0001
0010
0001
0010
,  // measure 171
1000
0001
0100
0001
0010
0001
0010
0001
,  // measure 172
0100
0001
1000
0000
0000
0000
0000
1010
,  // measure 173
0000
1001
0000
1100
0000
1001
0000
0100
,  // measure 174
0001
0010
0001
1000
0001
0000
0010
0100
,  // measure 175
0000
1001
0000
0101
0000
1001
0000
0100
,  // measure 176
1000
0010
0100
0000
0010
0000
1000
0001
,  // measure 177
0000
0110
0000
0110
0000
1001
0000
0001
,  // measure 178
0100
0010
1000
0100
0010
0000
0001
1000
,  // measure 179
0000
0110
0000
1100
0000
0011
0000
0100
,  // measure 180
1000
0001
0100
0000
1000
0000
0100
0000
,  // measure 181
0010
0100
0010
0100
0010
0000
0000
0000
0001
0000
0000
0000
0100
0000
0000
0000
,  // measure 182
0010
0100
0010
0100
0010
0000
0000
0000
0001
0000
0000
0000
0010
0000
0001
0000
,  // measure 183
0000
1100
0000
0101
0000
1010
0000
0001
,  // measure 184
1000
0100
1000
0000
0010
0000
1000
0001
,  // measure 185
0000
0110
0000
1001
0000
0110
0000
0001
,  // measure 186
1000
0001
0010
0100
1000
0000
0001
1000
,  // measure 187
0000
0110
0000
0101
0000
1100
0000
0011
,  // measure 188
0100
1000
0100
0000
0000
1000
0000
0001
,  // measure 189
0000
0100
1000
0010
0000
0001
0000
1000
,  // measure 190
0000
0100
0001
0010
0000
0100
0000
0001
,  // measure 191
0000
0010
0100
1000
0000
0010
0000
1001
,  // measure 192
0000
0001
0000
1000
0000
0001
0000
0100
,  // measure 193
1000
0010
0000
0001
0000
1000
0000
0100
,  // measure 194
0001
0010
0000
0100
0000
0001
0000
0010
,  // measure 195
0100
1000
0000
0010
0000
1001
0000
1000
,  // measure 196
0002
0000
0003
0100
0000
0001
0000
0010
,  // measure 197
1000
0100
0000
0010
0000
1000
0000
0100
,  // measure 198
0001
1000
0000
0100
0000
0001
0000
1000
,  // measure 199
0100
0010
0000
0100
0000
0001
0000
0100
,  // measure 200
0110
0000
0000
1001
0000
0100
1000
0001
,  // measure 201
0101
0000
0000
0011
0000
0100
0001
0010
,  // measure 202
0110
0000
0000
1000
0000
0010
0100
0001
,  // measure 203
0000
0010
0000
1000
0000
1000
0100
0010
,  // measure 204
1001
0000
0020
1000
,  // measure 205
1000
0001
0230
0001
,  // measure 206
0001
1000
0302
0010
,  // measure 207
2003
0100
3020
0001
,  // measure 208
0230
0310
1001
0000
,  // measure 209
0010
0100
0001
1000
1001
0000
0000
0000
,  // measure 210
0010
0100
1000
0001
1001
1000
0010
0010
,  // measure 211
0100
0100
0001
0001
0011
0000
1001
0000
,  // measure 212
0110
0000
0110
0000
2000
0000
3001
0100
,  // measure 213
0000
0200
0000
0010
0000
0001
0000
0010
,  // measure 214
0300
0001
1000
0100
1100
0000
2100
0000
,  // measure 215
0000
0100
0000
0100
0000
0001
0000
0001
,  // measure 216
3000
0100
0002
0000
1003
0100
0000
0200
,  // measure 217
0000
0010
0000
1000
0000
0010
0000
1300
,  // measure 218
0001
0100
0101
0000
0102
0000
0000
0100
,  // measure 219
0000
0100
0000
1000
0000
1000
0003
0100
,  // measure 220
2000
0000
3010
0110
0000
0120
0000
1000
,  // measure 221
0000
2030
0000
0100
0000
3001
0010
0100
,  // measure 222
0110
0000
0210
0000
0000
1000
0000
1000
,  // measure 223
0000
0001
0000
0001
0000
1300
0010
0010
,  // measure 224
0000
0000
0000
0000
,  // measure 225
1000
1000
0001
1000
0100
1000
0001
0000
,  // measure 226
0001
0001
1000
0001
0100
0001
1000
0000
,  // measure 227
1000
1000
0010
0100
0001
0100
0001
0000
,  // measure 228
0001
0001
0010
0100
1000
0100
1000
0000
,  // measure 229
2000
0000
0000
0000
3001
0000
0100
0010
2000
0000
0000
0000
3001
0000
0010
0100
,  // measure 230
2000
0000
0000
0000
3010
0000
0100
0001
2000
0000
0000
0000
3100
0000
0010
0001
,  // measure 231
0200
0000
0000
0000
0310
0000
1000
0001
0020
0000
0000
0000
0130
0000
1000
0001
,  // measure 232
1000
0000
0000
0110
0000
0000
1001
0000
,  // measure 233
0010
0010
0001
0010
0001
0010
0100
1000
,  // measure 234
0100
0100
1000
0100
1000
0100
0010
0001
,  // measure 235
1000
1000
0010
0100
0010
0100
0001
1000
,  // measure 236
0001
0001
0010
0100
0010
0100
1000
0001
,  // measure 237
1100
0100
1000
0010
0100
0001
1000
0001
,  // measure 238
0101
0100
0001
0010
0100
1000
0001
0010
,  // measure 239
1000
0010
0100
1000
0001
0100
0010
0001
,  // measure 240
1000
0100
0010
1000
0001
0010
0100
1000
,  // measure 241
0000
0000
0000
0000
1001
0000
0000
0100
0000
0000
0010
0000
0000
0100
0000
0000
,  // measure 242
1001
0000
0000
0000
1001
0000
0000
0010
0000
0000
0100
0000
0000
0010
0000
0000
,  // measure 243
1001
0000
0000
0000
1001
0000
0000
0100
0000
0000
0110
0000
0000
0010
0000
0000
,  // measure 244
1001
0220
0000
0000
,  // measure 245
0330
0000
0000
0000
1000
0000
0000
0001
0100
0000
0000
0010
1000
0000
0000
0000
,  // measure 246
1010
0000
0000
0000
0100
0000
0000
1000
0100
0000
0000
0010
0001
0000
0000
0000
,  // measure 247
0011
0000
0000
0000
0100
0000
0000
0001
0010
0000
0000
1000
0100
0000
0000
0000
,  // measure 248
1001
0101
1010
1100
,  // measure 249
0011
0000
0000
0000
0100
0000
0000
0001
0100
0000
0000
0010
1000
0000
0000
0000
,  // measure 250
1010
0000
0000
0000
0100
0000
0000
1000
0100
0000
0000
0010
0001
0000
0000
0000
,  // measure 251
0011
0000
0000
0000
0100
0000
0000
0001
0010
0000
0000
1000
0100
0000
0000
0000
,  // measure 252
1001
0000
0000
0000
0100
0000
0000
0000
0010
0000
0000
0000
0100
0000
0000
1000
,  // measure 253
0001
0000
0000
0000
0100
0000
0000
0000
1001
0000
0000
0000
1000
0000
0000
0001
,  // measure 254
0000
0000
0001
0000
0100
0000
0000
0000
0001
0000
0000
0010
0100
0000
0000
0000
,  // measure 255
0000
0000
0000
1000
0100
0000
0000
0000
1001
0000
0000
0000
1000
0000
0000
0001
,  // measure 256
0000
0001
1100
0000
0011
0000
1010
0000
,  // measure 257
0101
0000
0000
0000
0010
0000
0000
0000
1001
0000
0000
0000
0001
0000
0000
1000
,  // measure 258
0000
0000
1000
0000
0010
0000
0000
0000
1000
0000
0000
0100
0010
0000
0000
0000
,  // measure 259
0000
0000
0000
0001
0010
0000
0000
0000
1001
0000
0000
0000
0001
0000
0000
1000
,  // measure 260
0000
1000
0011
0000
1100
0000
0101
0000
,  // measure 261
1010
0000
0000
0000
0100
0000
0000
0100
0001
0000
0000
0001
0100
0000
0000
0100
,  // measure 262
1000
0000
0000
1000
0100
0000
0000
0000
0101
0000
0000
0000
0010
0000
0000
0000
,  // measure 263
1010
0000
0000
0000
0100
0000
0000
0100
1000
0000
0000
1000
0100
0000
0000
0100
,  // measure 264
0001
0000
0000
0001
0100
0000
0000
0000
1100
0000
0000
0000
0010
0000
0000
0000
,  // measure 265
0011
0000
0000
0000
0010
0000
0000
0010
0001
0000
0000
0001
0010
0000
0000
0010
,  // measure 266
1000
0000
0000
1000
0010
0000
0000
0000
0011
0000
0000
0000
0100
0000
0000
0000
,  // measure 267
1100
0000
0000
0000
0100
0000
0000
0100
1000
0000
0000
1000
0100
0000
0000
0100
,  // measure 268
0001
0000
0000
0001
0100
0000
0000
0000
1100
0000
0000
0000
0010
0000
0000
0000
,  // measure 269
0011
0000
0000
0000
0100
0000
0000
1000
0001
0000
0000
0000
0100
0000
0000
0000
,  // measure 270
1010
0000
0000
0000
0100
0000
0000
1000
0001
0000
0000
0000
0100
0000
0000
0000
,  // measure 271
1010
0000
0000
0000
0100
0000
0000
0001
1000
0000
0000
0000
0100
0000
0000
0000
,  // measure 272
0011
0000
0000
0000
0010
0000
0000
0001
1000
0000
0000
0000
0010
0000
0000
0000
,  // measure 273
0101
0000
0000
0000
0010
0000
0000
1000
0001
0000
0000
0000
0010
0000
0000
0000
,  // measure 274
1100
0000
0000
0000
0010
0000
0000
1000
0001
0000
0000
0000
0010
0000
0000
0000
,  // measure 275
1100
0000
0000
0000
0010
0000
0000
0001
1000
0000
0000
0000
0010
0000
0000
0000
,  // measure 276
0101
0000
0000
0000
0010
0000
0000
0001
1000
0000
0000
0000
0010
0000
0000
0000
,  // measure 277
0101
0000
0000
0000
0010
1000
0010
0000
0100
0000
0000
0100
0001
0000
0000
1000
,  // measure 278
0010
0000
0000
0000
0100
0001
0100
0000
0010
0000
0000
0010
1000
0000
0000
1000
,  // measure 279
0001
0000
0000
0000
0010
0001
0010
0000
0100
0000
0000
0100
1000
0000
0000
0001
,  // measure 280
0010
0000
0000
0000
0100
1000
0100
0000
0010
0000
0000
0010
0001
0000
0000
0001
,  // measure 281
1000
0000
0000
0000
0001
0000
0000
0011
0000
0000
0110
0000
0000
1100
0000
0000
,  // measure 282
1000
0000
0000
0000
1000
0000
0000
1100
0000
0000
0110
0000
0000
0011
0000
0000
,  // measure 283
0001
0000
0000
0000
0001
0000
0000
0011
0000
0000
0110
0000
0000
1100
0000
0000
,  // measure 284
1000
0110
0000
0000
,  // measure 285
0000
0000
0000
0000
0001
0000
0000
0101
0000
0000
1010
0000
0000
0101
0000
0000
,  // measure 286
1001
0000
0000
0000
1000
0000
0000
1100
0000
0000
0011
0000
0000
1100
0000
0000
,  // measure 287
1001
0000
0000
0000
0001
0000
0000
0011
0000
0000
1100
0000
0000
0011
0000
0000
,  // measure 288
1001
0000
0000
0000
1000
0000
0000
1010
0000
0000
0101
0000
0000
1010
0000
0000
,  // measure 289
1001
0000
0000
0000
0001
0000
0000
0011
0000
0000
0110
0000
0000
1100
0000
0000
,  // measure 290
1001
0000
0000
0000
1000
0000
0000
1010
0000
0000
0110
0000
0000
0101
0000
0000
,  // measure 291
1001
0000
0000
0000
0001
0000
0000
0101
0000
0000
0110
0000
0000
1010
0000
0000
,  // measure 292
1001
0110
0000
0000
,  // measure 293
0000
0000
0011
0000
0000
1001
0000
0000
,  // measure 294
1100
0000
0000
1001
0000
0000
0011
0000
,  // measure 295
0000
0000
1100
0000
0000
1001
0000
0000
,  // measure 296
0011
0000
0000
1001
0000
0000
1100
0000
,  // measure 297
0000
0000
0011
0000
0000
1001
0000
0000
,  // measure 298
1100
0000
0000
1001
0000
0000
0011
0000
,  // measure 299
0000
0100
1000
0000
0000
0010
0000
0000
,  // measure 300
0100
0000
0001
0000
0000
0100
0000
0000
,  // measure 301
1000
0000
0001
1000
0001
0010
0000
0000
,  // measure 302
0000
0001
0100
0000
0000
0010
1000
0100
,  // measure 303
0010
0000
0001
1000
0001
0100
0000
0000
,  // measure 304
0000
0001
0010
0000
0000
0100
1000
0010
,  // measure 305
0100
0000
0010
0100
0010
1000
0000
0000
,  // measure 306
0000
0100
0010
0000
0000
0001
0100
0010
,  // measure 307
1000
0000
0100
0010
0100
1000
0000
0000
,  // measure 308
0000
0010
0100
0000
0000
0000
1001
0000
,  // measure 309
0000
0000
1000
0001
1000
0010
0000
0000
,  // measure 310
0000
1000
0100
0000
0000
0010
0001
0100
,  // measure 311
0010
0000
1000
0001
1000
0100
0000
0000
,  // measure 312
0000
1000
0010
0000
0000
0100
0001
0010
,  // measure 313
0100
0000
0010
0100
0010
0001
0000
0000
,  // measure 314
0000
0100
0010
0000
0000
1000
0100
0010
,  // measure 315
0001
0000
0100
0010
0100
0001
0000
0000
,  // measure 316
0000
0010
0100
0000
0000
0000
1001
0000
,  // measure 317
0000
0000
1000
0010
1000
0000
0001
0100
,  // measure 318
0001
0000
1000
0010
1000
0000
0001
0100
,  // measure 319
0001
0000
1000
0100
1000
0000
0001
0010
,  // measure 320
0001
0000
1000
0100
1000
0000
0001
0010
,  // measure 321
0001
0010
0100
1000
0100
0000
0010
0001
,  // measure 322
0010
0000
0100
1000
0100
0000
0010
0001
,  // measure 323
0010
0000
0100
0001
0100
0000
0010
1000
,  // measure 324
0010
0000
0100
0001
0100
0000
0010
1000
,  // measure 325
0010
0000
0101
0000
0000
0110
0000
0000
,  // measure 326
1010
0000
0000
0110
0000
0000
0101
0000
,  // measure 327
0000
0000
1010
0000
0000
0110
0000
0000
,  // measure 328
0101
0000
0000
0110
0000
0000
1010
0000
,  // measure 329
0000
0000
0101
0000
0000
0110
0000
0000
,  // measure 330
1010
0000
0000
0110
0000
0000
0101
0000
,  // measure 331
0000
0000
0010
0000
0000
1000
0000
0000
,  // measure 332
0001
0000
0000
0100
0000
0000
0000
0000
,  // measure 333
0002
2000
0000
0000
,  // measure 334
0000
0000
0000
0000
,  // measure 335
0000
0000
0000
0000
0000
0000
0000
0000
3003
0000
0000
0000
0000
0000
0000
0010
0000
0000
0000
0100
0000
0001
0000
0100
0000
0000
0000
0010
0000
0000
0000
0001
,  // measure 336
0000
0000
0000
1000
0000
0000
0000
0100
0000
0010
0000
0100
0000
0000
0000
1000
0000
0000
0000
0001
0000
0000
0000
0000
0000
0000
0000
0100
0000
0000
0000
0010
,  // measure 337
0000
0000
0000
0100
0000
0000
0000
0010
0000
1000
0000
0010
0000
0000
0000
1000
0000
0000
0000
0001
0000
0000
0000
0100
0000
0000
0000
0010
0000
1000
0000
0010
,  // measure 338
0000
0000
0000
1000
0000
0000
0000
0100
0000
0000
0000
0000
0000
0000
0000
0001
0000
0000
0000
0100
0000
0000
0000
0001
0000
0000
0000
1000
0000
0100
0000
1000
,  // measure 339
0000
0000
0000
0001
0000
0000
0000
0010
0000
0000
0000
0100
0000
0000
0000
0010
0000
0001
0000
0010
0000
0000
0000
0001
0000
0000
0000
0100
0000
0000
0000
0000
,  // measure 340
0000
0000
0000
0010
0000
0000
0000
0100
0000
0000
0000
0010
0000
1000
0000
0010
0000
0000
0000
0100
0000
0000
0000
0001
0000
0000
0000
1000
0000
0000
0000
0010
,  // measure 341
0000
0000
0000
0100
0000
0001
0000
0100
0000
0000
0000
0010
0000
0000
0000
0001
0000
0000
0000
0100
0000
0000
0000
1000
0000
0000
0000
0010
0000
0000
0000
0000
,  // measure 342
0000
0000
0000
0001
0000
0000
0000
2000
0000
0000
0000
0000
0000
0000
0000
3100
0000
0000
0000
0010
0000
0000
0000
0000
0000
0000
0000
0001
0000
0000
0000
1000
,  // measure 343
0000
0000
0000
0001
0000
0000
0000
0000
0000
0000
0000
0010
0000
0000
0000
0100
0000
0000
0000
0010
0000
0001
0000
0010
0000
0000
0000
0000
0000
0000
0000
1100
,  // measure 344
0000
0000
0000
0000
0000
0000
0000
0010
0000
0000
0000
0100
0000
0001
0000
0100
0000
0000
0000
0010
0000
0000
0000
0200
0000
0000
0000
0000
0000
0000
0000
0301
,  // measure 345
0000
0000
0000
1000
0000
0000
0000
0100
0000
0000
0000
0000
0000
0000
0000
0010
0000
0000
0000
0100
0000
0000
0000
1000
0000
0001
0000
1000
0000
0000
0000
0010
,  // measure 346
0000
0000
0000
1000
0000
0000
0000
0002
0000
0000
0000
0000
0000
0000
0000
0103
0000
0000
0000
0010
0000
0000
0000
0100
0000
0000
0000
0000
0000
0000
0000
1000
,  // measure 347
0000
0000
0000
0010
0000
0100
0000
0010
0000
0000
0000
1000
0000
0000
0000
0001
0000
0000
0000
0010
0000
0000
0000
1000
0000
0000
0000
0100
0000
0000
0000
0010
,  // measure 348
0000
0000
0000
0100
0000
0000
0000
1000
0000
0000
0000
0100
0000
0000
0000
0001
0000
0000
0000
0100
0000
0000
0000
0010
0000
0000
0000
0001
0000
0000
0000
1000
,  // measure 349
0000
0000
0000
0010
0000
0000
0000
0001
0000
0000
0000
0010
0000
0000
0000
1000
0000
0000
0000
0100
0000
0000
0000
1000
0000
0000
0000
0010
0000
0000
0000
0001
,  // measure 350
0000
0000
0000
0100
0000
0000
0000
0010
0000
0000
0000
1000
0000
0000
0000
0100
0000
0000
0000
0010
0000
0000
0000
0001
0000
0000
0000
0010
0000
0000
0000
0100
,  // measure 351
0000
0000
0000
1000
0000
0000
0000
0001
0000
0000
0000
0010
0000
0000
0000
1000
0000
0000
0000
0010
0000
0000
0000
0001
0000
0000
0000
0100
0000
0000
0000
0010
,  // measure 352
0000
0000
0000
0001
0000
0000
0000
1000
0000
0000
0000
0100
0000
0000
0000
0010
0000
0000
0000
1000
0000
0000
0000
0010
0000
0000
0000
0001
0000
0000
0000
1001
,  // measure 353
0110
0010
1000
0001
1000
0010
0001
0100
,  // measure 354
0001
1010
0100
0011
0000
0000
0000
0100
0000
0000
0000
1000
0000
0000
0000
0010
0000
0000
0000
0001
0000
0000
0000
0100
0000
0000
0000
1000
0000
0000
0000
0010
,  // measure 355
0000
0000
0000
0100
0000
0000
0000
0001
0000
0000
0000
0010
0000
0000
0000
1000
0000
0000
0000
0001
0000
0000
0000
0100
0000
0000
0000
0010
0000
0000
0000
0001
,  // measure 356
1100
0010
1001
0000
0000
0000
0100
0000
0000
0000
0001
0000
0000
0000
0010
0000
0000
0000
1000
0000
0000
0000
0100
0000
0000
0000
1000
0000
0000
0000
0001
0000
,  // measure 357
0000
0000
0100
0000
0000
0000
0010
0000
0000
0000
1100
0010
0101
0000
0000
0000
0100
0000
0000
0000
0000
0000
0010
0000
0000
0000
0001
0000
1000
0000
0000
0000
,  // measure 358
0100
0000
0000
0000
1000
0001
2000
0000
0000
0000
0000
0000
3100
0000
1000
0000
,  // measure 359
0010
0000
0000
0100
0001
0000
0010
0000
1000
0000
0001
0000
0100
0000
0000
0010
,  // measure 360
0100
0000
1000
0000
0010
0000
0001
0000
0010
0000
0000
0100
0001
0000
1000
0000
,  // measure 361
0100
0000
0010
0000
0100
0000
0000
0010
0001
0000
0100
0000
1000
0000
0000
0000
,  // measure 362
0001
0010
1000
0010
0001
0010
1000
0010
,  // measure 363
0001
0100
1000
0100
0001
0100
1000
0100
,  // measure 364
0010
0000
1000
0100
1000
0000
0001
0100
0001
0000
1000
0010
1000
0000
0001
0010
,  // measure 365
0001
0000
0100
0010
0100
0000
0001
1000
0001
0000
1000
0100
1000
0000
0010
1000
,  // measure 366
0001
0000
0000
0000
;
