#TITLE:The Way Of LEGEND;
#SUBTITLE:(BOSS RUSH Extreme);
#ARTIST:D34D M34T;
#TITLETRANSLIT:;
#SUBTITLETRANSLIT:;
#ARTISTTRANSLIT:;
#CREDIT:;
#BANNER:LEGEND.png;
#BACKGROUND:LEGEND-bg.png;
#LYRICSPATH:;
#CDTITLE:./CDTITLES/DANCE DANCE REVOLUTION EXTREME.PNG;
#MUSIC:Legend.mp3;
#OFFSET:-0.061;
#SAMPLESTART:120.750;
#SAMPLELENGTH:20.000;
#SELECTABLE:YES;
#BPMS:0.000=42.500,7.000=170.000,216.000=165.000,228.000=320.000,239.000=330.000,336.000=340.000,365.500=180.001,596.000=350.000,628.000=340.000,638.000=330.001,735.000=340.001,766.000=679.996,768.000=340.001,769.500=170.002,770.000=340.001,771.000=343.001,1140.000=684.003,1148.000=342.000,1150.000=171.002,1152.500=82.002,1161.000=330.001,1193.000=320.001,1225.000=310.001,1257.000=300.001,1385.000=150.001,1397.000=130.002,1398.000=110.002,1399.000=75.001,1400.000=15.002,1400.750=36.002,1401.000=150.002,1433.000=75.002,1434.000=150.000,1434.500=320.000,1614.000=300.000,1678.000=320.000,1806.500=140.000,1822.500=300.000,1950.000=320.000;
#STOPS:137.250=0.353
,770.000=3.020
,1152.500=0.400
;
#BGCHANGES:;

//---------------dance-single - ----------------
#NOTES:
     dance-single:
     :
     Easy:
     5:
     0.447,0.580,0.177,0.301,0.003: // measure 1
0000
0000
0000
0000
,  // measure 2
0000
0000
0000
0100
,  // measure 3
0100
0100
0010
0000
,  // measure 4
0100
0100
0010
0000
,  // measure 5
0010
0010
0100
0010
,  // measure 6
0000
0000
1001
0100
,  // measure 7
0100
0010
0010
1000
,  // measure 8
0000
0001
0000
1000
,  // measure 9
1000
0001
0001
0100
,  // measure 10
0000
0010
0000
0100
,  // measure 11
0000
0001
0001
0100
,  // measure 12
0000
1000
1000
0010
,  // measure 13
0000
0001
0001
0010
,  // measure 14
0000
1000
1000
0100
,  // measure 15
0100
0100
0100
0001
,  // measure 16
0000
0010
0100
1000
,  // measure 17
0000
0100
0010
0001
,  // measure 18
0000
1000
0100
0020
,  // measure 19
0000
0000
0030
0010
,  // measure 20
0010
0001
1000
0100
,  // measure 21
0000
0010
0000
0100
,  // measure 22
0000
0010
0000
1000
,  // measure 23
0000
0001
0000
1000
,  // measure 24
0001
0100
0010
0100
,  // measure 25
0000
0010
0010
1000
,  // measure 26
0000
0001
0001
0010
,  // measure 27
0000
0100
0100
0001
,  // measure 28
0000
1000
1000
0100
,  // measure 29
0010
0100
0010
0100
,  // measure 30
0010
0001
0100
0010
,  // measure 31
0100
0010
0100
0010
,  // measure 32
0100
1000
0010
0100
,  // measure 33
0010
0001
1000
0100
,  // measure 34
0010
1000
0001
0100
,  // measure 35
0100
1001
0000
0010
,  // measure 36
0000
0010
0000
0100
,  // measure 37
0000
0100
0000
1000
,  // measure 38
0000
1000
0000
0001
,  // measure 39
0000
0001
1000
1000
,  // measure 40
0000
0001
0010
0010
,  // measure 41
0000
0100
0001
0001
,  // measure 42
0000
1000
0100
0100
,  // measure 43
0000
0010
1000
1000
,  // measure 44
0000
0001
0010
0010
,  // measure 45
0000
0100
0001
0001
,  // measure 46
0000
1000
0100
0100
,  // measure 47
0000
0010
1000
0001
,  // measure 48
1000
0001
1000
0100
,  // measure 49
0001
0100
1000
0100
,  // measure 50
0001
0100
1000
0100
,  // measure 51
0001
0100
1000
0001
,  // measure 52
1000
0001
1000
0010
,  // measure 53
0001
0010
1000
0010
,  // measure 54
0001
0010
1000
0010
,  // measure 55
0001
0010
0100
0100
,  // measure 56
0001
0010
0100
0100
,  // measure 57
1000
0010
0001
0001
,  // measure 58
0100
0000
0010
0000
,  // measure 59
1000
0000
1000
0000
,  // measure 60
0100
0000
0010
0000
,  // measure 61
1000
0100
1000
0000
,  // measure 62
0001
0000
0001
0000
,  // measure 63
0100
0000
0100
0000
,  // measure 64
0010
0000
0000
0010
0000
0000
0100
0000
,  // measure 65
0001
0100
0001
0000
,  // measure 66
1000
0000
1000
0000
,  // measure 67
0100
0000
0100
0000
,  // measure 68
0010
0000
0000
0010
0000
0000
0100
0000
,  // measure 69
0001
1000
0001
0000
,  // measure 70
0100
0000
0100
0000
,  // measure 71
0010
0000
0100
0000
,  // measure 72
0001
0000
0000
0001
0000
0000
1000
0000
,  // measure 73
1000
0001
1000
0000
,  // measure 74
0100
0000
0100
0000
,  // measure 75
0010
0000
0100
0000
,  // measure 76
1000
0000
0000
1000
0000
0000
0001
0000
,  // measure 77
0100
0000
0010
0000
,  // measure 78
0100
0000
1000
0000
,  // measure 79
0100
0000
0001
0100
,  // measure 80
0010
0000
1001
0000
,  // measure 81
0100
0000
0010
0000
,  // measure 82
0100
0000
0001
0000
,  // measure 83
0100
0000
1000
0100
,  // measure 84
0010
0000
1001
0000
,  // measure 85
0010
0000
0100
0000
,  // measure 86
0010
0000
1000
0000
,  // measure 87
0010
0000
0001
0000
,  // measure 88
0010
0000
1001
0000
,  // measure 89
0100
0000
1001
0000
,  // measure 90
0100
0000
1001
0000
,  // measure 91
0100
0000
0010
0000
,  // measure 92
0100
0000
0000
0010
,  // measure 93
0010
0100
0100
0001
,  // measure 94
0001
0010
0001
0100
,  // measure 95
0100
0010
0010
1000
,  // measure 96
1000
0001
0010
0001
,  // measure 97
0001
1000
1000
0100
,  // measure 98
0100
1000
0010
0100
,  // measure 99
0100
0010
0010
1000
,  // measure 100
0001
0000
0010
0000
0100
0000
0000
1000
,  // measure 101
0000
0000
0000
1000
0000
0000
0000
1000
,  // measure 102
0000
0000
0000
0010
0000
0000
0000
1000
,  // measure 103
0000
0000
0000
1000
0000
0000
0000
1000
,  // measure 104
0000
0000
0000
0010
0000
0000
1001
0000
,  // measure 105
0001
0100
0100
0001
,  // measure 106
0001
1000
0010
0001
,  // measure 107
0001
0100
0100
0001
,  // measure 108
0001
0010
1000
1001
,  // measure 109
0001
0100
0100
0001
,  // measure 110
0001
1000
0010
0001
,  // measure 111
0001
0100
0100
0001
,  // measure 112
0001
0010
1000
0010
,  // measure 113
0010
0010
0010
1000
,  // measure 114
1000
1000
1000
0010
,  // measure 115
0010
0010
0010
1000
,  // measure 116
0001
1000
0001
1000
,  // measure 117
1000
0002
0013
0001
,  // measure 118
0001
0200
0310
0100
,  // measure 119
0100
0020
1030
0010
,  // measure 120
0010
2000
3001
1001
,  // measure 121
0000
0110
0000
1001
,  // measure 122
0001
1000
0010
2000
,  // measure 123
0000
3000
0001
0110
,  // measure 124
0100
0010
1000
0020
,  // measure 125
0000
0030
0100
1001
,  // measure 126
1000
0001
0100
0002
,  // measure 127
0000
0003
1000
0110
,  // measure 128
0010
0100
0001
0200
,  // measure 129
0000
0300
0010
2000
,  // measure 130
0000
0000
3001
0000
0200
0000
0000
0301
,  // measure 131
0000
1000
0001
1000
,  // measure 132
0020
0000
0000
0130
0000
0002
0000
0000
,  // measure 133
0103
0001
0100
0001
,  // measure 134
0100
0001
0002
1003
,  // measure 135
1000
0020
0000
0130
,  // measure 136
0100
0001
0002
0103
,  // measure 137
0100
0020
0000
1030
,  // measure 138
1000
1000
2000
3001
,  // measure 139
0001
0200
0000
0310
,  // measure 140
0010
1000
2000
3010
,  // measure 141
0010
0200
0000
0301
,  // measure 142
0001
0000
1001
0000
0000
1001
0000
1001
,  // measure 143
0000
0220
0000
0330
,  // measure 144
0000
0110
0000
0000
0000
0000
2000
0000
0000
0000
0000
0000
0001
0000
0000
0000
,  // measure 145
0000
3001
0000
0001
0000
0000
0200
0000
,  // measure 146
0000
0000
0301
0000
0000
1000
0000
0001
,  // measure 147
0000
0100
0010
0100
,  // measure 148
0000
0001
0000
0000
0000
0000
0100
0000
0000
0000
0000
0000
0001
0000
0000
0000
,  // measure 149
1000
0000
0000
0000
0000
0100
0000
0000
0000
0000
0000
0000
0010
0000
0000
0000
,  // measure 150
0000
0000
0000
0000
0002
0000
0000
0003
,  // measure 151
0000
0000
2000
0000
0000
3000
0000
0000
,  // measure 152
0020
0000
0000
0030
0000
0000
2000
0000
,  // measure 153
0000
3000
0000
0000
0200
0000
0000
0300
,  // measure 154
0000
0020
0000
0000
,  // measure 155
0030
0000
0002
0000
0000
0003
0000
0000
,  // measure 156
0200
0000
0000
0300
0000
0000
0020
0000
,  // measure 157
0000
0030
0000
0000
0200
0000
0000
0300
,  // measure 158
0000
0002
0000
0000
,  // measure 159
0000
0000
0000
0000
,  // measure 160
0000
0000
1003
0100
,  // measure 161
1000
0000
0000
0001
,  // measure 162
0000
0001
0000
1000
,  // measure 163
0000
1000
0100
0000
,  // measure 164
1001
0000
0001
0100
,  // measure 165
0001
0000
0000
1000
,  // measure 166
0000
1000
0000
0001
,  // measure 167
0000
0001
0100
0000
,  // measure 168
1001
0000
0010
0100
,  // measure 169
0010
0000
0000
1000
,  // measure 170
0000
0100
0000
0001
,  // measure 171
0000
0100
0010
0000
,  // measure 172
1001
0000
0010
0100
,  // measure 173
0010
0000
0000
0001
,  // measure 174
0000
0100
0000
1000
,  // measure 175
0000
0100
0010
0000
,  // measure 176
1001
0000
1000
0010
,  // measure 177
1000
0000
0000
0001
,  // measure 178
0000
0001
0000
1000
,  // measure 179
0000
1000
0010
0000
,  // measure 180
1001
0000
0001
0010
,  // measure 181
0001
0000
0000
1000
,  // measure 182
0000
1000
0000
0001
,  // measure 183
0000
0001
0010
0000
,  // measure 184
1001
0000
0100
0010
,  // measure 185
0100
0000
0000
1000
,  // measure 186
0000
0010
0000
0001
,  // measure 187
0000
0010
0100
0000
,  // measure 188
1001
0000
0100
0010
,  // measure 189
0100
0000
1000
0001
,  // measure 190
1000
0000
0100
0010
,  // measure 191
0100
0010
0100
0000
,  // measure 192
0010
0000
2002
0000
,  // measure 193
0000
0000
3003
1000
,  // measure 194
0000
0001
0000
2000
,  // measure 195
0000
3001
0000
0010
,  // measure 196
0000
0100
0000
0020
,  // measure 197
0000
0130
0000
1000
,  // measure 198
0000
0100
0000
0020
,  // measure 199
0000
0031
0000
2000
,  // measure 200
0000
3200
0000
0320
,  // measure 201
0000
0031
0000
1000
,  // measure 202
0000
0002
0000
1003
,  // measure 203
0000
1000
0000
1000
,  // measure 204
0000
0020
0000
1030
,  // measure 205
0000
1000
0000
1000
,  // measure 206
0000
0200
0000
1300
,  // measure 207
0000
1000
0000
2000
,  // measure 208
0000
3200
0000
0320
,  // measure 209
0000
0032
0000
2003
,  // measure 210
0000
3001
0000
0200
,  // measure 211
0000
0301
0000
0020
,  // measure 212
0000
0031
0000
0002
,  // measure 213
0000
1003
0000
0020
,  // measure 214
0000
1030
0000
0200
,  // measure 215
0000
1300
0000
0002
,  // measure 216
0000
0023
0000
0230
,  // measure 217
0000
2300
0000
3001
,  // measure 218
0000
0010
0000
0100
,  // measure 219
0000
2000
0000
3100
,  // measure 220
0000
0010
0000
0001
,  // measure 221
0000
2000
0000
3001
,  // measure 222
0000
0010
0000
0100
,  // measure 223
0000
2000
0000
3001
,  // measure 224
0000
0220
0000
0330
,  // measure 225
0000
1000
0000
0002
,  // measure 226
0000
0203
0000
0300
,  // measure 227
0001
0100
0000
0020
,  // measure 228
0000
2030
0000
3010
,  // measure 229
0000
1000
0000
0200
,  // measure 230
0000
0320
0000
0031
,  // measure 231
0000
1000
0000
1000
,  // measure 232
0000
1000
0000
2002
,  // measure 233
0000
3003
0000
2000
,  // measure 234
0000
0000
3200
0000
,  // measure 235
0000
2300
0000
0000
,  // measure 236
0000
0000
0000
0000
,  // measure 237
0000
0000
0000
3020
,  // measure 238
0000
0000
0230
0000
,  // measure 239
0000
0302
0000
0000
,  // measure 240
0000
0000
0000
0003
,  // measure 241
0000
0000
0000
0000
,  // measure 242
2000
0000
0000
0100
,  // measure 243
0000
0000
3100
0000
,  // measure 244
0002
0000
0000
0100
,  // measure 245
0000
0000
0103
0000
,  // measure 246
0020
0000
0000
0100
,  // measure 247
0000
0000
0130
0000
,  // measure 248
0200
0000
0000
0010
,  // measure 249
0000
0000
0310
0000
,  // measure 250
0100
0000
0020
1000
,  // measure 251
0000
0000
1030
0000
,  // measure 252
0100
0000
2000
0001
,  // measure 253
0000
0000
3001
0000
,  // measure 254
0100
0000
0200
0001
,  // measure 255
0000
0000
0301
0000
,  // measure 256
1000
0000
0020
0000
,  // measure 257
1000
0000
1030
0000
,  // measure 258
1010
0000
0200
0000
,  // measure 259
0001
0000
0301
0000
,  // measure 260
0101
0000
2000
0000
,  // measure 261
3002
0000
1003
0000
,  // measure 262
1001
0000
0200
0000
,  // measure 263
0001
0000
0301
0000
,  // measure 264
1000
1000
2000
0000
,  // measure 265
3002
0000
0003
0000
,  // measure 266
0101
0000
0200
0000
,  // measure 267
0001
0000
0301
0000
,  // measure 268
1010
0000
0020
0000
,  // measure 269
2030
0000
3001
0000
,  // measure 270
1001
0000
0200
0000
,  // measure 271
0001
0000
0301
0000
,  // measure 272
2000
0000
3200
0000
,  // measure 273
0320
0000
0032
0000
,  // measure 274
2003
0000
0000
0000
,  // measure 275
0000
0000
0000
0000
,  // measure 276
3001
0000
0002
0000
,  // measure 277
0000
0000
0000
0000
,  // measure 278
0203
0000
0000
0000
,  // measure 279
0000
0000
0000
0000
,  // measure 280
0310
0000
0020
0000
,  // measure 281
0000
0000
0000
0000
,  // measure 282
2030
0000
0000
0000
,  // measure 283
0000
0000
0000
0000
,  // measure 284
3001
0000
0000
0000
,  // measure 285
0001
0000
0000
0000
,  // measure 286
2002
0000
0000
0000
,  // measure 287
0000
0000
0000
0000
,  // measure 288
0000
0000
0000
0000
,  // measure 289
0000
3003
0000
0100
0000
0000
0010
0000
0000
1000
0000
0000
,  // measure 290
0001
0010
0100
0001
,  // measure 291
1000
0100
0000
0010
,  // measure 292
0000
0100
0000
0010
,  // measure 293
0000
0100
0000
0001
,  // measure 294
0000
1000
0000
0010
,  // measure 295
0000
0100
0000
0010
,  // measure 296
0000
0100
0000
0010
,  // measure 297
0000
0100
0000
1000
,  // measure 298
0000
0001
0000
0010
,  // measure 299
0000
0100
1000
0100
,  // measure 300
0000
0010
0000
0001
,  // measure 301
0000
0010
0001
0010
,  // measure 302
0000
0100
0000
1000
,  // measure 303
0000
0001
0100
0001
,  // measure 304
0000
1000
0000
0010
,  // measure 305
0000
1000
0100
1000
,  // measure 306
0000
0001
0000
0010
,  // measure 307
0000
0010
1000
0010
,  // measure 308
0000
0100
0000
0001
,  // measure 309
0000
0100
0001
0100
,  // measure 310
0000
0010
0000
1000
,  // measure 311
0000
0001
0010
0001
,  // measure 312
0000
1000
0000
0100
,  // measure 313
0000
1000
0010
1000
,  // measure 314
0000
0001
0000
0100
,  // measure 315
0000
1000
0000
1000
,  // measure 316
0000
0020
0000
0030
,  // measure 317
0000
1000
0000
1000
,  // measure 318
0000
0020
0000
0030
,  // measure 319
0000
1000
0000
0010
,  // measure 320
0000
0001
0000
0010
,  // measure 321
0000
1000
0000
0010
,  // measure 322
1000
0200
0000
0300
,  // measure 323
0000
0001
0000
0001
,  // measure 324
0000
0020
0000
0030
,  // measure 325
0000
0001
0000
0001
,  // measure 326
0000
0020
0000
0030
,  // measure 327
0000
0001
0000
0010
,  // measure 328
0000
1000
0000
0010
,  // measure 329
0000
0001
0000
0010
,  // measure 330
0001
0200
0000
0300
,  // measure 331
0000
1000
0000
1000
,  // measure 332
0000
0010
0000
1001
,  // measure 333
0000
1000
0000
1000
,  // measure 334
0000
0010
0000
1001
,  // measure 335
0000
1000
0000
0010
,  // measure 336
0000
0001
0000
0010
,  // measure 337
0000
1000
0000
0010
,  // measure 338
1000
0100
0000
1001
,  // measure 339
0000
0001
0000
0001
,  // measure 340
0000
0010
0000
1001
,  // measure 341
0000
0001
0000
0001
,  // measure 342
0000
0010
0000
1001
,  // measure 343
0000
0001
0000
0010
,  // measure 344
0000
1000
0000
0010
,  // measure 345
0000
0001
0000
0010
,  // measure 346
0001
0100
0000
1001
,  // measure 347
0000
0100
0010
0010
,  // measure 348
0100
1000
0001
0001
,  // measure 349
1000
0010
0100
0100
,  // measure 350
0010
0001
1000
0200
,  // measure 351
0000
1300
1000
0001
,  // measure 352
0001
0010
0001
0010
,  // measure 353
0011
0001
0001
1000
,  // measure 354
1000
0010
1000
0010
,  // measure 355
1010
0001
0100
0001
,  // measure 356
1000
0001
0010
0001
,  // measure 357
1001
1000
0100
1000
,  // measure 358
0001
1000
0010
1000
,  // measure 359
1001
0000
0000
0000
,  // measure 360
0000
0100
0000
0010
,  // measure 361
0000
0100
0100
0010
,  // measure 362
0000
1000
0000
0001
,  // measure 363
0000
1000
1000
0001
,  // measure 364
0000
0010
0000
0100
,  // measure 365
0000
0010
0010
0100
,  // measure 366
0000
0001
0000
1000
,  // measure 367
0000
0001
0001
1000
,  // measure 368
0000
0100
0000
0010
,  // measure 369
0000
1000
0000
0100
,  // measure 370
0000
0001
0000
0100
,  // measure 371
0000
1000
0000
0010
,  // measure 372
0000
0100
0000
0001
,  // measure 373
0000
1000
0000
0100
,  // measure 374
0000
0010
0000
0010
,  // measure 375
0000
0100
0000
1001
,  // measure 376
0000
0001
0000
0001
,  // measure 377
0000
0010
0010
0100
,  // measure 378
0000
1000
0000
1000
,  // measure 379
0000
0010
0010
0100
,  // measure 380
0000
0001
0000
0010
,  // measure 381
0000
1000
0000
0010
,  // measure 382
0000
0001
0000
1000
,  // measure 383
0001
0100
0100
0010
,  // measure 384
0000
1000
0000
1000
,  // measure 385
0000
0010
0010
0100
,  // measure 386
0000
0001
0000
0001
,  // measure 387
0000
0010
0010
0100
,  // measure 388
0000
1000
0000
0010
,  // measure 389
0000
0001
0000
0010
,  // measure 390
0000
1000
0000
0001
,  // measure 391
1000
0100
0100
0010
,  // measure 392
0000
1000
0100
1000
,  // measure 393
0000
0001
0000
0001
,  // measure 394
0000
0001
0100
0001
,  // measure 395
0000
1000
0000
1000
,  // measure 396
0000
0001
0100
0001
,  // measure 397
0000
1000
0100
0000
,  // measure 398
0000
1001
0000
0000
0000
0001
0000
0000
,  // measure 399
0001
0000
0000
0001
0000
1000
0000
0000
,  // measure 400
1000
0000
0000
1000
0000
0100
0000
0000
,  // measure 401
0100
0000
0000
0100
0000
0010
0000
0000
,  // measure 402
0010
0000
0000
0010
0000
0100
0000
0000
,  // measure 403
0010
0000
0000
1000
0000
0001
0000
0000
,  // measure 404
0100
0000
0000
0010
0000
0000
0000
1001
,  // measure 405
0000
0000
1000
0000
0000
0010
0000
0000
,  // measure 406
1000
0000
0000
0100
0000
0000
0000
1100
,  // measure 407
0000
0000
1000
0000
0000
0001
0000
0000
,  // measure 408
0100
0000
0000
0010
0000
0000
0000
1010
,  // measure 409
0000
0000
0100
0000
0000
0001
0000
0000
,  // measure 410
1000
0000
0000
0010
0000
0000
0000
0110
,  // measure 411
0000
0000
0100
0000
0000
0001
0000
0000
,  // measure 412
1000
0000
0000
0100
0000
0000
0000
1100
,  // measure 413
0000
0000
0010
0000
0000
0001
0000
0000
,  // measure 414
0100
0000
0000
0010
0000
0000
0000
0101
,  // measure 415
0000
0000
1000
0000
0000
0010
0000
0000
,  // measure 416
1000
0000
0000
0001
0000
0000
0000
0011
,  // measure 417
0000
0000
0100
0000
0000
1000
0000
0000
,  // measure 418
0100
0000
0000
1000
0000
0000
0000
1001
,  // measure 419
0000
0000
0100
0000
0000
0010
0000
0000
,  // measure 420
1000
0000
0000
0000
0000
0001
0000
0100
,  // measure 421
0000
0001
0000
0000
0000
0010
0000
1000
,  // measure 422
0000
0010
0000
0000
0000
1000
0000
0100
,  // measure 423
0000
1000
0000
0000
0000
0010
0000
0001
,  // measure 424
0000
0010
0000
0000
0000
0001
0000
1000
,  // measure 425
0000
0100
0000
0000
0000
1000
0000
0001
,  // measure 426
0000
0100
0000
0000
0000
0101
0000
0000
,  // measure 427
0000
1100
0000
0000
0000
0100
0000
1000
,  // measure 428
0000
0010
0000
0000
0000
0110
0000
0000
,  // measure 429
0000
0110
0000
0000
0000
0110
0000
0000
,  // measure 430
0000
0110
0000
0000
0000
0100
0000
0001
,  // measure 431
0000
0010
0000
0000
0000
0010
0000
0001
,  // measure 432
0000
1000
0000
0000
0000
1000
0000
0010
,  // measure 433
0000
0100
0000
0000
0000
0100
0000
0001
,  // measure 434
0000
1000
0000
0000
0000
1000
0000
0001
,  // measure 435
0000
0100
0000
0000
0000
0100
0000
0010
,  // measure 436
0000
1000
0000
0000
0000
0001
0000
0001
,  // measure 437
0000
1000
0000
1000
0000
0010
0000
0010
,  // measure 438
0000
0100
0000
0000
0000
0101
0000
0000
,  // measure 439
0000
1100
0000
0000
0000
0101
0000
0000
,  // measure 440
0000
1100
0000
0000
0000
1000
0000
1000
,  // measure 441
0000
0010
0000
0010
0000
0100
0000
0100
,  // measure 442
0000
0001
0000
0000
0000
1010
0000
0000
,  // measure 443
0000
0110
0000
0000
0000
0101
0000
0000
,  // measure 444
0000
1001
0000
0000
0000
0000
0000
0110
,  // measure 445
0000
0000
0100
0000
0000
0001
0000
0000
,  // measure 446
0010
0000
0000
0100
0000
0000
0000
1100
,  // measure 447
0000
0000
0100
0000
0000
1000
0000
0000
,  // measure 448
0001
0000
0000
0100
0000
0000
0000
0110
,  // measure 449
0000
0000
1000
0000
0000
0100
0000
0000
,  // measure 450
1000
0000
0000
0001
0000
0000
0000
0101
,  // measure 451
0000
0000
0100
0000
0000
0010
0000
0000
,  // measure 452
1000
0000
0000
0100
0000
0110
0000
1000
,  // measure 453
0000
0001
0000
0100
0000
0001
0000
0001
,  // measure 454
0000
0100
0000
0001
0000
1100
0000
0000
,  // measure 455
0000
1000
0000
0010
0000
1000
0000
0001
,  // measure 456
0000
0100
0000
0010
0000
0110
0000
0000
,  // measure 457
0000
0100
0000
0000
0000
0101
0000
0000
,  // measure 458
0000
0001
0000
0000
0000
1001
0000
0000
,  // measure 459
0000
1000
0000
0000
0000
0001
0000
0100
,  // measure 460
0000
0001
0000
0000
0000
1010
0000
0000
,  // measure 461
0000
0010
0000
0000
0000
0110
0000
0000
,  // measure 462
0000
0100
0000
0000
0000
0101
0000
0000
,  // measure 463
0000
1100
0000
0000
0000
1000
0000
0001
,  // measure 464
0000
1000
0000
0000
0000
0010
0000
0000
,  // measure 465
0000
0100
0000
0000
0000
0001
0000
0000
,  // measure 466
0000
1000
0000
0000
0000
0100
0000
0000
,  // measure 467
0000
1000
0000
0000
0000
0001
0000
0010
,  // measure 468
0000
0100
0000
1000
0000
0010
0000
0000
,  // measure 469
0000
1000
0000
0000
0000
0001
0000
0000
,  // measure 470
0000
0100
0000
0000
0000
0010
0000
0000
,  // measure 471
0000
0100
0000
0000
0000
0001
0000
1000
,  // measure 472
0000
0010
0000
0010
0000
2000
0000
0000
,  // measure 473
0000
3020
0000
0000
0000
0230
0000
0000
,  // measure 474
0000
0302
0000
0000
0000
0023
0000
0000
,  // measure 475
0000
0230
0000
0000
0000
2300
0000
0000
,  // measure 476
0000
3020
0000
0000
0000
0230
0000
0000
,  // measure 477
0000
0302
0000
0000
0000
2003
0000
0000
,  // measure 478
0000
3002
0000
0000
0000
0023
0000
0000
,  // measure 479
0000
0230
0000
0000
0000
2300
0000
0000
,  // measure 480
0000
3020
0000
0000
0000
2030
0000
0000
,  // measure 481
0000
3002
0000
0000
0000
0203
0000
0000
,  // measure 482
0000
0320
0000
0000
0000
2030
0000
0000
,  // measure 483
0000
3200
0000
0000
0000
0320
0000
0000
,  // measure 484
0000
0032
0000
0000
0000
0203
0000
0000
,  // measure 485
0000
0320
0000
0000
0000
2030
0000
0000
,  // measure 486
0000
3002
0000
0003
0000
2002
0000
0000
,  // measure 487
0000
0000
0000
0000
,  // measure 488
0000
0000
0000
3003
0000
1000
0000
0001
,  // measure 489
0000
1000
0000
0001
0000
0100
0000
0001
,  // measure 490
0000
0100
0000
0001
0000
0100
0000
0010
,  // measure 491
0000
0100
0000
0010
0000
1000
0000
0010
,  // measure 492
0000
1000
0000
0010
0000
1000
0000
0001
,  // measure 493
0000
0100
0000
0001
0000
1000
0000
0010
,  // measure 494
0000
1000
0000
0001
0000
0100
0000
0010
,  // measure 495
0000
0100
0000
0001
0000
1000
0000
0100
,  // measure 496
0000
0010
0000
0100
0000
1000
0000
1000
,  // measure 497
0000
0001
0000
0001
0000
0100
0000
0100
,  // measure 498
0000
0010
0000
0010
0000
1000
0000
1000
,  // measure 499
0000
0010
0000
0010
0000
0001
0000
0001
,  // measure 500
0000
0010
0000
0010
0000
1000
0000
1000
,  // measure 501
0000
0001
0000
0001
0000
0100
0000
0100
,  // measure 502
0000
0010
0000
0010
0000
0100
0000
0100
,  // measure 503
0000
0010
0000
0010
0000
1000
0000
1000
,  // measure 504
0000
0001
0000
0001
0000
1000
0000
0010
,  // measure 505
0000
0100
0000
0001
0000
0010
0000
0100
,  // measure 506
0000
1000
0000
0010
0000
0100
0000
0001
,  // measure 507
0000
0010
0000
0100
0000
1000
0000
0010
,  // measure 508
0000
0100
0000
0001
0000
1000
0000
0010
,  // measure 509
0000
0100
0000
0001
0000
1000
0000
0010
,  // measure 510
0000
0100
0000
0001
0000
0010
0000
0100
,  // measure 511
0000
1000
0000
0001
0000
0100
0000
0010
,  // measure 512
0000
1000
0000
0010
0000
0100
0000
0001
,  // measure 513
0000
1000
0000
0001
0000
0010
0000
0100
,  // measure 514
0000
1000
0000
0100
0000
0010
0000
0001
,  // measure 515
0000
1000
0000
0001
0000
1000
0000
0010
,  // measure 516
0000
0100
0000
0001
0000
0010
0000
0100
,  // measure 517
0000
1000
0000
0010
0000
0100
0000
0001
,  // measure 518
0000
0010
0000
0000
0000
1100
0000
0000
,  // measure 519
0202
0000
0000
0303
0000
0000
0000
0000
;

//---------------dance-single - ----------------
#NOTES:
     dance-single:
     :
     Medium:
     8:
     0.647,0.896,0.425,0.366,0.021: // measure 1
0000
0000
0000
0000
,  // measure 2
0000
0000
0000
0100
,  // measure 3
0100
0000
0010
0100
1000
0100
0000
0100
,  // measure 4
0000
0100
0010
0100
0001
0100
0000
0010
,  // measure 5
0000
0010
0100
1000
0100
0010
0100
0000
,  // measure 6
0100
0001
0000
0100
1000
0100
0000
0010
,  // measure 7
0000
0010
1000
0001
1000
0001
0100
0000
,  // measure 8
0100
0000
0001
1000
0001
1000
0000
0010
,  // measure 9
0010
0000
0000
1000
0000
0001
0000
0100
,  // measure 10
0000
0100
0010
0100
0010
0100
0000
0010
,  // measure 11
0000
0010
0100
0001
0100
1000
0100
0000
,  // measure 12
0100
0000
0010
1000
0010
0001
0000
0010
,  // measure 13
0010
0000
0100
0001
0000
1000
0000
0100
,  // measure 14
0000
0100
0010
0010
0000
0100
1000
1000
,  // measure 15
0001
0001
0100
0100
0010
0010
0100
0000
,  // measure 16
0010
0000
0100
0001
0100
1000
0100
0010
,  // measure 17
0010
0000
0000
1000
0000
0001
0000
0100
,  // measure 18
0000
0010
1000
1000
0001
0001
0200
0000
,  // measure 19
0010
0000
0000
1000
0000
0010
0000
0001
,  // measure 20
0300
0010
0100
1000
0100
0001
1000
0000
,  // measure 21
0000
0000
0010
0100
0001
0000
0001
0000
,  // measure 22
0000
0000
0010
0100
1000
0000
1000
0000
,  // measure 23
0000
0001
0000
1000
,  // measure 24
0001
0000
0000
0000
0100
0000
0000
0000
0010
0000
0000
0000
0100
0000
0000
0100
,  // measure 25
0000
0100
0010
0010
0010
0000
0100
0000
,  // measure 26
0010
0000
0100
0000
0001
0000
0001
0000
1000
0000
1000
0000
0010
0000
0000
0010
,  // measure 27
0000
0010
0100
0100
0100
0000
0010
0000
,  // measure 28
0100
0010
1000
1000
0001
0001
0100
0000
,  // measure 29
0010
0100
0000
0001
1000
0000
0100
0100
,  // measure 30
0000
0010
0100
0000
0100
0000
1000
1000
,  // measure 31
0000
0001
1000
0000
1000
0000
0001
0100
,  // measure 32
0000
0010
1000
0000
0001
0000
1000
0100
,  // measure 33
0000
0010
0001
0000
1000
0000
0001
0100
,  // measure 34
0000
0010
1000
0001
0000
0010
0100
0100
,  // measure 35
0010
1001
0100
0010
,  // measure 36
0000
0100
0000
0010
0000
1000
0000
1000
,  // measure 37
0100
0010
0100
0010
,  // measure 38
0000
0100
0000
0010
0000
0001
0000
0001
,  // measure 39
0100
0000
0010
0000
1000
0000
0000
0001
,  // measure 40
0000
0000
0100
0000
0000
0010
0000
0010
,  // measure 41
0100
0110
0000
0000
0001
0000
0000
1000
,  // measure 42
0000
0000
0100
0000
0000
0010
0000
0010
,  // measure 43
0100
0000
0110
0000
0000
0001
0000
0100
,  // measure 44
0000
0000
0010
0000
0000
1000
0000
1000
,  // measure 45
0001
1001
0000
0000
1000
0000
0000
0100
,  // measure 46
0000
0000
0010
0000
0000
0001
0000
0001
,  // measure 47
1000
0000
1001
0000
0100
0110
0000
0010
,  // measure 48
0100
0000
0100
0000
0000
1000
0100
1000
,  // measure 49
0000
0001
0100
0001
0000
1000
0100
1000
,  // measure 50
0001
0100
0001
1000
0100
1000
0001
0100
,  // measure 51
0001
0000
0000
0110
0000
1001
0000
1000
,  // measure 52
0001
0000
0001
0000
0000
1000
0010
1000
,  // measure 53
0000
0001
0010
0001
0000
1000
0010
1000
,  // measure 54
0001
0010
0001
1000
0010
1000
0001
0010
,  // measure 55
0001
0000
0000
1001
0000
0110
0000
0000
,  // measure 56
1000
0001
1000
0000
0000
0001
1000
0001
,  // measure 57
0000
0110
0000
0100
0000
0110
0010
0000
,  // measure 58
0100
0010
0000
0000
,  // measure 59
1000
0000
0100
1000
,  // measure 60
0000
0001
1000
0001
,  // measure 61
0100
0010
1000
0000
,  // measure 62
0100
0010
0001
0000
,  // measure 63
0100
0010
1000
0001
,  // measure 64
0010
0000
0000
0010
0000
0000
0100
0000
,  // measure 65
0100
0010
0001
0000
,  // measure 66
0100
0010
1000
0000
,  // measure 67
0100
0010
0001
1000
,  // measure 68
0010
0000
0000
0010
0000
0000
0100
0000
,  // measure 69
0001
0100
0001
1000
,  // measure 70
0010
0100
0001
0000
,  // measure 71
1000
0100
0010
0001
,  // measure 72
1000
0000
0000
1000
0000
0000
0100
0000
,  // measure 73
1000
0100
1000
0001
,  // measure 74
0010
0100
1000
0000
,  // measure 75
0001
0100
0010
1000
,  // measure 76
0001
0000
0000
0001
0000
0000
0100
0000
,  // measure 77
0010
1000
0010
0001
,  // measure 78
0010
1000
0001
0000
,  // measure 79
0100
1000
0100
0001
,  // measure 80
1000
0000
0000
0001
0000
0000
0100
0000
,  // measure 81
0010
0001
0010
1000
,  // measure 82
0010
0001
1000
0000
,  // measure 83
0100
0001
0100
1000
,  // measure 84
0001
0000
0000
1000
0000
0000
0100
0000
,  // measure 85
0001
0100
0001
0010
,  // measure 86
1000
0010
0001
0000
,  // measure 87
1000
0001
0100
0001
,  // measure 88
0010
0000
0000
0100
0000
0000
0100
0000
,  // measure 89
0010
0001
1001
0000
,  // measure 90
0010
1000
1001
0000
,  // measure 91
0100
0010
0100
0010
,  // measure 92
0000
0000
0000
0001
,  // measure 93
0001
0100
0101
0000
1010
0000
0010
0000
,  // measure 94
0010
1000
1010
0000
2000
0000
3001
0000
,  // measure 95
0001
0100
0101
0000
1010
0000
0100
0000
,  // measure 96
0100
0010
0100
0010
2000
0000
3001
0000
,  // measure 97
0001
0010
0011
0000
1001
0000
0010
0000
,  // measure 98
0010
0001
0011
0000
0020
0000
0130
0000
,  // measure 99
0100
0100
0110
0000
1010
0000
0001
1000
,  // measure 100
0001
1000
0010
1000
0100
1000
0001
0001
,  // measure 101
0010
0010
0001
0001
0020
0030
0001
0001
,  // measure 102
0010
0010
0001
1000
0001
0000
1000
1000
,  // measure 103
0100
0100
1000
1000
0200
0300
1000
1000
,  // measure 104
0100
0100
1000
0001
1000
0000
0101
0000
,  // measure 105
1010
0000
0100
1000
0100
0000
1010
0000
,  // measure 106
0101
0000
0010
0001
0010
0000
1000
0100
,  // measure 107
1000
1000
0001
0010
0000
0010
0100
1000
,  // measure 108
0000
1000
0000
0100
0100
0000
1010
0000
,  // measure 109
0101
0000
0010
0001
0010
0000
0101
0000
,  // measure 110
1010
0000
0100
1000
0100
0000
0001
0010
,  // measure 111
0001
0001
1000
0100
1000
0100
0010
0001
,  // measure 112
0000
0010
0000
0010
0010
0000
0010
0001
,  // measure 113
0010
0001
1000
0001
1000
0001
1000
0100
,  // measure 114
1000
0100
2000
0100
3100
0000
0010
0001
,  // measure 115
0010
0001
1000
0001
0001
0001
2000
0000
,  // measure 116
3200
0320
0031
0101
,  // measure 117
1010
2000
3010
1010
,  // measure 118
0101
0200
0310
0110
,  // measure 119
1001
0020
0031
1001
,  // measure 120
0110
0002
1003
0002
,  // measure 121
1003
0000
0000
0000
0110
0000
0000
0000
0110
0000
0000
0000
0001
0000
0000
0001
,  // measure 122
1000
0000
0000
0000
0001
0000
0000
0001
0010
0000
0000
0000
0002
0000
0000
0000
,  // measure 123
1000
0000
0000
0000
1003
0000
0000
0000
1000
0000
0000
0000
0010
0000
0000
0010
,  // measure 124
0100
0000
0000
0000
0001
0000
0000
0001
0010
0000
0000
0000
0020
0000
0000
0000
,  // measure 125
0100
0000
0000
0000
0130
0000
0000
0000
0100
0000
0000
0000
1000
0000
0000
1000
,  // measure 126
0001
0000
0000
0000
1000
0000
0000
1000
0001
0000
0000
0000
2000
0000
0000
0000
,  // measure 127
0001
0000
0000
0000
3001
0000
0000
0000
0001
0000
0000
0000
0100
0000
0000
0100
,  // measure 128
0010
0000
0000
0000
0100
0000
0000
0100
0001
0000
0000
0000
0200
0000
0000
0000
,  // measure 129
0010
0310
0010
0002
,  // measure 130
0000
1000
1003
0000
0200
0000
1000
1300
,  // measure 131
0000
0101
1010
1000
,  // measure 132
0020
0000
0100
0130
0000
0002
0000
0000
,  // measure 133
0103
0001
0100
0101
,  // measure 134
1010
0000
1000
0001
1000
0002
1003
0100
,  // measure 135
1000
0000
0020
0000
0000
0030
0100
0001
,  // measure 136
0100
0000
0001
1000
0001
2000
3001
0010
,  // measure 137
0001
0000
0200
0000
0000
0300
0010
1000
,  // measure 138
0010
0000
0100
0010
0100
0020
0130
0001
,  // measure 139
0100
0000
0002
0000
0000
0003
1000
0100
,  // measure 140
1000
0000
0010
0100
0010
0200
0310
1000
,  // measure 141
0010
0000
2000
0000
0000
3000
0001
0010
,  // measure 142
0001
0000
1001
0000
0000
0101
0000
1010
,  // measure 143
0000
0220
0000
0330
,  // measure 144
0000
0110
0000
0000
0000
0000
0002
0000
0000
0000
0003
0000
1000
0000
0002
0000
,  // measure 145
0000
0000
1003
0000
0000
0000
0100
0000
0000
0000
0000
0000
0100
0000
0000
0100
,  // measure 146
0000
0100
0020
0000
0031
1000
0000
1000
,  // measure 147
0000
0000
0000
0000
0001
0000
0000
0001
0000
0000
0001
0000
0010
0000
0000
0000
,  // measure 148
0000
0000
0100
0000
0000
0000
0010
0000
0100
0000
1000
0000
0000
0000
0000
0001
,  // measure 149
0000
0000
0001
0000
0000
0000
1000
0000
0000
0000
0000
0000
1000
0000
0000
0010
,  // measure 150
0000
0000
1000
0000
0010
0000
0000
0010
,  // measure 151
0000
0000
0100
0000
0000
0100
0000
0000
,  // measure 152
0001
0000
0000
0001
0000
0000
1000
0000
,  // measure 153
0000
0010
0000
0000
1000
0000
0000
0010
,  // measure 154
0000
0200
0000
0000
,  // measure 155
0300
0000
0001
0000
0000
0001
0000
0000
,  // measure 156
0010
0000
0000
0001
0000
0000
0010
0000
,  // measure 157
0000
0001
0000
0000
0010
0000
0000
0010
,  // measure 158
0000
0200
0000
0000
,  // measure 159
0000
0000
0000
0000
,  // measure 160
0000
0300
1000
0100
,  // measure 161
2000
0000
0000
3000
0000
0000
0100
0000
,  // measure 162
0000
1000
0000
1000
,  // measure 163
0100
1000
0020
0030
,  // measure 164
2002
3003
0001
0100
,  // measure 165
0002
0000
0000
0003
0000
0000
0100
0000
,  // measure 166
0000
0001
0000
0001
,  // measure 167
0100
0001
0020
0030
,  // measure 168
2002
3003
1000
0010
,  // measure 169
2000
0000
0000
3000
0000
0000
0010
0000
,  // measure 170
0000
1000
0000
1000
,  // measure 171
0010
1000
0200
0300
,  // measure 172
2002
3003
0001
0010
,  // measure 173
0002
0000
0000
0003
0000
0000
0010
0000
,  // measure 174
0000
0001
0000
0001
,  // measure 175
0010
0001
0200
0300
,  // measure 176
1001
0000
1000
0001
,  // measure 177
2000
0000
0000
3000
0000
0000
0100
0000
,  // measure 178
0000
1000
0000
1000
,  // measure 179
0001
1000
0020
0000
,  // measure 180
0200
0330
0001
1000
,  // measure 181
0002
0000
0000
0003
0000
0000
0100
0000
,  // measure 182
0000
0001
0000
0001
,  // measure 183
1000
0001
0020
0000
,  // measure 184
0200
0330
1000
0001
,  // measure 185
0200
0000
0000
0300
0000
0000
0100
0000
,  // measure 186
0000
0010
0000
0001
,  // measure 187
1000
0001
0200
0300
,  // measure 188
2002
3003
0001
1000
,  // measure 189
0002
0003
1000
0001
,  // measure 190
2000
3000
0010
0100
,  // measure 191
0010
0100
0020
0000
,  // measure 192
0200
0330
2002
0000
,  // measure 193
0000
0000
3003
0001
,  // measure 194
0100
0001
0000
0010
,  // measure 195
0001
0010
0000
0100
,  // measure 196
1000
0100
0000
1000
,  // measure 197
0001
1000
0000
0010
,  // measure 198
1000
0010
0000
0100
,  // measure 199
0010
0100
0000
2000
,  // measure 200
0001
3002
1000
2003
,  // measure 201
0001
3001
0000
1001
,  // measure 202
0000
0020
0000
1030
,  // measure 203
0100
0010
0000
0001
,  // measure 204
0010
0200
0000
1300
,  // measure 205
0100
0010
0000
1001
,  // measure 206
0000
0200
0000
1300
,  // measure 207
0100
0010
0000
2001
,  // measure 208
0001
3002
1000
2003
,  // measure 209
0001
3002
0000
1003
,  // measure 210
0000
0001
1000
0000
,  // measure 211
0001
0010
0100
2000
,  // measure 212
0000
3000
1000
0000
,  // measure 213
0001
0010
0100
2000
,  // measure 214
0000
3000
1000
0000
,  // measure 215
1000
0100
0010
0001
,  // measure 216
0010
0002
0000
0023
,  // measure 217
0000
0130
1000
0200
,  // measure 218
0000
0300
1000
0020
,  // measure 219
0000
1030
0000
0010
,  // measure 220
0100
0000
0000
0000
0001
0000
0000
1000
,  // measure 221
0000
0001
0000
0010
,  // measure 222
0100
0000
0000
0000
1000
0000
0000
0001
,  // measure 223
0000
1000
0000
0010
,  // measure 224
0100
0001
0010
0100
,  // measure 225
1000
0001
0000
0020
,  // measure 226
0000
0030
0001
0200
,  // measure 227
0000
0301
1000
0100
,  // measure 228
0010
0000
0000
0000
0001
0000
0000
1000
,  // measure 229
0000
0001
0010
0100
,  // measure 230
0010
0000
0000
0000
0001
0000
0000
1000
,  // measure 231
0000
0001
0000
1000
,  // measure 232
0010
0100
0001
0100
,  // measure 233
0010
1000
0001
2000
,  // measure 234
0000
3000
0002
0000
,  // measure 235
0003
2002
0000
0000
,  // measure 236
0000
0000
0000
0000
,  // measure 237
0000
0000
3003
2200
,  // measure 238
0000
3300
0022
0000
,  // measure 239
0033
0220
0000
0000
,  // measure 240
0000
0000
0330
0000
,  // measure 241
1000
0100
0010
0001
,  // measure 242
2000
0000
0000
0001
,  // measure 243
0000
3002
0000
1003
,  // measure 244
0200
0000
0000
1000
,  // measure 245
0000
2300
0000
3001
,  // measure 246
0020
0000
0000
0001
,  // measure 247
0000
0032
0000
1003
,  // measure 248
0200
0000
0000
1000
,  // measure 249
0000
2300
0000
3001
,  // measure 250
0010
0000
0020
0001
,  // measure 251
0000
0001
0030
0001
,  // measure 252
0100
0000
0200
0001
,  // measure 253
0000
0001
0300
0001
,  // measure 254
0100
0000
0020
1000
,  // measure 255
0000
1000
0030
1000
,  // measure 256
0000
0000
2000
0000
,  // measure 257
3020
0030
1000
0100
,  // measure 258
0010
0001
0200
0000
,  // measure 259
0001
0001
0301
0000
,  // measure 260
1001
0000
0020
0000
,  // measure 261
1000
1000
1030
0000
,  // measure 262
1001
0001
2000
0000
,  // measure 263
0100
0100
3100
0000
,  // measure 264
1000
1000
2000
0000
,  // measure 265
3001
0001
0002
0003
,  // measure 266
0200
0000
0000
0000
0320
0000
0030
0200
,  // measure 267
0000
0001
0301
0000
,  // measure 268
1001
0000
0000
0000
0002
0000
0003
0200
,  // measure 269
0001
0001
0301
0000
,  // measure 270
1001
0000
0000
0000
2000
0000
3000
0020
,  // measure 271
1000
1000
1030
0000
,  // measure 272
2000
0001
3002
1000
,  // measure 273
2003
0001
3002
0000
,  // measure 274
2003
0000
3200
0000
,  // measure 275
0320
0000
0032
0000
,  // measure 276
0013
0000
1200
0000
,  // measure 277
2300
0000
3020
0000
,  // measure 278
0130
0000
1002
0000
,  // measure 279
0023
0000
0230
0000
,  // measure 280
1300
0000
1002
0000
,  // measure 281
2003
0000
3001
0000
,  // measure 282
0210
0000
0302
0000
,  // measure 283
0023
0000
0230
0000
,  // measure 284
1300
0000
0001
0000
,  // measure 285
1000
0000
0000
0000
,  // measure 286
2002
0000
0000
0000
,  // measure 287
0000
0000
0000
0000
,  // measure 288
0000
0000
0000
0000
,  // measure 289
0000
0000
0000
0000
3003
0000
0000
0000
0000
0000
0000
0000
0100
0000
0000
0000
0000
0000
0000
0000
0000
0000
0000
0000
0010
0000
0000
0000
0000
0000
0000
0000
0000
1000
0000
0000
1000
0000
0000
0000
0000
0000
0000
0000
0000
0000
0000
0000
,  // measure 290
0001
0000
0000
0000
0100
0000
0000
0000
0010
0000
0000
0001
0001
0000
1000
0000
,  // measure 291
1000
0100
0010
0000
0001
0000
0010
0000
,  // measure 292
0001
0010
0001
1000
,  // measure 293
0001
1000
0100
1000
,  // measure 294
0100
1000
0100
1000
,  // measure 295
0001
0010
0100
0010
,  // measure 296
0100
0010
0100
1000
,  // measure 297
0100
0010
0100
0010
,  // measure 298
0100
0010
0100
0001
,  // measure 299
0100
1000
0100
0010
,  // measure 300
0001
0000
0010
0000
0100
0000
1000
0001
,  // measure 301
1000
0001
0010
0100
,  // measure 302
1000
0000
0100
0000
0010
0000
0001
1000
,  // measure 303
0001
1000
0010
0100
,  // measure 304
0001
0000
0100
0000
0010
0000
1000
0001
,  // measure 305
1000
0001
0100
0010
,  // measure 306
1000
0000
0010
0000
0100
0000
0001
1000
,  // measure 307
0001
1000
0100
1000
,  // measure 308
0001
0000
0100
0000
0010
0000
1000
0001
,  // measure 309
1000
0001
0100
0001
,  // measure 310
1000
0000
0100
0000
0010
0000
0001
1000
,  // measure 311
0001
1000
1000
0100
,  // measure 312
0100
0010
0010
0001
,  // measure 313
0001
1000
0100
0010
,  // measure 314
0001
1000
0100
0010
,  // measure 315
0001
1000
0000
1000
,  // measure 316
0100
0010
0000
0010
,  // measure 317
0000
0001
0000
0001
,  // measure 318
0100
0020
0000
0000
,  // measure 319
0030
1000
0000
0010
,  // measure 320
0000
0001
0000
0010
,  // measure 321
0000
1000
0000
0001
,  // measure 322
0010
0100
0000
0001
,  // measure 323
0001
1000
0001
1000
,  // measure 324
0010
0100
0000
0100
,  // measure 325
0000
0001
1000
0001
,  // measure 326
0010
0200
0000
0000
,  // measure 327
0300
1000
0000
0100
,  // measure 328
0000
0001
0000
0100
,  // measure 329
0000
1000
0000
0001
,  // measure 330
0100
0010
1000
0001
,  // measure 331
0001
1000
0100
1000
,  // measure 332
0001
1000
0000
1000
,  // measure 333
0000
0001
0100
0001
,  // measure 334
1000
0001
0000
0001
,  // measure 335
0000
1000
0100
0001
,  // measure 336
0000
0001
0100
1000
,  // measure 337
0000
1000
0000
0010
,  // measure 338
0001
0010
0000
1000
,  // measure 339
0001
1000
0100
1000
,  // measure 340
0001
0010
0100
0010
,  // measure 341
0000
0001
0100
0001
,  // measure 342
1000
0010
0100
0010
,  // measure 343
0000
1000
0100
0001
,  // measure 344
0100
1000
0010
1000
,  // measure 345
0001
0100
0010
1000
,  // measure 346
0001
0010
0100
0010
,  // measure 347
0110
0000
0100
0010
0001
0100
0010
0000
,  // measure 348
0010
0000
0100
0010
1000
0100
0010
0000
,  // measure 349
0010
0000
0100
0010
0001
1000
0010
0100
,  // measure 350
0010
0000
0100
0010
1000
0001
0020
0000
,  // measure 351
0000
0000
0031
0000
0001
0000
1000
0100
,  // measure 352
1000
0000
0001
1000
0000
1000
0100
0000
,  // measure 353
0011
0000
1000
0000
1000
0000
0001
0100
,  // measure 354
0001
0000
1000
0001
0000
0001
0100
0000
,  // measure 355
1010
0000
0001
0100
0001
0000
1000
0100
,  // measure 356
1000
0000
0010
0001
0000
0001
0100
0000
,  // measure 357
0011
0000
1000
0100
1000
0000
0001
0100
,  // measure 358
0001
0000
0010
1000
0000
1000
0100
0000
,  // measure 359
1010
0000
0000
0000
,  // measure 360
0000
1000
0100
1000
,  // measure 361
0100
0010
0001
0010
,  // measure 362
0000
0001
0100
0001
,  // measure 363
0100
1000
0010
1000
,  // measure 364
0000
0001
0001
1000
,  // measure 365
0001
0010
0100
0010
,  // measure 366
0000
1000
1000
0001
,  // measure 367
1000
0010
0100
0010
,  // measure 368
0100
0001
0010
0001
,  // measure 369
0010
0100
1000
0100
,  // measure 370
0000
1000
0010
1000
,  // measure 371
0010
0001
0100
0001
,  // measure 372
0000
1000
1000
0001
,  // measure 373
1000
0100
0010
0100
,  // measure 374
0000
1000
1000
0100
,  // measure 375
0100
0010
0000
1001
,  // measure 376
0000
0001
0100
0001
,  // measure 377
1000
0010
0100
0100
,  // measure 378
0000
1000
0100
1000
,  // measure 379
0001
0010
0100
0100
,  // measure 380
0000
0100
0010
0100
,  // measure 381
0001
0100
0010
0100
,  // measure 382
1000
0100
0001
1000
,  // measure 383
0100
0010
0100
0100
,  // measure 384
0100
0001
0010
0001
,  // measure 385
1000
0100
0010
0010
,  // measure 386
0000
1000
0010
1000
,  // measure 387
0001
0100
0010
0010
,  // measure 388
0000
0010
0100
0010
,  // measure 389
0001
0010
0100
0010
,  // measure 390
1000
0010
0001
1000
,  // measure 391
0010
0100
0010
0010
,  // measure 392
0000
1000
0100
0010
,  // measure 393
0001
0100
0001
0010
,  // measure 394
0100
1000
0010
0100
,  // measure 395
0001
0100
0010
0001
,  // measure 396
1000
0100
0001
0100
,  // measure 397
1000
0000
0010
0000
0000
0011
0000
0000
,  // measure 398
1001
0000
0000
1100
0000
0100
0000
0000
,  // measure 399
1001
0000
0000
0010
0000
1010
0000
0000
,  // measure 400
1001
0000
0000
0101
0000
0110
0000
0000
,  // measure 401
1010
0000
0000
1001
0000
1100
0000
0000
,  // measure 402
0110
0000
0000
0011
0000
1001
0000
0000
,  // measure 403
1010
0000
0000
0110
0000
0011
0000
0000
,  // measure 404
1001
0000
0000
0101
0000
0100
0000
0010
,  // measure 405
0000
0000
0001
0000
0000
0100
0000
0000
,  // measure 406
1000
0000
0000
1010
0000
0000
0000
0010
,  // measure 407
0000
0000
1000
0000
0000
0100
0000
0000
,  // measure 408
0001
0000
0000
0011
0000
0000
0000
1000
,  // measure 409
0000
0000
0010
0000
0000
0001
0000
0000
,  // measure 410
1000
0000
0000
0110
0000
0000
0000
0001
,  // measure 411
0000
0000
0100
0000
0000
1000
0000
0000
,  // measure 412
0001
0000
0000
0110
0000
0000
0000
1001
,  // measure 413
0000
0000
1100
0000
0000
1010
0000
0000
,  // measure 414
1001
0000
0000
1100
0000
0000
0000
1001
,  // measure 415
0000
0000
0101
0000
0000
0011
0000
0000
,  // measure 416
1001
0000
0000
0101
0000
0000
0000
0110
,  // measure 417
0000
0000
1100
0000
0000
0101
0000
0000
,  // measure 418
0110
0000
0000
1100
0000
0000
0000
0110
,  // measure 419
0000
0000
0011
0000
0000
1010
0000
0000
,  // measure 420
0110
0000
0000
0011
0000
1000
0000
0100
,  // measure 421
0000
1100
0000
0000
0000
0001
0000
0100
,  // measure 422
0000
0101
0000
0000
0000
1100
0000
0000
,  // measure 423
0000
0101
0000
0000
0000
1100
0000
0001
,  // measure 424
0000
0101
0000
0000
0000
0001
0000
0100
,  // measure 425
0000
0101
0000
0000
0000
1000
0000
0100
,  // measure 426
0000
1100
0000
0000
0000
0101
0000
0000
,  // measure 427
0000
1100
0000
0000
0000
0101
0000
1000
,  // measure 428
0000
1100
0000
0000
0000
1001
0000
0000
,  // measure 429
0000
0110
0000
0000
0000
1000
0000
0010
,  // measure 430
0000
1010
0000
0000
0000
1001
0000
0000
,  // measure 431
0000
0110
0000
0000
0000
0001
0000
0010
,  // measure 432
0000
0011
0000
0000
0000
0110
0000
0000
,  // measure 433
0000
1001
0000
0000
0000
1010
0000
1000
,  // measure 434
0000
1100
0000
0000
0000
0110
0000
0000
,  // measure 435
0000
1001
0000
0000
0000
0011
0000
0001
,  // measure 436
0000
0101
0000
0000
0000
0001
0000
0100
,  // measure 437
0000
0001
0000
0100
0000
0010
0000
1000
,  // measure 438
0000
0010
0000
1000
0000
0100
0000
1000
,  // measure 439
0000
0100
0000
1000
0000
0001
0000
0100
,  // measure 440
0000
0101
0000
0001
0000
1000
0000
0100
,  // measure 441
0000
1000
0000
0100
0000
0010
0000
0001
,  // measure 442
0000
0010
0000
0001
0000
0100
0000
0001
,  // measure 443
0000
0100
0000
0001
0000
1000
0000
0100
,  // measure 444
0000
1100
0000
0000
0000
2001
0000
0001
,  // measure 445
0000
0000
0010
0000
0000
0001
0000
0000
,  // measure 446
0100
3000
0000
1001
0000
0000
0000
1002
,  // measure 447
0000
0000
0010
0000
0000
1000
0000
0000
,  // measure 448
0100
0003
0000
1001
0000
0000
0000
0210
,  // measure 449
0000
0000
1000
0000
0000
0010
0000
0000
,  // measure 450
0001
0300
0000
0110
0000
0000
0000
0120
,  // measure 451
0000
0000
1000
0000
0000
0100
0000
0000
,  // measure 452
0001
0030
0000
0110
0000
0000
0000
0012
,  // measure 453
0010
0000
1000
0000
0000
0103
0000
0000
0101
0000
0000
0000
0000
0000
2010
0000
,  // measure 454
0010
0000
0001
0000
0000
3100
0000
0000
1100
0000
0000
0000
0000
0000
0021
0000
,  // measure 455
0001
0000
0100
0000
0000
1030
0000
0000
0011
0000
0000
0000
0000
0000
1200
0000
,  // measure 456
1000
0000
0010
0000
0000
0301
0000
0000
1100
0000
2000
0000
0000
0000
3000
0000
,  // measure 457
1000
0020
0000
0030
0020
1000
0000
1000
,  // measure 458
0000
1030
0000
0000
0000
0002
0000
0003
,  // measure 459
0001
0200
0000
0300
0200
0001
0000
0001
,  // measure 460
0000
0301
0000
0000
0000
2000
0000
3000
,  // measure 461
1000
0200
0000
0300
0200
1000
0000
1000
,  // measure 462
0000
1300
0000
0000
0000
0002
0000
0003
,  // measure 463
0001
0020
0000
0030
0020
0001
0000
0001
,  // measure 464
0000
0031
0000
0000
0000
1000
0000
0001
,  // measure 465
0000
0010
0000
0100
0000
1000
0000
0100
,  // measure 466
0000
0010
0000
0001
0000
1000
0000
0001
,  // measure 467
0000
0010
0000
0100
0000
0010
0001
1000
,  // measure 468
0100
0020
0000
0000
0000
0031
0000
1000
,  // measure 469
0000
0100
0000
0010
0000
0001
0000
0010
,  // measure 470
0000
0100
0000
1000
0000
0001
0000
1000
,  // measure 471
0000
0100
0000
0010
0000
0100
1000
0001
,  // measure 472
0010
0200
0000
0000
0000
0300
0000
1020
,  // measure 473
0000
0000
2030
0000
0000
3200
0000
0300
,  // measure 474
1000
0000
0000
1100
0000
0100
0000
0120
,  // measure 475
0000
0000
0032
0000
0000
0203
0000
0300
,  // measure 476
0010
0000
0000
0110
0000
0010
0000
0020
,  // measure 477
0000
0000
0230
0000
0000
2300
0000
3000
,  // measure 478
0100
0000
0000
0110
0000
0010
0000
0020
,  // measure 479
0000
0000
0032
0000
0000
0023
0000
0000
,  // measure 480
1030
0000
0000
1010
0000
1000
0000
1010
,  // measure 481
0000
0000
0001
0000
0000
0100
0000
0000
,  // measure 482
0001
0000
0000
0101
0000
0001
0000
0101
,  // measure 483
0000
0000
1001
0000
0000
0001
0000
0000
,  // measure 484
0101
0000
0000
1001
0000
1000
0000
1001
,  // measure 485
0000
0000
1100
0000
0000
0100
0000
0000
,  // measure 486
1100
0000
0000
1100
0000
0110
0000
0000
,  // measure 487
0011
0000
0000
0101
0000
0000
1001
0000
,  // measure 488
0000
0110
0000
0000
0000
0100
0000
1000
,  // measure 489
0000
0100
0000
1000
0000
0001
0000
0100
,  // measure 490
0000
0001
0000
0100
0000
0010
0000
1000
,  // measure 491
0000
0010
0000
1000
0000
0001
0000
0010
,  // measure 492
0000
0011
0000
0000
0000
0010
0000
0001
,  // measure 493
0000
0010
0000
0001
0000
1000
0000
0010
,  // measure 494
0000
1000
0000
0010
0000
0100
0000
0001
,  // measure 495
0000
0100
0000
0001
0000
1000
0000
0100
,  // measure 496
0000
1100
0000
0000
0000
1000
0000
0010
,  // measure 497
0000
0001
0000
1000
0000
0100
0000
0001
,  // measure 498
0000
0001
0000
0010
0000
1000
0000
0001
,  // measure 499
0000
0100
0000
1000
0000
0001
0000
0100
,  // measure 500
0000
0101
0000
0000
0000
0010
0000
0001
,  // measure 501
0000
1000
0000
0100
0000
0001
0000
0100
,  // measure 502
0000
1000
0000
0000
0000
1001
0000
0000
,  // measure 503
0000
0110
0000
0000
0000
1001
0000
0000
,  // measure 504
0000
0110
0000
0000
0000
1100
0000
0101
,  // measure 505
0000
1000
0000
0100
0000
0001
0000
0100
,  // measure 506
0000
1000
0100
1000
0000
1100
0000
0000
,  // measure 507
0011
0000
0000
0010
0000
1000
0000
0010
,  // measure 508
0000
0001
0010
0001
0000
1010
0000
0000
,  // measure 509
0110
0000
0000
0001
0000
0100
0000
1000
,  // measure 510
0000
0100
0001
0100
0000
0101
0000
0000
,  // measure 511
1001
0000
0000
0010
0000
0100
0000
1000
,  // measure 512
0000
0001
0100
0001
0000
1001
0000
0000
,  // measure 513
0101
0000
0000
0010
0000
0100
0000
0001
,  // measure 514
0000
1000
0100
1000
0000
1100
0000
0000
,  // measure 515
1001
0000
0000
0010
0000
1000
0000
0100
,  // measure 516
0000
0010
0001
0100
0000
1100
0000
0000
,  // measure 517
0000
0010
1000
0001
0100
1000
0100
0001
,  // measure 518
0010
0001
1000
0100
0000
0110
0000
0000
,  // measure 519
1001
0000
0000
0000
;

//---------------dance-single - ----------------
#NOTES:
     dance-single:
     :
     Hard:
     10:
     0.837,1.000,0.445,0.258,0.114: // measure 1
0000
0000
0000
0000
,  // measure 2
0000
0000
0000
0000
0000
0000
0100
1000
,  // measure 3
0100
0001
0100
0010
1000
0010
0001
1000
,  // measure 4
0000
0100
0000
0010
0000
0001
0100
0001
,  // measure 5
0000
0010
0000
0100
0000
1000
0010
0000
,  // measure 6
0001
0000
0010
0000
0000
0000
0100
0010
0100
0000
0010
0000
1000
0000
0100
0000
,  // measure 7
1000
0010
0100
0001
0100
0010
1000
0000
,  // measure 8
0100
0000
0010
0001
0010
0100
0000
0010
,  // measure 9
0010
0000
0001
0010
0100
0010
0000
0001
,  // measure 10
0000
1000
0100
0001
0100
0010
0001
0100
,  // measure 11
0000
0000
0010
1000
0010
0000
1000
0000
0000
0000
0001
0000
0100
0000
1000
0000
,  // measure 12
0100
0010
1000
0100
0001
0000
0000
0100
,  // measure 13
0010
0000
0000
0000
0001
0010
0001
0000
0010
0000
0100
0000
0000
0000
1000
0000
,  // measure 14
0000
0000
0001
0000
0100
0000
0010
0000
1000
0000
0001
0000
1000
0100
0000
0000
,  // measure 15
0100
0010
0000
0000
0010
0001
0000
0000
0001
0100
0000
0000
0000
0000
0010
0000
,  // measure 16
0000
0010
0000
1000
0100
0010
0000
0001
,  // measure 17
0001
0000
0100
0010
1000
0100
0000
0001
,  // measure 18
0000
0001
0000
0100
1000
0010
0100
0000
,  // measure 19
0100
0000
0010
1000
0010
0001
0000
0001
,  // measure 20
0000
0010
0100
0001
1000
0100
1000
0000
,  // measure 21
0000
0000
0010
0100
0001
0000
0001
0000
,  // measure 22
0000
0000
0010
0100
1000
0000
1000
0000
,  // measure 23
0000
0001
0000
1000
,  // measure 24
0001
0000
0000
0000
0100
0000
0000
0000
0010
0000
0000
0000
1000
0000
0000
0010
,  // measure 25
0000
0000
0100
0000
0001
0000
0100
0000
0010
0000
1000
0000
0001
0000
0000
0010
,  // measure 26
0000
0000
0100
0000
1000
0000
0000
1000
0100
0000
0000
0100
0010
0000
0000
0001
,  // measure 27
0000
1000
0010
0001
0010
1000
0100
0001
,  // measure 28
0100
1000
0010
0100
0001
0010
0100
0000
,  // measure 29
0010
0001
0000
1000
0001
0010
0100
0100
,  // measure 30
0000
1000
0100
0010
0100
1000
0001
0100
,  // measure 31
0000
0010
0000
0100
0001
0000
1000
0100
,  // measure 32
0000
0010
0001
0010
1000
0010
0001
0100
,  // measure 33
0000
0010
1000
0010
0001
0010
1000
0100
,  // measure 34
0000
1000
0001
0100
0000
0001
0100
0010
,  // measure 35
1000
0000
0000
0001
0000
0000
2002
0000
0000
0000
3003
0000
1000
0000
0000
0100
0000
0000
1000
0000
0000
0000
0000
0000
,  // measure 36
0100
0010
0000
0100
0010
0001
0000
1000
,  // measure 37
0000
0010
1000
0010
0001
0100
0001
0000
,  // measure 38
0100
0010
0000
0100
0010
1000
0000
0001
,  // measure 39
0000
0010
0001
0000
0100
0000
0010
1000
,  // measure 40
0000
0000
0010
0000
1000
0001
1000
0000
0000
0000
0100
0000
0000
0000
0001
0000
,  // measure 41
0000
0100
0000
0000
0100
0000
0010
0001
,  // measure 42
0000
0000
0010
0000
0001
1000
0001
0000
0000
0000
0100
0000
0000
0000
1000
0000
,  // measure 43
0000
0100
0010
0000
1000
0100
0000
0010
,  // measure 44
0000
0000
0100
0000
1000
0001
1000
0000
0000
0000
0100
0000
0000
0000
1000
0000
,  // measure 45
0000
0100
0000
0000
0001
0000
0100
0010
,  // measure 46
0000
0000
0100
0000
1000
0001
1000
0000
0000
0000
0100
0000
0000
0000
0001
0000
,  // measure 47
0000
0000
0100
0000
0010
0000
0000
0000
0001
0000
0000
0100
0000
0000
0100
0000
,  // measure 48
0010
1000
0000
1000
0010
0000
0000
0000
0000
0000
1000
0000
0100
0000
0001
0000
,  // measure 49
0000
0001
0100
1000
0000
1000
0100
0001
,  // measure 50
0001
0100
1000
1000
0100
0001
0001
0100
,  // measure 51
1000
0000
0000
0100
0010
0000
0001
0000
0000
0000
0010
0000
0000
0000
0010
0000
,  // measure 52
0100
1000
0000
1000
0100
0000
0000
0000
0000
0000
1000
0000
0010
0000
0001
0000
,  // measure 53
0000
0001
0010
1000
0000
1000
0010
0001
,  // measure 54
0001
0010
1000
1000
0010
0001
0001
0010
,  // measure 55
1000
0000
0000
0010
0100
0000
0001
0000
0000
0000
1000
0000
1000
0000
0000
0000
,  // measure 56
0001
0100
0000
0100
0001
0000
0000
0000
0000
0000
0010
0000
0001
0000
0100
0000
,  // measure 57
0010
1000
0000
1000
0100
0010
0001
0000
,  // measure 58
0010
1000
0000
0010
,  // measure 59
0001
0000
0000
0100
0010
0000
1000
0000
,  // measure 60
0000
0100
0010
0000
0001
0000
1000
0000
,  // measure 61
0010
0100
0001
0100
,  // measure 62
0010
0000
0100
0000
0001
0100
0001
0000
,  // measure 63
1000
0100
1000
0100
,  // measure 64
1001
0000
0000
1100
0000
0000
0110
0000
,  // measure 65
0010
0100
1000
0100
,  // measure 66
0010
0000
0100
0000
1000
0100
1000
0000
,  // measure 67
0001
0100
0001
0100
,  // measure 68
1001
0000
0000
1010
0000
0000
0110
0000
,  // measure 69
0010
0100
0001
0100
,  // measure 70
0010
0000
0100
0000
0001
0100
0001
0000
,  // measure 71
1000
0100
1000
0100
,  // measure 72
1100
0000
0000
0011
0000
0000
0110
0000
,  // measure 73
0010
0100
1000
0100
,  // measure 74
0010
0000
0100
0000
1000
0100
1000
0000
,  // measure 75
0001
0010
0001
0000
1000
0000
0001
1000
,  // measure 76
0010
0100
1001
0000
,  // measure 77
0010
0000
0001
0000
1000
0100
1000
0000
,  // measure 78
0001
0000
0010
0000
0100
1000
0100
0000
,  // measure 79
0010
0000
0001
0000
1000
0001
1000
0000
,  // measure 80
0010
1000
0000
1000
0010
0000
1010
0000
,  // measure 81
0010
0000
1000
0000
0001
0100
0001
0000
,  // measure 82
1000
0000
0010
0000
0100
0001
0100
0000
,  // measure 83
0010
0000
1000
0000
0001
1000
0001
0000
,  // measure 84
0010
0001
0000
0001
0010
0000
0011
0000
,  // measure 85
0010
0000
0001
0000
1000
0100
0010
0000
,  // measure 86
0001
0000
0010
0000
0100
1000
0001
0000
,  // measure 87
0010
0000
0001
0000
1000
0001
0100
0000
,  // measure 88
0010
1000
0000
1000
0010
0000
0110
0000
,  // measure 89
0010
1000
0010
0000
1010
0000
1001
0000
,  // measure 90
0010
0001
0010
0000
0011
0000
1001
0000
,  // measure 91
0100
1000
0100
0000
0010
0001
0010
0000
,  // measure 92
0100
1000
0100
1000
0000
0000
1000
0001
,  // measure 93
1000
0000
0100
0000
2000
0000
0000
3001
0000
0000
0100
0000
0001
0000
1000
0000
,  // measure 94
0001
0000
0010
0000
0002
0000
0000
1003
0000
0000
0010
0000
0001
0000
1000
0000
,  // measure 95
0001
0000
0100
0000
0002
0000
0000
1003
0000
0000
0100
0000
1010
0000
0000
0101
,  // measure 96
0000
0000
0000
1100
0000
0000
0101
0000
1100
0000
0000
0000
0001
0000
1000
0000
,  // measure 97
0001
0000
0100
0000
0002
0000
0000
1003
0000
0000
0100
0000
1000
0000
0001
0000
,  // measure 98
1000
0000
0010
0000
2000
0000
0000
3001
0000
0000
0010
0000
1000
0000
0001
0000
,  // measure 99
1000
0000
0100
0000
2000
0000
0000
3001
0000
0000
0100
0000
0011
0000
0000
1100
,  // measure 100
0000
0000
0000
0101
0000
0000
1100
0000
0101
0000
0000
0000
1000
0100
1000
0100
,  // measure 101
1000
0000
0001
0000
1000
0000
0001
0000
0100
0000
0000
0000
0010
0001
0010
0001
,  // measure 102
0010
0000
0100
0000
0010
0000
0001
0000
1000
0000
0000
0000
0001
0100
0001
0100
,  // measure 103
0001
0000
1000
0000
0001
0000
1000
0000
0100
0000
0000
0000
0010
1000
0010
1000
,  // measure 104
0010
0000
1000
0000
0001
1000
0001
1000
0000
0000
0000
0000
0001
0000
1000
0000
,  // measure 105
0001
0000
0100
0000
0002
0000
0000
1003
0000
0000
0100
0000
1000
0000
0001
0000
,  // measure 106
1000
0000
0010
0000
2000
0000
0000
3001
0000
0000
0010
0000
1000
0000
0001
0000
,  // measure 107
1000
0000
0100
0000
2000
0000
0000
3001
0000
0000
0100
0000
0011
0000
0000
1100
,  // measure 108
0000
0000
0000
0101
0000
0000
1100
0000
0101
0000
0000
0000
1000
0000
0001
0000
,  // measure 109
1000
0000
0100
0000
2000
0000
0000
3001
0000
0000
0100
0000
0001
0000
1000
0000
,  // measure 110
0001
0000
0010
0000
0002
0000
0000
1003
0000
0000
0010
0000
0001
0000
1000
0000
,  // measure 111
0001
0000
0100
0000
0001
0000
0000
1000
0000
0000
0100
0000
1010
0000
0000
0101
,  // measure 112
0000
0000
0000
1100
0000
0000
0101
0000
1100
0000
0000
0000
0101
0000
0000
0000
,  // measure 113
0101
1000
0001
1000
0100
0000
1010
0000
,  // measure 114
1010
1000
0010
1000
0001
0000
1100
0000
,  // measure 115
1100
0001
1000
0001
0100
0000
0010
0001
,  // measure 116
0010
0001
0100
0001
1000
0100
0001
0001
,  // measure 117
0001
0000
0001
0000
1000
0000
0000
0100
0000
0001
0000
0000
0100
0000
0100
0000
,  // measure 118
0100
0000
0100
0000
0010
0000
0000
1000
0000
0100
0000
0000
1000
0000
1000
0000
,  // measure 119
1000
0000
1000
0000
0001
0000
0000
0010
0000
0100
0000
0000
0010
0000
0010
0000
,  // measure 120
0010
0000
0010
0000
0100
0000
0000
0010
0000
0100
0000
0000
0110
0000
0000
0000
,  // measure 121
1001
0000
0000
0000
0110
0000
0000
0000
1001
0000
0000
0000
0100
0000
0000
1000
,  // measure 122
0001
0000
0010
0000
0001
0000
0000
0100
0010
0000
1000
0000
0001
0000
0000
1000
,  // measure 123
0001
0000
1000
0000
0001
0000
1000
0000
0100
0000
1000
0000
0001
0000
0000
1000
,  // measure 124
0001
0000
0010
0000
0001
0000
0000
0100
0010
0000
1000
0000
0001
0000
0000
1000
,  // measure 125
0001
0000
1000
0000
0001
0000
1000
0000
0100
0000
1000
0000
0100
0000
0000
0001
,  // measure 126
1000
0000
0010
0000
1000
0000
0000
0100
0010
0000
0001
0000
1000
0000
0000
0001
,  // measure 127
1000
0001
1000
0001
0100
0001
0020
0000
,  // measure 128
0230
0000
2300
0000
3002
0000
1003
0100
,  // measure 129
0001
0100
1000
0100
0001
0100
2000
0000
,  // measure 130
0000
0001
3001
0000
0220
0330
0001
1000
,  // measure 131
0000
1100
0011
0001
,  // measure 132
2002
3003
0100
0010
0000
2000
0000
0000
,  // measure 133
3100
1000
0101
1100
,  // measure 134
0011
0000
1000
0010
1000
0001
1000
0010
,  // measure 135
1000
0000
0001
0000
1000
0000
0010
0000
1000
0000
0001
0000
1100
0000
0000
1100
,  // measure 136
0000
0101
0010
0100
0001
1000
0010
0100
,  // measure 137
0001
0000
1000
0000
0010
0000
0100
0000
0001
0000
1000
0000
0110
0000
0000
0110
,  // measure 138
0000
1001
0001
0010
0001
1000
0001
0010
,  // measure 139
0001
0000
1000
0000
0001
0000
0010
0000
0001
0000
1000
0000
0101
0000
0000
0101
,  // measure 140
0000
1100
0010
0100
1000
0001
0010
0100
,  // measure 141
1000
0000
0001
0000
0010
0000
0100
0000
1000
0000
0001
0000
0101
0000
0000
0101
,  // measure 142
0000
1001
1001
0000
0000
1100
0000
0011
,  // measure 143
0000
0000
0000
0000
0010
0000
0000
0010
0000
0000
0010
0000
1001
0000
0000
0000
,  // measure 144
0000
0110
0000
0000
0000
0000
1000
0000
0010
0000
0100
0000
0001
0000
0000
0100
,  // measure 145
0000
0000
0001
0000
0000
0000
0100
0000
0000
0000
0000
0000
0001
0000
0000
0001
,  // measure 146
0000
0001
0020
0000
0030
0001
1000
0100
,  // measure 147
0010
0001
0010
0100
1000
0001
1000
0001
,  // measure 148
0010
0001
0100
0001
1000
0100
1000
0001
,  // measure 149
0100
0010
0100
0001
1000
0100
1000
0001
,  // measure 150
1000
0000
0000
0000
0000
0100
1000
0100
,  // measure 151
0000
0000
0100
0001
0100
0001
0000
0000
,  // measure 152
0000
0010
0001
0010
0000
0000
0010
1000
,  // measure 153
0010
1000
0000
0000
0000
0100
1000
0100
,  // measure 154
0000
0000
0100
0001
0100
0001
0100
0001
,  // measure 155
0000
0000
0001
0010
0001
0010
0000
0000
,  // measure 156
0000
1000
0010
1000
0000
0000
1000
0100
,  // measure 157
1000
0100
0000
0000
0000
0001
0100
0001
,  // measure 158
0000
0002
0000
0000
,  // measure 159
0000
0000
0000
0000
,  // measure 160
0000
0003
0010
0100
,  // measure 161
1100
0000
1000
0110
,  // measure 162
0000
0011
0000
0001
,  // measure 163
0100
0001
1001
0000
,  // measure 164
1100
0000
0010
0100
,  // measure 165
0101
0000
0001
0110
,  // measure 166
0000
1010
0000
1000
,  // measure 167
0100
1000
1001
0000
,  // measure 168
0101
0000
0000
0000
0010
0000
0001
0010
,  // measure 169
0100
0000
1000
1100
,  // measure 170
0000
0000
0011
0000
0000
0000
1000
0010
,  // measure 171
0100
0101
0110
0000
,  // measure 172
1010
0000
0000
0000
0010
0000
1000
0100
,  // measure 173
0010
0000
0001
0101
,  // measure 174
0000
0000
1010
0000
0000
0000
0001
0010
,  // measure 175
0100
1100
0110
0000
,  // measure 176
0011
0000
0000
0000
0110
0000
0001
1000
,  // measure 177
0100
0000
0000
0000
0100
0000
1000
0001
,  // measure 178
0100
0000
0110
0000
0000
0000
0010
1000
,  // measure 179
0010
1001
1100
0000
,  // measure 180
0011
0000
0000
0000
0110
0000
1000
0001
,  // measure 181
0100
0000
0000
0000
0100
0000
0001
1000
,  // measure 182
0010
0000
0110
0000
0000
0000
0010
0001
,  // measure 183
0010
1001
0101
0000
,  // measure 184
1010
0000
0000
0000
1001
0000
0001
0100
,  // measure 185
0010
0000
1000
0000
1001
0000
1000
0100
,  // measure 186
0010
0000
0001
0000
0110
0000
0010
0001
,  // measure 187
0010
0100
0110
0010
,  // measure 188
1100
0000
0001
0000
1000
0000
0001
0100
,  // measure 189
0010
0000
1000
0000
0110
0000
0010
0100
,  // measure 190
0010
0000
1100
0000
1000
0100
0010
0001
,  // measure 191
0010
0100
1000
0000
0010
0100
0001
0000
,  // measure 192
1000
0010
0100
0000
2002
0000
0000
0000
,  // measure 193
0000
0000
0000
0000
3003
0000
1000
0001
,  // measure 194
0010
0100
1000
0100
,  // measure 195
0010
0000
0001
0000
1000
0000
0001
1000
,  // measure 196
0100
1000
0001
0100
0001
0100
0001
0000
,  // measure 197
1000
0000
0100
0000
1000
0000
0001
1000
,  // measure 198
0100
1000
0100
0001
,  // measure 199
0100
1000
0100
1001
,  // measure 200
1001
1001
1001
1100
,  // measure 201
1100
0000
1100
0000
1100
0000
0001
1000
,  // measure 202
0010
0100
0001
0100
,  // measure 203
0010
0000
1000
0000
0001
0000
1000
0001
,  // measure 204
0100
0001
1000
0100
1000
0100
1000
0000
,  // measure 205
0001
0000
0100
0000
0001
0000
1000
0001
,  // measure 206
0100
0001
0100
1000
,  // measure 207
0100
0001
0100
1200
,  // measure 208
0300
0102
0003
0021
,  // measure 209
0030
0210
0300
1000
,  // measure 210
0100
1000
0100
1000
,  // measure 211
0100
1000
0100
0010
,  // measure 212
1000
0010
1000
0001
,  // measure 213
1000
0001
0100
0001
,  // measure 214
0000
0001
0100
0001
,  // measure 215
0100
0001
0100
0001
,  // measure 216
1000
0001
1000
1010
,  // measure 217
0000
0101
0000
0001
,  // measure 218
0100
0001
0100
0001
,  // measure 219
0100
0001
0100
0010
,  // measure 220
0001
0010
0001
1000
,  // measure 221
0001
1000
0100
1000
,  // measure 222
0000
1000
0100
1000
,  // measure 223
0100
1000
0100
1000
,  // measure 224
0001
1000
0001
0011
,  // measure 225
0000
1100
0000
0001
,  // measure 226
0010
0001
0010
0001
,  // measure 227
0010
0001
0010
0100
,  // measure 228
0001
0100
0001
1000
,  // measure 229
0001
1000
0010
1000
,  // measure 230
0000
1000
0010
1000
,  // measure 231
0010
0000
1000
0000
0010
0000
0001
0010
,  // measure 232
0100
1000
0001
0010
0100
1000
0001
0010
,  // measure 233
0100
1000
0001
1000
0100
0010
0200
0000
,  // measure 234
0000
0300
2000
0000
,  // measure 235
3000
0202
0000
0303
,  // measure 236
0000
0001
0000
1000
,  // measure 237
0001
1000
0001
0200
,  // measure 238
0000
0300
0002
0000
,  // measure 239
0003
2200
0000
3300
,  // measure 240
0000
0000
0000
0000
,  // measure 241
1000
0001
1000
0100
1000
0001
0100
0001
,  // measure 242
1000
0001
1000
0100
,  // measure 243
0010
0001
2000
3100
,  // measure 244
1000
0001
0100
0001
,  // measure 245
0100
0002
0020
0033
,  // measure 246
1000
0001
1000
0100
,  // measure 247
2000
0000
0020
3000
,  // measure 248
1000
0000
0100
0000
,  // measure 249
0001
0000
0130
0000
,  // measure 250
0001
1000
0001
0100
,  // measure 251
0010
1000
0002
0103
,  // measure 252
0001
1000
0100
1000
,  // measure 253
0100
2000
0001
3000
,  // measure 254
1002
0000
0100
0000
,  // measure 255
0010
0000
1000
0003
,  // measure 256
2001
0000
0001
0000
,  // measure 257
0100
0000
0100
3000
,  // measure 258
0001
1000
0001
0100
0001
1000
0001
1000
,  // measure 259
0010
1000
0002
0103
,  // measure 260
0001
1000
0100
1000
,  // measure 261
0100
2000
0020
3030
,  // measure 262
1000
0001
0100
0001
1000
0001
0100
0000
,  // measure 263
0002
0000
0020
0003
,  // measure 264
0001
0000
0100
0000
,  // measure 265
1000
0000
0130
0000
,  // measure 266
1000
0001
1000
0100
1000
0001
1000
0001
,  // measure 267
0010
0001
2000
3100
,  // measure 268
1000
0001
0100
0001
,  // measure 269
0100
0002
1000
0003
,  // measure 270
2001
0000
0010
3000
,  // measure 271
0001
1000
0001
1000
0001
0100
0001
0100
,  // measure 272
0002
0000
1000
0003
,  // measure 273
0001
1000
0001
1000
0001
1000
0010
1000
,  // measure 274
0001
1000
0001
0100
,  // measure 275
0010
1000
0002
0103
,  // measure 276
0001
1000
0100
1000
,  // measure 277
0100
2000
0020
3030
,  // measure 278
0001
1000
0001
0100
,  // measure 279
0002
0000
0020
0003
,  // measure 280
0001
0000
0100
0000
,  // measure 281
1000
0000
0130
0000
,  // measure 282
1000
0001
1000
0100
,  // measure 283
0010
0001
2000
3100
,  // measure 284
1000
0001
0100
0001
,  // measure 285
0100
0002
1000
0003
,  // measure 286
2002
0000
0000
0000
,  // measure 287
0000
0000
0000
0000
,  // measure 288
0000
0000
0000
0000
,  // measure 289
0000
0000
0000
0000
0000
0000
0000
0000
3003
0000
0000
0000
0100
0000
0000
0000
1000
0000
0000
0000
0000
0010
0000
0000
0000
0000
0000
0000
0000
0000
0000
0000
0000
0001
0000
0000
1001
0000
0000
0000
0000
0000
0000
0000
0000
0100
0000
0000
,  // measure 290
0100
0000
0000
0000
0000
0000
0000
0000
0000
0000
0000
0000
0000
0000
0000
0000
0001
0000
0000
0000
0000
0000
0000
0000
0000
0000
0000
0000
0000
0000
0000
0000
0000
0000
0000
0000
0010
0000
0000
0000
0000
0000
0000
0000
0000
0000
0000
0010
0000
0000
0000
0000
0000
0000
0000
0000
0000
0000
0000
0000
0000
0000
0000
0001
0000
0000
0000
0000
0000
0000
0000
0000
0000
0000
0000
0000
0000
0000
0000
0000
0000
0000
0000
0100
0000
0000
0000
0000
0000
0000
0000
0000
0000
0000
0000
0000
0000
0000
0000
0000
0000
0000
0000
0000
0000
0000
0000
0000
0000
0000
0000
0000
0000
0000
0000
0000
0000
0000
0000
0000
0000
0000
0000
0000
0000
0000
0000
0000
0000
0000
0000
1000
0000
0000
0000
0000
0000
0000
0000
0000
0000
0000
0000
0000
1001
0000
0000
0000
0000
0000
0000
0000
0000
0000
0000
0000
0000
0000
0000
0000
0000
0000
0000
0000
0000
0000
0000
0000
0000
0000
0000
0000
0000
0000
0000
0000
0000
0000
0000
0000
0010
0000
0000
0000
0000
0000
0000
0000
0000
0000
0000
0000
,  // measure 291
0010
0000
0000
0000
1000
0000
0000
0000
0000
0100
0000
0000
0010
0000
0000
0000
0000
0000
0000
0000
0000
0000
0000
0000
0001
0000
0000
0000
0000
0000
0000
0000
0000
0000
0000
0000
0010
0000
0000
0000
0000
0000
0000
0000
0000
0000
0000
0000
,  // measure 292
0001
0000
1000
0000
0100
0000
1000
0100
,  // measure 293
1000
0010
1000
0010
,  // measure 294
1000
0000
0001
0000
0100
0000
0001
0100
,  // measure 295
0001
0000
1000
0000
0001
0000
0010
0100
,  // measure 296
1000
0000
0001
0000
1000
0000
0010
0100
,  // measure 297
0001
0000
0010
0000
0100
0000
1000
0001
,  // measure 298
1000
0000
0001
1000
0010
0000
0100
0001
,  // measure 299
1000
0000
0001
0000
1000
0100
1000
0000
,  // measure 300
1000
0100
1000
0000
0001
0100
0001
0000
,  // measure 301
0001
0100
0001
0000
1000
0001
1000
0000
,  // measure 302
1000
0100
1000
0000
0001
1000
0001
0000
,  // measure 303
0001
0100
0010
0000
0100
0001
0100
0000
,  // measure 304
0010
1000
0010
0000
0100
0001
0100
0000
,  // measure 305
0010
1000
0001
0000
0010
0001
0010
0000
,  // measure 306
0001
0100
0001
0000
1000
0010
1000
0000
,  // measure 307
0001
0100
0010
1000
0010
1000
0010
1000
,  // measure 308
0001
0000
0010
0001
0010
0001
0010
0001
,  // measure 309
1000
0000
0010
1000
0010
0100
0001
1000
,  // measure 310
0100
0000
0010
0001
0010
0100
1000
0001
,  // measure 311
0100
0000
0010
1000
0001
0010
0100
0000
,  // measure 312
1000
0100
0010
0001
1000
0010
0100
0000
,  // measure 313
0001
0100
0010
1000
0100
0010
0001
0100
,  // measure 314
0010
1000
0100
0010
0001
0100
0010
1000
,  // measure 315
0001
1000
0100
1000
,  // measure 316
0100
0001
1000
0001
,  // measure 317
1000
0001
0100
0001
,  // measure 318
0100
1000
0000
0001
,  // measure 319
0000
0000
1000
0100
0000
0000
0100
0010
,  // measure 320
0000
0000
0010
0001
0000
0000
0001
0010
,  // measure 321
0000
0000
0010
0100
0000
0000
1000
0000
,  // measure 322
0001
0000
0100
0000
0100
0010
0100
0000
,  // measure 323
0000
0000
0001
0000
0001
1000
0001
0000
,  // measure 324
0100
0000
0010
0000
1000
0001
1000
0000
,  // measure 325
0000
0000
1000
0000
1000
0001
1000
0000
,  // measure 326
0100
0000
0010
0000
0001
1000
0001
0000
,  // measure 327
0100
0000
0001
0100
0000
0000
0100
0010
,  // measure 328
0000
0000
0010
1000
0000
0000
1000
0010
,  // measure 329
0000
0000
0010
0100
0000
0000
0001
0000
,  // measure 330
1000
0000
0100
0000
0100
0010
0100
0000
,  // measure 331
0010
0001
1000
0001
,  // measure 332
0010
0100
1000
1001
,  // measure 333
0000
1000
0001
1000
,  // measure 334
0010
0000
0100
0000
0001
1000
0001
0000
,  // measure 335
0010
0000
0001
0010
0000
0000
0010
0100
,  // measure 336
0000
0000
0100
1000
0000
0000
1000
0100
,  // measure 337
0000
0000
0100
0010
0000
0000
0001
0000
,  // measure 338
1000
0100
0010
0010
,  // measure 339
0010
0001
0100
0001
,  // measure 340
1000
0000
0001
0000
1000
0100
0010
0000
,  // measure 341
0010
0001
0010
0001
,  // measure 342
1000
0000
0001
0000
1000
0010
0100
0000
,  // measure 343
0100
0000
0001
0000
1000
0001
1000
0000
,  // measure 344
0001
0000
0100
0000
0010
0100
0010
0000
,  // measure 345
0100
0000
0001
0000
0100
0001
0100
0000
,  // measure 346
0001
0000
1000
0010
1000
0000
1010
0000
,  // measure 347
1001
0000
0100
0010
0001
0100
0010
0100
,  // measure 348
0001
0100
0100
0010
1000
0100
0010
0100
,  // measure 349
1000
0100
0001
1000
0100
0010
0100
0001
,  // measure 350
0100
1000
1000
0001
0100
0010
0200
0000
,  // measure 351
0000
1000
0000
0000
0301
0000
0000
0000
0001
0000
0000
0000
0001
0000
0000
1000
,  // measure 352
0100
0000
0000
0100
0010
0000
0000
0010
0001
0000
0000
0000
1001
0000
0000
0000
,  // measure 353
1010
0000
0000
0000
1000
0000
0000
0000
1000
0000
0000
0000
1000
0000
0000
0001
,  // measure 354
0100
0000
0000
0100
0010
0000
0000
0010
1000
0000
0000
0000
1001
0000
0000
0000
,  // measure 355
0011
0000
0000
0000
0001
0000
0001
1000
0001
0000
0000
0100
0001
0000
0000
1000
,  // measure 356
0100
0000
0000
0010
0100
0000
0100
1000
0100
0000
0000
0001
1000
0000
0000
0000
,  // measure 357
0011
0000
0000
0000
1000
0000
1000
0001
1000
0000
0000
0100
1000
0000
0000
0001
,  // measure 358
0100
0000
0000
0010
0100
0000
0100
0001
0100
0000
0000
1000
0001
0000
0100
0000
,  // measure 359
1000
0010
0000
0000
0000
0000
0000
0000
,  // measure 360
0000
0001
0100
0001
,  // measure 361
0010
0100
1000
0001
,  // measure 362
1000
1000
0100
1000
,  // measure 363
0010
0100
0001
1000
,  // measure 364
0001
0001
0010
0001
,  // measure 365
0100
0010
1000
0001
,  // measure 366
1000
1000
0010
1000
,  // measure 367
0100
0000
0010
0000
0001
0000
1000
0001
,  // measure 368
1000
0001
1000
0000
1000
0000
0100
0000
,  // measure 369
0100
0010
0010
0001
,  // measure 370
0001
0010
0010
0100
,  // measure 371
0100
1000
1000
0001
,  // measure 372
0001
1000
0100
1000
,  // measure 373
0100
1000
0001
0000
0100
0000
0001
0000
,  // measure 374
0100
0001
1000
0001
1000
0000
0001
1000
,  // measure 375
0001
0000
1000
0001
1000
0000
0001
0000
,  // measure 376
1001
0000
1000
0000
0000
0001
1000
0000
,  // measure 377
1000
0001
0100
0010
,  // measure 378
1000
0000
0001
0000
0000
1000
0001
0000
,  // measure 379
0001
1000
0100
0010
,  // measure 380
0001
1000
0100
1000
,  // measure 381
0001
1000
0010
1000
,  // measure 382
0001
0010
0100
1000
,  // measure 383
0001
0100
0010
0010
,  // measure 384
0010
0000
1000
0001
1000
0000
0001
0000
,  // measure 385
1000
0001
0010
0100
,  // measure 386
1000
0000
0001
1000
0001
0000
1000
0000
,  // measure 387
0001
1000
0010
0100
,  // measure 388
0001
1000
0010
1000
,  // measure 389
0001
1000
0100
1000
,  // measure 390
0001
0100
0010
1000
,  // measure 391
0001
0010
0100
0100
,  // measure 392
0100
0000
1000
0100
1000
0000
0001
0000
,  // measure 393
0001
0010
1000
0010
,  // measure 394
0001
0000
0001
0100
0001
0000
1000
0000
,  // measure 395
1000
0010
0001
0010
,  // measure 396
1000
0000
0001
1000
0001
0000
0100
0000
,  // measure 397
0000
0000
1000
0100
0000
1100
0000
1001
,  // measure 398
0000
0000
0010
1000
0000
1010
0000
1001
,  // measure 399
0000
0000
0100
0001
0000
0101
0000
1001
,  // measure 400
0000
0000
0010
0001
0000
0011
0000
1001
,  // measure 401
0000
0000
0100
1000
0000
1100
0000
1001
,  // measure 402
0000
0000
0010
1000
0000
1010
0000
0010
,  // measure 403
0100
0000
0001
0100
0000
1001
0000
0010
,  // measure 404
0001
0000
0001
0100
0000
0110
0000
0020
,  // measure 405
0000
0000
0130
0000
0000
2000
0000
0000
,  // measure 406
3100
0000
0000
0001
0000
1000
0000
0200
,  // measure 407
0000
0000
0310
0000
0000
2000
0000
0000
,  // measure 408
3100
0000
0000
0010
0000
0010
0000
1001
,  // measure 409
0000
0000
1100
0000
0000
0101
0000
0000
,  // measure 410
1100
0000
0000
1001
0000
0100
0000
0110
,  // measure 411
0000
0000
0011
0000
0000
0101
0000
0000
,  // measure 412
0011
0000
0000
0110
0000
1000
0000
0020
,  // measure 413
0000
0000
0130
0000
0000
0002
0000
0000
,  // measure 414
0103
0000
0000
1000
0000
0001
0000
0200
,  // measure 415
0000
0000
0310
0000
0000
0002
0000
0000
,  // measure 416
0103
0000
0000
0010
0000
0010
0000
1001
,  // measure 417
0000
0000
0101
0000
0000
1100
0000
0000
,  // measure 418
0101
0000
0000
0110
0000
0100
0000
0110
,  // measure 419
0000
0000
1010
0000
0000
0010
0000
0000
,  // measure 420
0010
0000
0000
0010
0000
0001
1000
0001
,  // measure 421
0100
0010
1000
0100
1000
0001
0000
0100
,  // measure 422
0000
0001
0000
0000
0000
1000
0001
1000
,  // measure 423
0010
0100
0001
0010
0001
1000
0000
0010
,  // measure 424
0000
1000
0000
0000
0000
1000
0001
1000
,  // measure 425
0100
0010
0001
0100
0001
1000
0000
0100
,  // measure 426
0000
1000
0000
0000
0000
0001
1000
0001
,  // measure 427
0010
0100
1000
0001
1000
0001
0000
0010
,  // measure 428
0000
0001
0000
0000
0000
0010
0001
0000
,  // measure 429
0000
0001
0100
0000
0000
0100
1000
0000
,  // measure 430
0000
1000
0010
0000
0000
0010
1000
0000
,  // measure 431
0000
1000
0100
0000
0000
0100
0001
0000
,  // measure 432
0000
0001
0010
0000
0000
0010
0001
0000
,  // measure 433
0000
1000
0001
0000
0000
0010
0001
0000
,  // measure 434
0000
1000
0010
0000
0000
0100
0001
0000
,  // measure 435
0000
1000
0010
0000
0000
1000
0001
0000
,  // measure 436
0000
0001
0100
0000
0000
0101
0000
0101
,  // measure 437
0000
1100
0000
1100
0000
0101
0000
0101
,  // measure 438
0000
1100
0000
1100
0000
1010
0000
0101
,  // measure 439
0000
0011
0000
1100
0000
1001
0000
0110
,  // measure 440
0000
0101
0000
1100
0000
0001
0100
0001
,  // measure 441
0000
1000
0100
1000
0000
0001
1000
0001
,  // measure 442
0000
1000
0001
1000
0000
1010
0000
0101
,  // measure 443
0000
0011
0000
1100
0000
1001
0000
0110
,  // measure 444
0000
0101
0000
1100
0000
1000
0000
1000
,  // measure 445
0000
0001
0000
0001
0000
1000
0000
1000
,  // measure 446
0000
0001
0000
0001
0000
0011
0000
1100
,  // measure 447
0000
1010
0000
0101
0000
1001
0000
0110
,  // measure 448
0000
1100
0000
0101
0000
1000
0100
1000
,  // measure 449
0000
0001
0100
0001
0000
1000
0001
1000
,  // measure 450
0000
0001
1000
0001
0000
0011
0000
1100
,  // measure 451
0000
0011
0000
1100
0000
1001
0000
0101
,  // measure 452
0000
1100
0000
0101
0000
0010
1000
0001
,  // measure 453
0100
0010
0001
1000
0100
1000
0001
0010
,  // measure 454
0100
0001
1000
0100
0010
0001
0010
0100
,  // measure 455
1000
0100
0010
0100
0001
0100
1000
0100
,  // measure 456
1000
0001
0100
0001
0100
1000
0000
1000
,  // measure 457
0000
0010
0100
0000
0010
0200
0000
0301
,  // measure 458
0000
0010
0100
0000
0010
0200
0000
0301
,  // measure 459
0000
0100
0010
0000
1000
0020
0000
0100
,  // measure 460
0000
0130
0000
0000
0000
0001
0000
0001
,  // measure 461
0000
0100
0010
0000
0100
0020
0000
1030
,  // measure 462
0000
0100
0010
0000
0100
0020
0000
1030
,  // measure 463
0000
0010
0100
0000
0001
0200
0000
0010
,  // measure 464
0000
0310
0000
0000
0000
0001
0000
0001
,  // measure 465
0000
1000
0100
1000
0000
0001
0100
0001
,  // measure 466
1000
0100
1000
0001
0001
1000
0000
1000
,  // measure 467
0000
0001
1000
0001
0000
0100
0010
0100
,  // measure 468
0001
0100
1000
0100
0001
1000
0000
1000
,  // measure 469
0000
0001
0100
0001
0000
1000
0100
1000
,  // measure 470
0001
0100
0001
1000
1000
0001
0000
0001
,  // measure 471
0000
1000
0001
1000
0000
0100
0010
0100
,  // measure 472
1000
0100
0001
0100
0001
2000
0000
3002
,  // measure 473
0000
0203
0000
2300
0000
3002
0000
0203
,  // measure 474
0000
0320
0000
0000
0000
0230
0000
2300
,  // measure 475
0000
3200
0000
0320
0000
0032
0000
2003
,  // measure 476
0000
3002
0000
0000
0000
0203
0000
0320
,  // measure 477
0000
0032
0000
2003
0000
3200
0000
0320
,  // measure 478
0000
0230
0000
0000
0000
0302
0000
0203
,  // measure 479
0000
0320
0000
2030
0000
3002
0000
2003
,  // measure 480
0000
3200
0000
0320
0000
0230
0000
0000
,  // measure 481
0000
0302
0000
0000
1003
0200
0000
2300
,  // measure 482
0000
3002
0000
0003
0000
2000
0000
0000
,  // measure 483
0000
3200
0000
0000
1000
0302
0000
2003
,  // measure 484
0000
3200
0000
0000
0000
0302
0000
0000
,  // measure 485
0000
0203
0000
0000
0001
2300
0000
3002
,  // measure 486
0000
0203
0000
0300
0000
1100
0000
0000
,  // measure 487
0101
0000
0000
1100
0000
0000
0101
0000
,  // measure 488
0000
1001
0000
0000
0000
0100
1000
0100
,  // measure 489
0000
0010
0001
0010
0000
0001
0100
0001
,  // measure 490
0000
1000
0100
1000
0000
0001
1000
0100
,  // measure 491
0000
1000
0100
0010
0000
0100
0001
0100
,  // measure 492
0000
0001
1000
0100
0000
0100
0001
0100
,  // measure 493
0000
0010
1000
0010
0000
1000
0100
1000
,  // measure 494
0000
0001
0100
0001
0000
1000
0001
0100
,  // measure 495
0000
0001
0100
0010
0000
0100
1000
0100
,  // measure 496
0000
1000
0001
0100
0000
0100
0001
0100
,  // measure 497
0000
0010
1000
0010
0000
1000
0100
1000
,  // measure 498
0000
0001
0100
0001
0000
1000
0001
1000
,  // measure 499
0000
0100
0010
0100
0000
1000
0001
0100
,  // measure 500
0000
0001
1000
0100
0000
1000
0000
0100
,  // measure 501
0000
0001
0000
0100
0000
1000
0000
0100
,  // measure 502
0000
0001
0000
0100
0000
1000
0001
0100
,  // measure 503
0001
1000
0010
0100
0001
0010
0001
1000
,  // measure 504
0001
0100
0001
1000
0000
0001
0100
0010
,  // measure 505
1000
0001
0100
0010
1000
0001
0100
0010
,  // measure 506
1000
0001
0100
0010
1000
0001
0010
0100
,  // measure 507
1000
0001
0010
0100
1000
0001
0010
0100
,  // measure 508
1000
0001
0010
0100
1000
0001
1000
0001
,  // measure 509
0010
0001
1000
0001
0010
0001
1000
0001
,  // measure 510
0010
0001
1000
0001
0010
0001
1000
0100
,  // measure 511
0001
0100
0001
0100
0000
1000
0001
0100
,  // measure 512
1000
0100
1000
0100
0000
0001
0100
0010
,  // measure 513
1000
0001
0100
0010
1000
0001
0100
0010
,  // measure 514
1000
0001
0100
0010
1000
0001
0010
0100
,  // measure 515
1000
0001
0010
0100
1000
0001
0010
0100
,  // measure 516
1000
0001
0010
0100
1000
0001
0010
0001
,  // measure 517
1000
0001
0010
0001
1000
0001
0010
0001
,  // measure 518
1000
0001
0010
0001
1000
0100
0000
0000
,  // measure 519
2002
0000
3003
0000
;

//---------------dance-single - ----------------
#NOTES:
     dance-single:
     :
     Challenge:
     9:
     0.803,1.000,0.431,0.252,0.110: // measure 1
0000
0000
0000
0000
,  // measure 2
0000
0000
0000
0000
0000
0000
0100
1000
,  // measure 3
0100
0001
0100
0010
1000
0010
0001
1000
,  // measure 4
0000
0100
0000
0010
0000
0001
0100
0001
,  // measure 5
0000
0010
0000
0100
0000
1000
0010
0000
,  // measure 6
0001
0000
0010
0000
0000
0000
0100
0010
0100
0000
0010
0000
1000
0000
0100
0000
,  // measure 7
1000
0010
0100
0001
0100
0010
1000
0000
,  // measure 8
0100
0000
0010
0001
0010
0100
0000
0010
,  // measure 9
0010
0000
0001
0010
0100
0010
0000
0001
,  // measure 10
0000
1000
0100
0001
0100
0010
0001
0100
,  // measure 11
0000
0000
0010
1000
0010
0000
1000
0000
0000
0000
0001
0000
0100
0000
1000
0000
,  // measure 12
0100
0010
1000
0100
0001
0000
0000
0100
,  // measure 13
0010
0000
0000
0000
0001
0010
0001
0000
0010
0000
0100
0000
0000
0000
1000
0000
,  // measure 14
0000
0000
0001
0000
0100
0000
0010
0000
1000
0000
0001
0000
1000
0100
0000
0000
,  // measure 15
0100
0010
0000
0000
0010
0001
0000
0000
0001
0100
0000
0000
0000
0000
0010
0000
,  // measure 16
0000
0010
0000
1000
0100
0010
0000
0001
,  // measure 17
0001
0000
0100
0010
1000
0100
0000
0001
,  // measure 18
0000
0001
0000
0100
1000
0010
0100
0000
,  // measure 19
0100
0000
0010
1000
0010
0001
0000
0001
,  // measure 20
0000
0010
0100
0001
1000
0100
1000
0000
,  // measure 21
0000
0000
0010
0100
0001
0000
0001
0000
,  // measure 22
0000
0000
0010
0100
1000
0000
1000
0000
,  // measure 23
0000
0001
0000
1000
,  // measure 24
0001
0000
0000
0000
0100
0000
0000
0000
0010
0000
0000
0000
1000
0000
0000
0010
,  // measure 25
0000
0000
0100
0000
0001
0000
0100
0000
0010
0000
1000
0000
0001
0000
0000
0010
,  // measure 26
0000
0000
0100
0000
1000
0000
0000
1000
0100
0000
0000
0100
0010
0000
0000
0001
,  // measure 27
0000
1000
0010
0001
0010
1000
0100
0001
,  // measure 28
0100
1000
0010
0100
0001
0010
0100
0000
,  // measure 29
0010
0001
0000
1000
0001
0010
0100
0100
,  // measure 30
0000
1000
0100
0010
0100
1000
0001
0100
,  // measure 31
0000
0010
0000
0100
0001
0000
1000
0100
,  // measure 32
0000
0010
0001
0010
1000
0010
0001
0100
,  // measure 33
0000
0010
1000
0010
0001
0010
1000
0100
,  // measure 34
0000
1000
0001
0100
0000
0001
0100
0010
,  // measure 35
1000
0000
0000
0001
0000
0000
2002
0000
0000
0000
3003
0000
1000
0000
0000
0100
0000
0000
1000
0000
0000
0000
0000
0000
,  // measure 36
0100
0010
0000
0100
0010
0001
0000
1000
,  // measure 37
0000
0010
1000
0010
0001
0100
0001
0000
,  // measure 38
0100
0010
0000
0100
0010
1000
0000
0001
,  // measure 39
0000
0010
0001
0000
0100
0000
0010
1000
,  // measure 40
0000
0000
0010
0000
1000
0001
1000
0000
0000
0000
0100
0000
0000
0000
0001
0000
,  // measure 41
0000
0100
0000
0000
0100
0000
0010
0001
,  // measure 42
0000
0000
0010
0000
0001
1000
0001
0000
0000
0000
0100
0000
0000
0000
1000
0000
,  // measure 43
0000
0100
0010
0000
1000
0100
0000
0010
,  // measure 44
0000
0000
0100
0000
1000
0001
1000
0000
0000
0000
0100
0000
0000
0000
1000
0000
,  // measure 45
0000
0100
0000
0000
0001
0000
0100
0010
,  // measure 46
0000
0000
0100
0000
1000
0001
1000
0000
0000
0000
0100
0000
0000
0000
0001
0000
,  // measure 47
0000
0000
0100
0000
0010
0000
0000
0000
0001
0000
0000
0100
0000
0000
0100
0000
,  // measure 48
0010
1000
0000
1000
0010
0000
0000
0000
0000
0000
1000
0000
0100
0000
0001
0000
,  // measure 49
0000
0001
0100
1000
0000
1000
0100
0001
,  // measure 50
0001
0100
1000
1000
0100
0001
0001
0100
,  // measure 51
1000
0000
0000
0100
0010
0000
0001
0000
0000
0000
0010
0000
0000
0000
0010
0000
,  // measure 52
0100
1000
0000
1000
0100
0000
0000
0000
0000
0000
1000
0000
0010
0000
0001
0000
,  // measure 53
0000
0001
0010
1000
0000
1000
0010
0001
,  // measure 54
0001
0010
1000
1000
0010
0001
0001
0010
,  // measure 55
1000
0000
0000
0010
0100
0000
0001
0000
0000
0000
1000
0000
1000
0000
0000
0000
,  // measure 56
0001
0100
0000
0100
0001
0000
0000
0000
0000
0000
0010
0000
0001
0000
0100
0000
,  // measure 57
0010
1000
0000
1000
0100
0010
0001
0000
,  // measure 58
0010
1000
0000
0010
,  // measure 59
0001
0000
0000
0100
0010
0000
1000
0000
,  // measure 60
0000
0100
0010
0000
0001
0000
1000
0000
,  // measure 61
0010
0100
0001
0100
,  // measure 62
0010
0000
0100
0000
0001
0100
0001
0000
,  // measure 63
1000
0100
1000
0100
,  // measure 64
1001
0000
0000
1100
0000
0000
0110
0000
,  // measure 65
0010
0100
1000
0100
,  // measure 66
0010
0000
0100
0000
1000
0100
1000
0000
,  // measure 67
0001
0100
0001
0100
,  // measure 68
1001
0000
0000
1010
0000
0000
0110
0000
,  // measure 69
0010
0100
0001
0100
,  // measure 70
0010
0000
0100
0000
0001
0100
0001
0000
,  // measure 71
1000
0100
1000
0100
,  // measure 72
1100
0000
0000
0011
0000
0000
0110
0000
,  // measure 73
0010
0100
1000
0100
,  // measure 74
0010
0000
0100
0000
1000
0100
1000
0000
,  // measure 75
0001
0010
0001
0000
1000
0000
0001
1000
,  // measure 76
0010
0100
1001
0000
,  // measure 77
0010
0000
0001
0000
1000
0100
1000
0000
,  // measure 78
0001
0000
0010
0000
0100
1000
0100
0000
,  // measure 79
0010
0000
0001
0000
1000
0001
1000
0000
,  // measure 80
0010
1000
0000
1000
0010
0000
1010
0000
,  // measure 81
0010
0000
1000
0000
0001
0100
0001
0000
,  // measure 82
1000
0000
0010
0000
0100
0001
0100
0000
,  // measure 83
0010
0000
1000
0000
0001
1000
0001
0000
,  // measure 84
0010
0001
0000
0001
0010
0000
0011
0000
,  // measure 85
0010
0000
0001
0000
1000
0100
0010
0000
,  // measure 86
0001
0000
0010
0000
0100
1000
0001
0000
,  // measure 87
0010
0000
0001
0000
1000
0001
0100
0000
,  // measure 88
0010
1000
0000
1000
0010
0000
0110
0000
,  // measure 89
0010
1000
0010
0000
1010
0000
1001
0000
,  // measure 90
0010
0001
0010
0000
0011
0000
1001
0000
,  // measure 91
0100
1000
0100
0000
0010
0001
0010
0000
,  // measure 92
0100
0000
1000
0000
0100
0000
1000
0000
0000
0000
0000
0000
1000
0000
0000
0001
,  // measure 93
1000
0000
0100
0000
1100
0000
0000
0000
0011
0000
0000
0000
0100
0000
0000
0001
,  // measure 94
0100
0000
0001
0000
0101
0000
0000
0000
2010
0000
0000
0000
3010
0000
0000
0100
,  // measure 95
0010
0000
1000
0000
1010
0000
0000
0000
0101
0000
0000
0000
1000
0000
0000
0010
,  // measure 96
1000
0000
0010
0000
0100
0000
0010
0000
2000
0000
0000
0000
3100
0000
0000
1000
,  // measure 97
0100
0000
0010
0000
0011
0000
0000
0000
1001
0000
0000
0000
0100
0000
0000
0010
,  // measure 98
0100
0000
1000
0000
1001
0000
0000
0000
0020
0000
0000
0000
0130
0000
0000
0001
,  // measure 99
0100
0000
0100
0000
0110
0000
0000
0000
0011
0000
0000
0000
1000
0000
0000
0001
,  // measure 100
2000
0000
3002
0000
0013
0000
0000
0001
0100
0000
0001
0000
1000
0000
0001
1000
,  // measure 101
0020
0000
0030
0000
1000
0000
0001
1000
0020
0000
0030
0000
1000
0000
0001
1000
,  // measure 102
0010
0000
0100
0000
0001
0000
1000
0001
0010
0000
0000
0000
0001
0000
1000
0001
,  // measure 103
0200
0000
0300
0000
0001
0000
1000
0001
0200
0000
0300
0000
0001
0000
1000
0001
,  // measure 104
0100
0000
0010
0000
1000
0000
0001
1000
0100
0000
0000
0000
1100
0000
0000
0000
,  // measure 105
0011
0000
0000
0000
0110
0000
0000
0001
0000
0000
0001
0000
0011
0000
0000
0000
,  // measure 106
1100
0000
0000
0000
1001
0000
0000
0100
0010
0000
0000
0000
0001
0000
0100
0000
,  // measure 107
0001
0000
0000
0001
1000
0000
0010
0000
1000
0000
0000
0010
1000
0000
2000
0000
,  // measure 108
0000
0000
3001
0000
0100
0000
0000
0010
0100
0000
0000
0000
0011
0000
0000
0000
,  // measure 109
1100
0000
0000
0000
0110
0000
0000
1000
0000
0000
1000
0000
1100
0000
0000
0000
,  // measure 110
0011
0000
0000
0000
1001
0000
0000
0010
0100
0000
0000
0000
1000
0000
0010
0000
,  // measure 111
1000
0000
0000
1000
0001
0000
0100
0000
0001
0000
0000
0100
0001
0000
0002
0000
,  // measure 112
0000
0000
1003
0000
0010
0000
0000
0100
0010
0000
0000
0000
0010
0000
0000
2000
,  // measure 113
3010
0000
0000
0000
0010
0000
0000
2000
3010
0000
0000
0000
1000
0000
0000
0200
,  // measure 114
1300
0000
0000
0000
1000
0000
0000
0200
1300
0000
0000
0000
0010
0000
0000
0002
,  // measure 115
0013
0000
0000
0000
0010
0000
0000
0002
0013
0000
0000
0000
0001
0000
0100
0000
,  // measure 116
0001
1000
0001
0100
0001
0000
1000
1000
,  // measure 117
0001
0000
0001
0000
1000
0000
0000
1000
0010
0000
0010
0000
1000
0000
1000
0000
,  // measure 118
0010
0000
0010
0000
0100
0000
0000
0100
0001
0000
0001
0000
1001
0000
0000
0000
,  // measure 119
0110
0000
0000
0000
0010
0000
0000
1000
0001
0000
0001
0000
1001
0000
0000
0000
,  // measure 120
0110
0000
0000
0000
1000
0000
0000
0001
0000
0000
1000
0000
0002
0000
0000
0000
,  // measure 121
0103
0000
0000
0000
0110
0000
0000
0000
0110
0000
0000
0000
1000
0000
0000
1000
,  // measure 122
0001
0000
0010
0000
0001
0000
0000
0100
0010
0000
1000
0000
0001
0000
0000
0000
,  // measure 123
1000
0000
0010
0000
1000
0000
0001
0000
1000
0000
0000
0000
0010
0000
0000
0010
,  // measure 124
0100
0000
0001
0000
1000
0000
0000
1000
0001
0000
0010
0000
0001
0000
0000
0000
,  // measure 125
0100
0000
0010
0000
0100
0000
0001
0000
0100
0000
0000
0000
0001
0000
0000
0001
,  // measure 126
1000
0000
0100
0000
1000
0000
0000
0010
0100
0000
0001
0000
1000
0000
0000
0000
,  // measure 127
0001
0000
0100
0000
0001
0000
1000
0000
0001
0000
0000
0000
0100
0000
0000
0100
,  // measure 128
0010
0000
1000
0000
0001
0000
0000
0001
1000
0000
0010
0000
1000
0000
0000
0000
,  // measure 129
0010
0100
0010
1000
0010
0000
2000
0000
,  // measure 130
0000
0001
3001
0000
0220
0330
0001
1000
,  // measure 131
0000
1100
0011
0001
,  // measure 132
2002
3003
0100
0010
0000
2000
0000
0000
,  // measure 133
3100
0000
0000
0000
1000
0000
0000
0001
0100
0000
0000
0000
1100
0000
0000
0000
,  // measure 134
0011
0000
0000
0000
0001
0000
0000
1000
0001
0000
2000
0000
3001
0000
0000
0100
,  // measure 135
0001
0000
0100
0000
0020
0000
0000
0000
0000
0000
0030
0000
0100
0000
0000
0001
,  // measure 136
0100
0000
0000
0000
0001
0000
0000
1000
0001
0000
2000
0000
3001
0000
0000
0010
,  // measure 137
0001
0000
0010
0000
0200
0000
0000
0000
0000
0000
0300
0000
0010
0000
0000
0001
,  // measure 138
0010
0000
0000
0000
0100
0000
0000
0010
0100
0000
0020
0000
0130
0000
0000
1000
,  // measure 139
0100
0000
1000
0000
0002
0000
0000
0000
0000
0000
0003
0000
1000
0000
0000
0100
,  // measure 140
1000
0000
0000
0000
0010
0000
0000
0100
0010
0000
0200
0000
0310
0000
0000
1000
,  // measure 141
0010
0000
1000
0000
0200
0000
0000
0000
0000
0000
0300
0000
1000
0000
0000
0001
,  // measure 142
1000
0000
1001
0000
0000
1100
0000
0011
,  // measure 143
0000
0000
0000
0000
0010
0000
0000
0010
0000
0000
0010
0000
1001
0000
0000
0000
,  // measure 144
0000
0110
0000
0000
0000
0000
1000
0000
0010
0000
0100
0000
0001
0000
0000
0100
,  // measure 145
0000
0000
0001
0000
0000
0000
0100
0000
0000
0000
0000
0000
0001
0000
0000
0001
,  // measure 146
0000
0001
0020
0000
0030
0100
0000
1001
,  // measure 147
0000
0000
0000
0000
1000
0000
0000
1000
0000
0000
1000
0000
0010
0000
0000
0000
,  // measure 148
0000
0000
0100
0000
0000
0000
0010
0000
0100
0001
1000
0000
0000
0000
0000
0001
,  // measure 149
0000
0000
1000
0000
0000
0000
0001
0000
0000
0000
0000
0000
0001
0000
0000
0010
,  // measure 150
0000
0000
0000
0000
0000
0100
1000
0100
,  // measure 151
0000
0000
0100
0001
0100
0001
0000
0000
,  // measure 152
0000
0010
0001
0010
0000
0000
0010
1000
,  // measure 153
0010
1000
0000
0000
0000
0100
1000
0100
,  // measure 154
0000
0000
0100
0001
0100
0001
0100
0001
,  // measure 155
0000
0000
0001
0010
0001
0010
0000
0000
,  // measure 156
0000
1000
0010
1000
0000
0000
1000
0100
,  // measure 157
1000
0100
0000
0000
0000
0001
0100
0001
,  // measure 158
0000
0002
0000
0000
,  // measure 159
0000
0000
0000
0000
,  // measure 160
0000
0003
0010
0100
,  // measure 161
1100
0000
1000
0110
,  // measure 162
0000
0011
0000
0001
,  // measure 163
0100
0001
1001
0000
,  // measure 164
1100
0000
0010
0100
,  // measure 165
0101
0000
0001
0110
,  // measure 166
0000
1010
0000
1000
,  // measure 167
0100
1000
1001
0000
,  // measure 168
0101
0000
0000
0000
0010
0000
0001
0010
,  // measure 169
0100
0000
1000
1100
,  // measure 170
0000
0000
0011
0000
0000
0000
1000
0010
,  // measure 171
0100
0101
0110
0000
,  // measure 172
1010
0000
0000
0000
0010
0000
1000
0100
,  // measure 173
0010
0000
0001
0101
,  // measure 174
0000
0000
1010
0000
0000
0000
0001
0010
,  // measure 175
0100
1100
0110
0000
,  // measure 176
0011
0000
0000
0000
0110
0000
0001
1000
,  // measure 177
0100
0000
0000
0000
0100
0000
1000
0001
,  // measure 178
0100
0000
0110
0000
0000
0000
0010
1000
,  // measure 179
0010
1001
1100
0000
,  // measure 180
0011
0000
0000
0000
0110
0000
1000
0001
,  // measure 181
0100
0000
0000
0000
0100
0000
0001
1000
,  // measure 182
0010
0000
0110
0000
0000
0000
0010
0001
,  // measure 183
0010
1001
0101
0000
,  // measure 184
1010
0000
0000
0000
1001
0000
0001
0100
,  // measure 185
0010
0000
1000
0000
1001
0000
1000
0100
,  // measure 186
0010
0000
0001
0000
0110
0000
0010
0001
,  // measure 187
0010
0100
0110
0010
,  // measure 188
1100
0000
0001
0000
1000
0000
0001
0100
,  // measure 189
0010
0000
1000
0000
0110
0000
0010
0100
,  // measure 190
0010
0000
1100
0000
1000
0100
0010
0001
,  // measure 191
0010
0100
1000
0000
0010
0100
0001
0000
,  // measure 192
1000
0010
0100
0000
2002
0000
0000
0000
,  // measure 193
0000
0000
3003
0001
,  // measure 194
0010
0000
0100
0000
1000
0100
1000
0100
,  // measure 195
1000
0000
0001
0010
0001
0000
1000
0000
,  // measure 196
0100
0000
0010
0000
0001
0010
0001
0010
,  // measure 197
0001
0000
1000
0100
1000
0000
0001
0000
,  // measure 198
0010
0000
0100
0000
1000
0100
1000
0100
,  // measure 199
1000
0000
0001
0010
0001
0100
0010
0100
,  // measure 200
0010
0000
1000
0100
1000
0000
0001
0000
,  // measure 201
1000
0001
1000
0000
0000
0000
0001
0000
,  // measure 202
0010
0000
0100
0000
1000
0100
1000
0100
,  // measure 203
1000
0000
0001
0010
0001
0000
1000
0000
,  // measure 204
0100
0000
0010
0000
0001
0010
0001
0010
,  // measure 205
0001
0000
1000
0100
1000
0000
0001
0000
,  // measure 206
0010
0000
0100
0000
1000
0100
1000
0100
,  // measure 207
1000
0000
0001
0010
0001
0000
1100
0000
,  // measure 208
0000
0101
0000
0011
,  // measure 209
0000
0110
0000
1001
,  // measure 210
0000
0000
1000
0000
0001
0000
1000
0100
,  // measure 211
1000
0000
0000
0100
1000
0000
0001
0000
,  // measure 212
0000
0100
0010
1000
,  // measure 213
0100
0000
0010
0000
0001
0000
1000
0100
,  // measure 214
1000
0000
0000
0100
1000
0000
0001
0000
,  // measure 215
0010
0100
1000
0010
,  // measure 216
0100
0000
0010
0000
0000
0000
0100
0010
,  // measure 217
0100
0010
0000
1001
,  // measure 218
0000
0000
0001
0000
1000
0000
0001
0100
,  // measure 219
0001
0000
0000
0100
0001
0000
1000
0000
,  // measure 220
0000
0100
0010
0001
,  // measure 221
0010
0000
0100
0000
1000
0000
0001
0100
,  // measure 222
0001
0000
0000
0100
0001
0000
1000
0000
,  // measure 223
0100
0010
0001
0010
,  // measure 224
0100
0000
0010
0000
0000
0000
0100
0010
,  // measure 225
0100
0010
0000
1001
,  // measure 226
0000
0000
1000
0000
0001
0000
1000
0100
,  // measure 227
1000
0000
0000
0100
1000
0000
0001
0000
,  // measure 228
0000
0100
0010
1000
,  // measure 229
0100
0000
0010
0000
0001
0000
1000
0100
,  // measure 230
1000
0000
0000
0100
1000
0000
0001
0000
,  // measure 231
0010
0100
1000
0010
,  // measure 232
0100
0000
0010
0000
0000
0000
0100
0010
,  // measure 233
0100
0010
0000
2002
,  // measure 234
0000
3003
0202
0000
,  // measure 235
0303
2020
0000
3030
,  // measure 236
1000
0010
1000
0000
0010
0000
1000
0010
,  // measure 237
1000
0010
1000
2200
,  // measure 238
0000
3300
0022
0000
,  // measure 239
0033
0220
0000
0000
,  // measure 240
0000
0000
0000
0330
,  // measure 241
0010
0100
0010
0000
0100
0000
0010
0000
,  // measure 242
1000
0100
0010
0001
,  // measure 243
1000
0100
1000
0000
0000
0100
1000
0000
,  // measure 244
0001
0010
0100
1000
,  // measure 245
0001
0010
0001
0000
0000
0010
0001
0000
,  // measure 246
1000
0100
0010
0001
,  // measure 247
0100
0010
0100
0000
0000
0010
0100
0000
,  // measure 248
0001
0010
0100
1000
,  // measure 249
0001
1000
0001
0000
0000
1000
0001
0000
,  // measure 250
1000
0100
0010
0001
,  // measure 251
1000
0100
1000
0000
0000
0100
1000
0000
,  // measure 252
0001
0010
0100
1000
,  // measure 253
0001
0010
0001
0000
0000
0010
0001
0000
,  // measure 254
1000
0100
0010
0001
,  // measure 255
0100
0010
0100
0000
0000
0010
0100
0000
,  // measure 256
0110
0000
1001
0000
,  // measure 257
0001
1000
0000
1001
,  // measure 258
0001
0010
0100
1000
,  // measure 259
0001
0010
0001
0010
0001
0000
0000
0000
,  // measure 260
1001
0000
1000
0001
,  // measure 261
1000
0100
1000
0100
1000
0000
0001
0000
,  // measure 262
1000
0100
0010
0001
,  // measure 263
1000
0001
1000
0001
1000
0000
0000
0000
,  // measure 264
0010
0010
0100
0100
,  // measure 265
0010
0100
0010
0100
0010
0000
0100
0000
,  // measure 266
0110
0000
0000
0000
0101
0000
0000
0100
,  // measure 267
0001
0000
0001
0100
0001
0000
0000
0000
,  // measure 268
1001
0000
0000
0000
1000
0000
0100
1000
,  // measure 269
0100
1000
0100
1000
0100
0000
1000
0000
,  // measure 270
1001
0000
0000
0000
0001
0000
0010
0001
,  // measure 271
0010
0000
0001
0010
0001
0000
0000
0000
,  // measure 272
0110
0000
0000
0000
0010
0000
0100
0010
,  // measure 273
0100
0010
0100
0010
0100
0000
0010
0000
,  // measure 274
2000
0000
0200
3300
,  // measure 275
1000
0100
1000
0000
0100
0000
1000
0000
,  // measure 276
0002
0000
0200
0303
,  // measure 277
0001
0000
0100
0000
0001
0100
0001
0100
,  // measure 278
0002
0000
2000
3003
,  // measure 279
1000
0100
0010
0001
,  // measure 280
2000
0000
0002
3000
,  // measure 281
0003
0010
0100
1000
,  // measure 282
0200
0000
0002
0303
,  // measure 283
0001
0100
0001
0000
0100
0000
0001
0000
,  // measure 284
0100
0000
0011
0000
,  // measure 285
1100
0000
0110
0000
,  // measure 286
2002
0000
0000
0000
,  // measure 287
0000
0000
0000
0000
,  // measure 288
0000
0000
0000
0000
,  // measure 289
0000
0000
0000
0000
0000
0000
0000
0000
3003
0000
0000
0000
0100
0000
0000
0000
1000
0000
0000
0000
0000
0010
0000
0000
0000
0000
0000
0000
0000
0000
0000
0000
0000
0001
0000
0000
1001
0000
0000
0000
0000
0000
0000
0000
0000
0100
0000
0000
,  // measure 290
0100
0000
0000
0000
0000
0000
0000
0000
0000
0000
0000
0000
0000
0000
0000
0000
0001
0000
0000
0000
0000
0000
0000
0000
0000
0000
0000
0000
0000
0000
0000
0000
0000
0000
0000
0000
0010
0000
0000
0000
0000
0000
0000
0000
0000
0000
0000
0010
0000
0000
0000
0000
0000
0000
0000
0000
0000
0000
0000
0000
0000
0000
0000
0001
0000
0000
0000
0000
0000
0000
0000
0000
0000
0000
0000
0000
0000
0000
0000
0000
0000
0000
0000
0100
0000
0000
0000
0000
0000
0000
0000
0000
0000
0000
0000
0000
0000
0000
0000
0000
0000
0000
0000
0000
0000
0000
0000
0000
0000
0000
0000
0000
0000
0000
0000
0000
0000
0000
0000
0000
0000
0000
0000
0000
0000
0000
0000
0000
0000
0000
0000
1000
0000
0000
0000
0000
0000
0000
0000
0000
0000
0000
0000
0000
1001
0000
0000
0000
0000
0000
0000
0000
0000
0000
0000
0000
0000
0000
0000
0000
0000
0000
0000
0000
0000
0000
0000
0000
0000
0000
0000
0000
0000
0000
0000
0000
0000
0000
0000
0000
0010
0000
0000
0000
0000
0000
0000
0000
0000
0000
0000
0000
,  // measure 291
0010
0000
0000
0000
1000
0000
0000
0000
0000
0100
0000
0000
0010
0000
0000
0000
0000
0000
0000
0000
0000
0000
0000
0000
0001
0000
0000
0000
0000
0000
0000
0000
0000
0000
0000
0000
0010
0000
0000
0000
0000
0000
0000
0000
0000
0000
0000
0000
,  // measure 292
0001
0000
1000
0000
0100
0000
1000
0100
,  // measure 293
1000
0010
1000
0010
,  // measure 294
1000
0000
0001
0000
0100
0000
0001
0100
,  // measure 295
0001
0000
1000
0000
0001
0000
0010
0100
,  // measure 296
1000
0000
0001
0000
1000
0000
0010
0100
,  // measure 297
0001
0000
0010
0000
0100
0000
1000
0001
,  // measure 298
1000
0000
0001
1000
0010
0000
0100
0001
,  // measure 299
1000
0000
0001
0000
1000
0100
1000
0000
,  // measure 300
1000
0100
1000
0000
0001
0100
0001
0000
,  // measure 301
0001
0100
0001
0000
1000
0001
1000
0000
,  // measure 302
1000
0100
1000
0000
0001
1000
0001
0000
,  // measure 303
0001
0100
0010
0000
0100
0001
0100
0000
,  // measure 304
0010
1000
0010
0000
0100
0001
0100
0000
,  // measure 305
0010
1000
0001
0000
0010
0001
0010
0000
,  // measure 306
0001
0100
0001
0000
1000
0010
1000
0000
,  // measure 307
0001
0100
0010
1000
0010
1000
0010
1000
,  // measure 308
0001
0000
0010
0001
0010
0001
0010
0001
,  // measure 309
1000
0000
0010
1000
0010
0100
0001
1000
,  // measure 310
0100
0000
0010
0001
0010
0100
1000
0001
,  // measure 311
0100
0000
0010
1000
0001
0010
0100
0000
,  // measure 312
1000
0100
0010
0001
1000
0010
0100
0000
,  // measure 313
0001
0100
0010
1000
0100
0010
0001
0100
,  // measure 314
0010
1000
0100
0010
0001
0100
0010
1000
,  // measure 315
0001
1000
0000
1000
,  // measure 316
0100
0001
0000
0001
,  // measure 317
0000
0001
0000
0001
,  // measure 318
0100
1000
0000
1000
,  // measure 319
0000
0000
1000
0100
0000
0000
0100
0010
,  // measure 320
0000
0000
0010
0001
0000
0000
0001
0010
,  // measure 321
0000
0000
0010
0100
0000
0000
1000
0000
,  // measure 322
0001
0100
0000
0100
,  // measure 323
0000
0001
1000
0001
,  // measure 324
0100
0001
1000
1000
,  // measure 325
0000
1000
0001
1000
,  // measure 326
0100
1000
0001
0001
,  // measure 327
0000
0100
0001
0100
,  // measure 328
0010
0100
1000
0100
,  // measure 329
0001
0000
1000
0000
0000
0100
0010
0000
,  // measure 330
0001
0100
0000
0100
,  // measure 331
0000
0000
1000
0000
0000
0100
1000
0000
,  // measure 332
0100
0000
0010
0000
0000
0100
0010
0000
,  // measure 333
0000
0000
0001
0000
0000
0100
0001
0000
,  // measure 334
0100
0000
0010
0000
0000
0100
0010
0000
,  // measure 335
0000
0000
1000
0000
0000
0100
0010
0000
,  // measure 336
0000
0001
1000
0000
0000
0010
0100
0000
,  // measure 337
0000
0001
1000
0000
0000
0100
0010
0000
,  // measure 338
0001
0100
0100
0100
,  // measure 339
0100
0000
0001
0000
0000
0100
0001
0000
,  // measure 340
0100
0010
0000
0010
,  // measure 341
0000
0000
1000
0000
0000
0100
1000
0000
,  // measure 342
0100
0010
0000
0010
,  // measure 343
0000
0000
0001
0000
0000
0100
0010
0000
,  // measure 344
0000
1000
0001
0000
0000
0010
0100
0000
,  // measure 345
0000
1000
0001
0000
0000
0100
0010
0000
,  // measure 346
1000
0001
1000
0001
,  // measure 347
1001
0000
0100
0001
0010
0100
1000
0000
,  // measure 348
1000
0000
0100
1000
0010
0100
0001
0000
,  // measure 349
0001
0000
0010
0001
0100
0010
1000
0000
,  // measure 350
1000
0000
0010
1000
0100
0010
0200
0000
,  // measure 351
0000
0000
0301
0000
0001
0000
0001
1000
,  // measure 352
0000
0001
0100
0010
0000
0010
0100
0000
,  // measure 353
1010
0000
1000
0000
1000
0000
1000
0001
,  // measure 354
0000
1000
0100
0010
0000
0010
0100
0000
,  // measure 355
0011
0000
0001
1000
0001
0000
0001
0100
,  // measure 356
0000
1000
0001
0010
0000
0100
1000
0000
,  // measure 357
0110
0000
1000
0001
1000
0000
1000
0100
,  // measure 358
0000
0001
1000
0010
0000
0100
0001
0000
,  // measure 359
0110
0000
0000
0000
,  // measure 360
0000
0001
0100
0001
,  // measure 361
0001
1000
1000
0100
,  // measure 362
0000
1000
0100
1000
,  // measure 363
1000
0001
0001
0100
,  // measure 364
0000
1000
0000
1000
,  // measure 365
0000
0001
0100
0010
,  // measure 366
1000
0000
0001
0001
,  // measure 367
0001
1000
0000
1001
,  // measure 368
0000
0001
0000
0001
,  // measure 369
0000
1000
0100
0010
,  // measure 370
0001
0000
1000
1000
,  // measure 371
1000
0001
0000
1001
,  // measure 372
0000
1000
0100
1000
,  // measure 373
0100
0001
0001
0001
,  // measure 374
0000
0001
0100
0001
,  // measure 375
0100
1000
1000
1000
,  // measure 376
0000
0001
0100
0001
,  // measure 377
1000
0000
0010
0000
0000
0000
0001
1000
,  // measure 378
0000
0100
1000
0000
0100
0000
1000
0000
,  // measure 379
0001
0000
0010
0000
0000
1000
0001
0000
,  // measure 380
0100
1000
0100
0010
,  // measure 381
0100
0001
0100
0010
,  // measure 382
0100
0001
0100
0010
,  // measure 383
1000
0001
0100
0100
,  // measure 384
0100
1000
0100
1000
,  // measure 385
0001
0000
0010
0000
0000
0000
1000
0001
,  // measure 386
0000
0100
0001
0000
0100
0000
0001
0000
,  // measure 387
1000
0000
0010
0000
0000
0001
1000
0000
,  // measure 388
0100
0001
0100
0010
,  // measure 389
0100
1000
0100
0010
,  // measure 390
0100
1000
0100
0010
,  // measure 391
0001
1000
0100
0100
,  // measure 392
0000
0000
0001
0000
1000
0100
1000
0000
,  // measure 393
0001
0100
0010
0010
,  // measure 394
0000
0000
1000
0000
0001
0100
0001
0000
,  // measure 395
1000
0100
0010
0010
,  // measure 396
0000
0000
0001
0000
1000
0100
1000
0000
,  // measure 397
0001
0000
1000
0000
0000
0001
0000
0101
,  // measure 398
0000
0000
0010
1000
0000
1010
0000
1001
,  // measure 399
0000
0000
0100
0001
0000
0101
0000
1001
,  // measure 400
0000
0000
0010
0001
0000
0011
0000
1001
,  // measure 401
0000
0000
0100
1000
0000
1100
0000
1001
,  // measure 402
0000
0000
0010
1000
0000
1010
0000
0010
,  // measure 403
0100
0000
0001
0100
0000
1001
0000
0010
,  // measure 404
0001
0000
0001
0100
0000
0110
0000
0020
,  // measure 405
0000
0000
1030
0000
0000
0002
0000
0000
,  // measure 406
0103
0000
0000
0010
0000
0000
0000
0200
,  // measure 407
0000
0000
0310
0000
0000
2000
0000
0000
,  // measure 408
3100
0000
0000
0010
0000
0000
0000
0200
,  // measure 409
0000
0000
0301
0000
0000
0200
0000
0000
,  // measure 410
1300
0000
0000
0001
0000
0000
0000
0200
,  // measure 411
0000
0000
1300
0000
0000
0200
0000
0000
,  // measure 412
0301
0000
0000
1000
0000
0000
0000
1001
,  // measure 413
0000
0000
1100
0000
0000
0101
0000
0000
,  // measure 414
1100
0000
0000
1001
0000
0100
0000
0110
,  // measure 415
0000
0000
0011
0000
0000
0101
0000
0000
,  // measure 416
0011
0000
0000
0110
0000
0100
0000
1001
,  // measure 417
0000
0000
0011
0000
0000
1010
0000
0000
,  // measure 418
0011
0000
0000
1001
0000
0010
0000
0110
,  // measure 419
0000
0000
1100
0000
0000
1010
0000
0000
,  // measure 420
1100
0000
0000
0110
0000
0001
1000
0100
,  // measure 421
0000
0010
0000
0100
0000
1000
0001
0100
,  // measure 422
0000
1001
0000
0000
0000
1000
0001
0010
,  // measure 423
0000
0100
0000
0010
0000
0001
1000
0010
,  // measure 424
0000
1001
0000
0000
0000
1000
0001
0100
,  // measure 425
0000
0010
0000
0100
0000
0001
1000
0100
,  // measure 426
0000
0010
0000
0100
0000
1000
0001
0010
,  // measure 427
0000
0100
0000
0010
0000
0001
1000
0010
,  // measure 428
0000
1001
0000
0000
0000
0200
0000
1300
,  // measure 429
0000
1100
0000
0100
0000
0020
0000
0031
,  // measure 430
0000
0101
0000
0100
0000
0020
0000
1030
,  // measure 431
0000
1010
0000
0010
0000
0200
0000
0301
,  // measure 432
0000
1001
0000
1000
0000
0200
0000
0310
,  // measure 433
0000
0110
0000
0100
0000
2000
0000
3100
,  // measure 434
0000
1100
0000
1000
0000
0002
0000
0013
,  // measure 435
0000
0011
0000
0001
0000
1001
0000
0100
,  // measure 436
0000
1001
0000
0000
0000
0101
0000
0010
,  // measure 437
0000
0100
0001
0200
0000
0301
0100
0002
,  // measure 438
0000
1003
0000
0010
0000
1010
0000
0100
,  // measure 439
0000
0010
1000
0020
0000
1030
0010
2000
,  // measure 440
0000
3010
0000
1000
0000
1100
0000
0010
,  // measure 441
0000
0100
1000
0200
0000
1300
0100
2000
,  // measure 442
0000
3100
0000
0010
0000
0011
0000
0100
,  // measure 443
0000
0010
0001
0020
0000
0031
0010
0002
,  // measure 444
0000
0013
0000
1001
0000
0100
1000
0100
,  // measure 445
0000
0010
0001
0010
0000
0001
1000
0001
,  // measure 446
0000
1000
0000
0110
0000
0100
0001
0100
,  // measure 447
0000
0010
1000
0010
0000
1000
0001
1000
,  // measure 448
0000
0001
0000
0110
0000
0010
0100
0001
,  // measure 449
0000
0010
0100
1000
0000
0010
1000
0100
,  // measure 450
0000
0010
0001
0100
0000
0010
1000
0100
,  // measure 451
0000
0010
0100
1000
0010
0100
0001
0010
,  // measure 452
0000
0100
0000
0001
1000
0110
0000
0001
,  // measure 453
1000
0000
1001
0000
0000
0011
0000
0000
1100
0000
0000
0000
0000
0000
1000
0000
,  // measure 454
0001
0000
1001
0000
0000
1010
0000
0000
0101
0000
0000
0000
0000
0000
0010
0000
,  // measure 455
0001
0000
0101
0000
0000
1010
0000
0000
1001
0000
0000
0000
0000
0000
0010
0000
,  // measure 456
1000
0000
1100
0000
0000
0011
0000
0000
1001
0000
1000
0000
0000
0000
0001
0000
,  // measure 457
0000
0010
0100
0000
0010
0200
0000
1300
,  // measure 458
0000
0010
0100
0000
0010
0200
0000
0301
,  // measure 459
0000
0100
0010
0000
1000
0020
0000
0100
,  // measure 460
0000
0130
0000
0000
0000
0001
0000
1000
,  // measure 461
0000
0100
0010
0000
0100
0020
0000
0031
,  // measure 462
0000
0100
0010
0000
0100
0020
0000
1030
,  // measure 463
0000
0010
0100
0000
0001
0200
0000
0010
,  // measure 464
0000
0310
0000
0000
0000
0100
0001
0100
,  // measure 465
0000
0001
0000
0100
0000
0010
0100
0010
,  // measure 466
0000
0100
0000
0010
0000
1000
0010
1000
,  // measure 467
0000
0001
0000
0010
0000
0100
0010
0100
,  // measure 468
0010
0002
0000
1003
0000
0100
1000
0100
,  // measure 469
0000
1000
0000
0100
0000
0010
0100
0010
,  // measure 470
0000
0100
0000
0010
0000
0001
0010
0001
,  // measure 471
0000
1000
0000
0010
0000
0100
0010
0100
,  // measure 472
0010
2000
0000
3001
0000
0010
0002
0000
,  // measure 473
0103
0020
0000
1030
0002
0000
0013
0200
,  // measure 474
0000
1000
0000
1300
0000
0010
2000
0000
,  // measure 475
3100
0020
0000
0031
2000
0000
3010
0200
,  // measure 476
0000
0001
0000
0301
0000
0100
2000
0000
,  // measure 477
3100
0020
0000
0130
0002
0000
0013
0200
,  // measure 478
0000
0001
0000
0301
0000
0100
0002
0000
,  // measure 479
0103
0020
0000
0130
2000
0000
3010
0200
,  // measure 480
0000
1000
0000
1300
0000
0100
0002
0000
,  // measure 481
0013
2000
0000
3010
0002
0000
0103
0020
,  // measure 482
0000
1000
0000
1030
0000
0001
2000
0000
,  // measure 483
3010
0002
0000
0013
2000
0000
3100
0020
,  // measure 484
0000
0001
0000
0031
0000
1000
0002
0000
,  // measure 485
0103
0020
0000
1030
0002
0000
0103
0020
,  // measure 486
0000
0100
0000
0130
0000
1001
0000
0000
,  // measure 487
0110
0000
0000
0011
0000
0000
1100
0000
,  // measure 488
0000
1001
0000
0000
0000
0100
1000
0100
,  // measure 489
0000
0010
0001
0010
0000
0001
0100
0001
,  // measure 490
0000
1000
0100
1000
0000
0001
1000
0001
,  // measure 491
0000
0010
0100
0010
0000
0001
1000
0100
,  // measure 492
0000
1000
0001
0100
0000
0101
0000
0100
,  // measure 493
0000
0110
0000
0010
0000
1010
0000
1000
,  // measure 494
0000
1001
0000
0001
0000
0101
0000
0100
,  // measure 495
0000
0001
0000
0100
0000
1000
0000
0100
,  // measure 496
0000
0001
0000
0000
0000
0100
0001
0100
,  // measure 497
0000
0010
1000
0010
0000
1000
0100
1000
,  // measure 498
0000
0001
0100
0001
0000
1000
0001
1000
,  // measure 499
0000
0100
0010
0100
0000
1000
0001
0100
,  // measure 500
0000
0001
1000
0100
0000
1000
0000
0100
,  // measure 501
0000
0001
0000
0100
0000
1000
0000
0100
,  // measure 502
0000
0001
0000
0100
0000
1100
0000
0100
,  // measure 503
0000
0110
0000
0010
0000
0011
0000
0001
,  // measure 504
0000
1001
0000
0000
0000
0100
0001
0100
,  // measure 505
0001
0100
0001
0100
0000
0010
1000
0010
,  // measure 506
1000
0010
1000
0010
0000
1000
0100
1000
,  // measure 507
0100
1000
0100
1000
0000
0001
0010
0001
,  // measure 508
0010
0001
0010
0001
0000
0100
0001
1000
,  // measure 509
0001
1000
0100
0010
0000
0010
0100
1000
,  // measure 510
0001
1000
0001
0100
0000
0001
1000
0100
,  // measure 511
0001
0100
0001
0100
0000
1000
0001
0100
,  // measure 512
1000
0100
1000
0100
0000
0001
1000
0001
,  // measure 513
1000
0001
1000
0001
0100
0010
0100
0010
,  // measure 514
0100
0010
0100
0010
0100
0010
1000
0010
,  // measure 515
1000
0001
0100
0001
0100
0001
0010
0001
,  // measure 516
0010
0100
1000
0100
1000
0010
0100
0001
,  // measure 517
0010
0100
1000
0001
1000
0100
0010
0001
,  // measure 518
0100
0010
1000
0100
0000
0110
0000
0000
,  // measure 519
2002
0000
3003
0000
;
