#TITLE:Tropical Hazard Mix;
#SUBTITLE:(BOSS RUSH I);
#ARTIST:D34D M34T;
#TITLETRANSLIT:;
#SUBTITLETRANSLIT:;
#ARTISTTRANSLIT:;
#CREDIT:;
#BANNER:BOSS1.png;
#BACKGROUND:BOSS1-bg.png;
#LYRICSPATH:;
#CDTITLE:;
#MUSIC:BOSS1.mp3;
#OFFSET:1.297;
#SAMPLESTART:76.500;
#SAMPLELENGTH:24.000;
#SELECTABLE:YES;
#BPMS:0.000=180.000,268.000=170.000,300.000=160.000,396.000=180.000,428.003=200.000,622.000=190.000,654.000=180.000,830.000=175.000,846.000=170.000,862.000=165.000,880.000=157.000,1042.500=300.000;
#STOPS:652.000=0.155
,717.000=0.667
,1042.500=0.400
,1074.000=0.200
,1166.000=0.400
,1231.000=0.400
,1298.000=0.800
;
#BGCHANGES:;

//---------------dance-single - ----------------
#NOTES:
     dance-single:
     :
     Easy:
     6:
     0.422,0.577,0.212,0.023,0.005:
0000
0000
0000
0000
,
0000
0000
0000
0000
,
0000
0000
0000
0000
,
0000
0000
0000
0000
,
0000
0000
0000
0000
,
0000
0000
0000
0000
,
0000
0000
0000
0000
,
0000
0010
0010
0010
,
0000
0001
0000
0001
,
0000
1000
0100
1000
,
0010
0100
0010
0100
,
0000
0001
0100
0001
,
0010
0100
0010
0100
,
0000
0010
0001
0100
,
1000
0001
0100
1001
,
0000
0010
0010
0010
,
0001
0001
1000
1000
,
0001
0100
1000
0000
,
0001
0010
0100
1000
,
0010
0100
0001
0100
,
1001
0000
0110
0000
1000
0000
0100
0100
,
0100
0010
1000
0010
,
1001
0000
0110
0000
1000
0000
0100
0100
,
0100
0010
1000
0010
,
1001
0110
0001
1000
,
0100
0001
0100
1000
,
0100
0001
0100
1000
,
0100
0001
0100
0001
,
0010
1000
0100
0001
,
0100
1000
0100
0001
,
0100
1000
0100
1000
,
0100
0001
0100
1000
,
0100
0001
0010
1001
,
0010
0000
0000
0001
0000
0000
0100
0000
,
0000
0010
0000
1000
0100
0100
0100
0000
,
0010
0000
0000
1000
0000
0000
0100
0000
,
0000
0010
0000
0001
0100
0100
0100
0000
,
0010
0000
0000
0001
0000
0000
0100
0000
,
0000
0010
0000
1000
0100
0100
0100
0000
,
0010
0000
0000
1000
0000
0000
0100
0000
,
0000
0010
0000
0001
0100
0100
0100
0000
,
0010
0000
0001
0001
,
0000
1000
1000
1000
,
0100
0001
1000
1000
,
0100
0010
0010
0010
,
0001
1000
0010
0010
,
1000
0100
0100
0100
,
1000
0010
0100
0100
,
0010
0001
0001
0001
,
0010
0100
0001
0001
,
0100
1000
1000
1000
,
0110
1001
0000
0010
,
0000
0100
0001
1000
,
0110
1001
0000
0010
,
0000
0100
1000
0001
,
0110
1001
0000
0010
,
0000
0100
0001
1000
,
0110
1001
0000
0010
,
0000
0100
1000
0001
,
0001
0100
1000
0000
0100
0000
0001
0000
,
0100
1000
0100
0001
,
0001
0100
1000
0000
0100
0000
0001
0000
,
0100
1000
0100
0001
,
0001
1000
0100
0001
,
0100
1000
0100
0001
,
0001
0100
1000
0000
0100
0000
0001
0000
,
0100
1000
0100
0001
,
1001
0000
0100
0000
0010
0100
0010
0000
,
1000
0000
0001
0000
0010
0100
0010
0000
,
0010
0000
0001
0000
1000
0010
0001
0000
,
0110
1001
0100
1000
,
0001
0000
0100
0000
,
1000
0000
0010
0100
,
0001
1000
0100
0100
,
0001
0001
0001
0001
,
0001
0010
0000
0000
0000
0000
0001
0100
,
0000
0010
0001
0100
0000
0000
0000
0000
,
0000
0000
0100
0000
0000
0100
0000
0000
,
0010
0001
1000
0010
,
0100
0001
1000
0100
,
0000
0100
1000
0010
1000
0100
0000
0000
,
0000
0000
0100
0000
0000
0100
0000
0000
,
1000
0001
0100
0010
,
0010
0000
0100
0000
0001
1000
0000
0000
,
0000
0010
0000
1000
0100
0000
0101
0000
,
0010
0000
0100
0000
1000
0001
0000
0010
,
0000
1000
0000
0100
1000
0100
0001
0000
,
0010
0000
0100
0000
1000
0001
0000
0000
,
0000
0010
0000
0001
0100
0000
1100
0000
,
0010
0000
0100
0000
0001
1000
0000
0010
,
0000
0001
0000
0100
0001
0100
1000
0000
,
0010
1000
0000
0100
0000
0000
0010
0000
,
0001
1000
0110
1001
,
0010
0001
0100
0001
0000
0100
0010
0000
,
0010
0100
0000
0100
0000
0100
0000
0001
,
1000
0100
0001
1000
,
0110
0001
1000
0100
,
1000
0000
0001
0000
,
1000
0001
0100
0010
,
0100
1000
0000
0010
0001
0000
0000
0000
,
1000
0100
0001
0100
1000
0000
0101
0000
,
0010
0001
0000
0100
1000
0000
0000
0000
,
0010
0100
0000
0100
0000
0100
0000
0001
,
1000
0010
0001
1000
,
0010
0100
0000
0100
0000
0100
0000
0001
,
1000
0010
1000
0001
,
0100
0010
1000
0001
,
0000
1000
0000
1000
,
0000
0001
0000
1000
,
0000
0010
0000
0010
,
0000
0100
0000
0010
,
0000
0001
0000
0001
,
0000
1000
0000
0001
,
0000
0100
0000
0100
,
0000
0010
0000
0100
,
1001
1000
1001
0001
,
0110
1001
0110
0000
,
1001
1000
1001
0001
,
0110
1001
0110
0000
,
1001
1000
1001
0001
,
0110
1001
0110
0000
,
1001
1000
1001
0001
,
0110
1001
0110
0000
,
1000
0000
1000
0000
,
0001
0000
0001
0000
,
1000
0100
0001
0100
,
1000
0100
0001
0100
,
1000
0000
1000
0000
,
0001
0000
0001
0000
,
1000
0010
0001
0010
,
1000
0010
0001
0010
,
1000
0000
1000
0000
,
0001
1000
0100
0100
,
0001
0000
0001
0000
,
1000
0001
0100
0100
,
1000
0000
1000
0000
,
0001
1000
0010
0010
,
0000
1000
0000
0001
,
0000
1000
0000
0000
,
0000
1000
0001
1000
,
1000
0001
1000
0001
,
0001
1000
0001
0010
,
0010
0001
1000
0010
,
0010
1000
0100
0001
,
0100
0001
0100
1000
,
0100
0100
1001
0010
,
0001
0100
1000
1000
,
0001
1000
1001
0010
,
1000
0100
0001
0001
,
1000
0001
1010
0100
,
0110
0110
0001
0100
,
1000
0100
0101
0010
,
0110
0110
1000
0010
,
0001
0010
1000
0000
,
1000
0000
0001
0000
,
0001
0000
1000
0001
,
0101
0101
0001
1000
,
1100
1100
1000
0000
,
1000
0000
0001
0000
,
0001
0000
1000
0001
,
0010
0001
1000
0010
,
1000
0001
0100
0000
,
1000
0000
0100
0000
0001
0000
0100
0000
1000
0000
0100
0000
,
0001
0000
0000
0000
,
1000
0100
0010
0001
,
1000
1000
0001
0000
,
0001
0100
0010
1000
,
0001
0001
0010
1000
,
0100
0100
0001
0001
,
0010
1000
0001
1001
,
1000
1001
0010
0010
,
0010
0010
1001
0010
,
0100
0001
0010
1000
,
0100
0100
1001
0010
,
0100
1000
0010
0001
,
0100
0100
1000
0010
,
0100
0010
0100
0010
,
0001
0001
1000
0000
,
0001
0000
0010
0010
,
0100
0100
0000
0000
,
0001
0000
1000
0000
,
0010
0100
1000
0001
,
0010
0000
0100
0000
,
1000
0001
0000
0100
0000
0001
0000
1000
,
0001
0000
0100
0000
,
0010
1000
0001
0010
,
1000
0000
0100
0000
,
0001
0100
1000
0100
,
1000
0001
0000
0000
0000
0000
0000
0000
,
0100
0000
1000
0000
0001
0000
0000
1000
,
0001
0000
0000
0000
0000
0000
0000
0010
,
0000
0001
0000
0100
0000
0000
0000
1000
,
0001
0000
0000
0000
,
1001
0000
0000
0000
0010
0000
1000
0001
,
0000
0000
0100
0000
,
0010
0000
0010
0000
,
0001
0000
0010
1000
,
0100
0000
0010
0001
,
0010
0100
1000
0100
,
0001
1001
0001
0000
,
0100
0000
0010
1000
,
0010
0000
1000
0010
,
0100
0010
0100
0001
,
0010
0000
1001
0000
0100
0010
0000
0010
,
0000
0010
0000
0010
0010
0000
1001
0000
,
0100
0001
0100
1000
,
0010
0001
0010
0001
,
0010
0000
0001
0000
0100
0010
0000
0010
,
0000
0010
0000
0010
0010
0000
1001
0000
,
0100
1000
0100
1000
,
0100
1000
0010
0001
,
0010
0000
0001
0000
1000
0001
0000
0000
,
0000
0000
1000
0100
,
0001
0000
0100
0000
1000
0001
0000
0000
,
0000
0000
0010
1000
,
0010
0000
0001
0000
1000
0001
1000
0000
,
0000
0000
0010
0010
,
0100
0000
0010
0000
1000
0001
0000
0000
,
0000
0000
0010
1000
,
0100
0001
1000
0000
,
1000
0000
0001
0000
,
0001
0000
1000
0000
,
0010
0000
1000
0000
,
0001
0000
0010
0000
,
0010
0000
0001
0000
,
0001
0000
0010
0000
,
0001
0000
1000
0001
,
1000
0000
0010
0010
,
0010
0000
1000
1000
,
1000
0000
0010
1000
,
0001
0100
0001
1000
,
0001
0000
0010
0010
,
0010
0000
0001
0001
,
0001
0000
1000
0010
,
1000
0010
0100
0000
,
0000
0000
0001
0010
,
0001
0000
1000
0010
,
1000
0000
0001
0001
,
1000
1000
0100
0001
,
0100
0000
1000
0010
,
0100
0000
0001
0010
,
0100
0000
1000
1000
,
0001
0001
1001
0000
,
0000
0000
0010
0000
,
1000
0000
0001
0001
,
1001
0000
0010
0010
,
0001
1000
0010
1000
,
0100
0001
0100
0000
,
1000
0000
0001
0001
,
1001
0000
0110
0000
,
1001
0000
0001
0000
,
1000
0000
0001
1000
,
0001
1000
0001
0001
,
1001
0000
0010
0100
,
0010
0100
0001
0001
,
0010
0001
1000
0010
,
1000
0001
0010
0010
,
0110
0000
1000
0010
,
1000
0010
0100
0100
,
0001
0100
0001
0001
,
1001
1001
0010
0000
,
0010
1000
0001
0100
,
0001
0100
0001
0100
,
1000
0100
0001
0100
,
0001
0100
0001
0000
,
0010
1000
0100
1000
,
0001
1000
0100
0010
,
0100
1000
0010
0100
,
1000
0100
1001
0010
,
0001
1000
0100
1000
,
0100
1000
0100
0001
,
0100
1000
0100
1000
,
0100
1000
0000
0010
,
0001
0100
0001
1000
,
0001
0100
0010
0100
,
0001
0010
0100
1000
,
0010
0100
0000
0001
,
0001
1000
0000
0010
,
0010
0100
0000
1000
,
1000
0010
0010
0100
,
0100
0001
0000
0010
,
0100
0010
0000
1000
,
0001
1000
0000
0110
,
0000
0001
1001
0000
,
0000
0000
0000
1000
,
1000
0001
0001
0010
,
0010
0100
0100
1000
,
0001
1000
0001
0100
,
0100
0010
0000
1000
,
0100
1000
0000
0001
,
0100
0001
0000
1001
,
0000
0100
0110
0000
,
0000
1001
0000
0100
,
0000
0001
1000
0010
,
1000
1010
0000
0100
,
0000
1000
0001
0100
,
0000
1100
0000
1000
,
0000
0010
1000
0100
,
0010
0110
0000
0001
,
0000
1000
0010
0100
,
0000
0101
0000
0100
,
0000
1000
0100
0010
,
0001
0011
0000
1000
,
0000
0001
0100
0010
,
0000
0110
0000
1000
,
0000
0010
0100
0001
,
0010
0110
0000
1000
,
0000
1000
0100
0001
,
1000
0100
1000
0100
,
1000
0001
0000
0001
,
1000
0100
1000
0010
,
1000
0001
0000
1000
,
0001
0100
0001
0100
,
0001
1000
0000
1000
,
0001
0100
0001
0010
,
0001
1000
0001
1000
,
0100
1000
0000
0001
,
0100
0001
0000
0010
,
0100
1000
0000
0010
,
0100
0001
0000
0010
,
1000
0100
0001
0100
,
1000
0010
0000
0001
,
0010
1000
0010
0001
,
0100
0010
0100
1000
,
0100
0000
0010
0000
0200
0300
0010
0000
,
0000
0010
0000
0010
,
0000
0010
0000
1000
,
0000
1000
0000
1000
,
0000
1000
0000
0001
,
0000
0001
0000
0001
,
0000
0001
0000
0010
,
0000
0100
0000
0000
1000
0000
0000
0010
,
0000
0100
0001
0102
,
0000
0100
0000
1000
,
0000
1000
0000
0100
,
0000
0100
0000
0010
,
0000
0013
0000
2000
,
0000
3100
0000
0002
,
0000
0013
0000
2000
,
0000
3200
0000
0320
,
0032
0203
0320
0030
,
0000
0000
0000
0001
,
1000
0010
0100
0001
,
1000
0100
0000
0001
,
0100
1000
0100
0001
,
0100
1000
0000
0010
,
1000
0100
0001
0100
,
1000
0100
0000
1000
,
0001
0100
0010
1000
,
0001
0100
0000
0010
,
0001
1000
0100
0010
,
1000
0001
0000
0100
,
0010
0001
0100
1000
,
0100
0001
0000
0010
,
1000
0100
0001
0100
,
0010
0100
1000
0010
,
0100
0001
1000
0100
,
0010
0100
1000
0001
,
0100
0010
1000
0000
,
0000
0000
0000
0000
0010
0000
0000
1001
,
0000
0000
0100
0000
0000
1001
0000
0000
,
0010
0000
0000
0110
0000
0000
0001
0000
,
1001
0000
0000
0000
;

//---------------dance-single - ----------------
#NOTES:
     dance-single:
     :
     Medium:
     7:
     0.565,0.660,0.374,0.289,0.011:
0000
0000
0000
0000
,
0000
0000
0000
0000
,
0000
0000
0000
0000
,
0000
0000
0000
0000
,
0000
0000
0000
0000
,
0000
0000
0000
0000
,
0000
0000
0000
0000
,
0000
0010
0010
0010
,
0000
0001
0000
0001
,
1100
0001
0100
1000
,
0010
0100
0010
0100
,
0101
1000
0100
0001
,
0010
0100
0010
0100
,
0000
0010
0001
0100
,
1000
0001
0110
1001
,
0000
0010
0010
1001
,
0001
0010
1000
0100
,
0010
0100
1000
0000
,
0001
1000
0100
0010
,
0010
0100
0001
0100
,
1100
0000
0101
0000
2000
0000
0001
0001
,
3001
1000
0100
1000
,
1100
0000
0101
0000
2000
0000
0100
0100
,
3100
0010
1000
0010
,
0101
0000
1100
0000
0001
0000
1000
1000
,
0010
0001
0010
1000
,
0010
0001
0010
1000
,
0010
0001
0010
0001
,
0100
1000
0010
0001
,
0010
1000
0010
0001
,
0010
1000
0010
1000
,
0010
0001
0010
1000
,
0010
0001
0100
1001
,
0020
0000
0000
0001
0000
0000
0130
0000
,
0000
0110
0000
2000
0100
0100
0100
0000
,
3020
0000
0000
1000
0000
0000
0130
0000
,
0000
0110
0000
0002
0100
0100
0100
0000
,
0023
0000
0000
0001
0000
0000
0130
0000
,
0000
0110
0000
2000
0100
0100
0100
0000
,
3020
0000
0000
1000
0000
0000
0130
0000
,
0000
0110
0000
0002
0100
0100
0100
0000
,
0023
0000
0001
0002
,
0030
1000
1000
1003
,
0100
0012
1000
1003
,
0201
0010
0010
0310
,
0001
2100
0010
3010
,
1002
0100
0100
0103
,
1000
0021
0100
0130
,
2010
0001
0001
3001
,
0010
1200
0001
0301
,
0120
1000
1000
1000
,
2030
0001
0000
0010
,
0000
3100
0101
1100
,
0002
1000
0000
0010
,
0000
0103
1100
0101
,
2000
0001
0000
0010
,
0000
3100
0101
1100
,
0002
1000
0000
0010
,
0000
0103
1100
0101
,
0001
0100
1000
0000
0100
0000
0001
0000
,
0100
0000
0110
0000
1000
0100
0001
0000
,
0001
0100
1000
0000
0100
0000
0001
0000
,
0100
0000
0110
0000
1000
0100
0001
0000
,
0001
1000
0100
0001
,
0100
0000
0110
0000
1000
0100
0001
0000
,
0001
0100
1000
0000
0100
0000
0001
0000
,
0100
0000
0110
0000
1000
0100
0001
0000
,
0200
0001
0301
0000
0001
0001
0001
0000
,
0200
1000
1300
0000
1000
1000
1000
0000
,
0200
0001
0001
0001
0001
0001
0301
0000
,
0200
1000
1000
1000
1000
1000
1300
0000
,
0002
0000
0013
0000
0100
0010
0001
0000
,
2000
0000
3010
0000
0100
0010
1000
0000
,
0010
0010
0100
0010
0000
0100
0010
0000
,
0011
1100
0101
0110
,
1001
0010
0001
1000
,
1001
1000
0001
0100
,
0001
1000
0100
0100
,
0010
0001
0100
1000
0100
0001
0010
0000
,
0001
0010
1000
0000
0000
0000
0001
0100
,
0000
1000
0001
0200
0000
0000
0000
0300
,
0020
0000
0100
0000
0000
0100
0030
0000
,
1000
0100
0010
0001
,
0010
1000
0100
0010
0001
0100
0000
0000
,
0000
0001
0000
1000
0010
0000
0101
0000
,
0010
0001
0100
0010
1000
0100
0000
0002
,
0000
1003
0000
0100
0010
0001
0100
0000
,
0010
0001
0100
0010
1000
0100
0000
0000
,
0000
1000
0000
0001
0010
0000
1100
0000
,
0010
1000
0100
0010
0001
0100
0000
2000
,
0000
3001
0000
0100
0010
1000
0100
0000
,
0001
0100
0000
2000
0000
0000
3001
0000
,
1010
0100
0010
0101
,
1000
0100
0010
0001
0000
0100
1000
0000
,
0020
1000
0000
0100
0000
0031
0000
0010
,
0100
0010
0001
0100
,
0010
1000
0100
0110
,
2000
0000
0002
3000
,
1003
0001
0100
0010
,
1000
0100
0000
0001
0200
0000
0300
0000
,
0010
0001
0010
0100
1000
0000
1100
0000
,
0001
0100
0000
1000
0200
0000
0300
0000
,
0020
1000
0000
0100
0000
0031
0000
0010
,
0100
0010
0001
0100
,
0020
1000
0000
0100
0000
0031
0000
0010
,
0100
0010
1000
0001
,
0100
0010
1000
0001
,
1001
0001
0000
0100
,
0000
1000
0000
0100
,
1100
0100
0000
0001
,
0000
0100
0000
1000
,
1001
1000
0000
0100
,
0000
0001
0000
0100
,
0101
0100
0000
1000
,
0000
0100
0000
0001
,
0110
1001
1100
1001
,
0101
1001
0110
0000
,
0110
1001
1100
1001
,
0101
1001
0110
0000
,
0110
1001
1100
1001
,
0101
1001
0110
0000
,
0110
1001
1100
1001
,
0101
1001
0110
0000
,
0010
1000
0100
1000
,
0001
0010
0001
0100
,
1000
0100
0001
0100
,
0010
1000
0010
0001
,
0010
1000
0100
1000
,
0001
0010
0001
0100
,
1000
0100
0001
0100
,
0010
1000
0010
0001
,
0120
1000
0100
0031
,
1000
0100
0100
0001
,
1200
0001
0010
1300
,
0010
0001
0100
1000
,
2010
0001
0010
3001
,
2000
0000
0002
0000
,
3000
2000
0003
0002
,
3003
0000
0000
0000
1000
0000
0000
0100
0000
0000
0001
0000
0000
0100
0000
0000
,
1000
0000
0010
0000
0001
0000
1000
0100
,
0001
0000
0001
0100
1000
0000
1000
0100
,
0001
0000
1000
0000
0100
0000
0010
0001
,
0100
0000
0100
0001
0010
0000
0010
0001
,
0100
0000
0010
0000
1000
0000
0001
1000
,
0100
0000
1000
0001
0100
0000
0001
1000
,
0100
0100
0010
0001
,
0100
1000
2010
0001
,
0001
3100
0010
1000
,
0100
0001
0012
1000
,
1000
0103
1001
0001
,
1001
1100
1001
1000
,
1001
0101
0020
0130
,
0110
0100
2000
3001
,
1001
0100
2000
3000
,
0200
0300
0002
0003
,
0010
1000
0100
0001
,
0010
1000
0100
0001
,
0100
0000
0002
0003
,
0200
0300
2000
3000
,
0010
0001
0100
1000
,
0010
0001
0100
1000
,
0100
0001
0200
0300
,
0001
0000
0100
0000
1000
0000
0100
0000
0001
0000
0100
0000
,
1000
0000
1001
0100
,
0010
0001
1100
0001
,
0010
1000
0100
0011
,
1000
0010
0001
0101
,
1000
1000
0020
0130
,
0010
0001
0100
0000
0020
0000
0130
0000
,
0010
1000
0100
0000
0002
0000
1003
0000
,
0101
1200
0010
0010
,
0010
0310
1000
0010
,
0001
0100
1000
0000
1000
0100
0001
0000
,
0001
0100
1000
0000
0100
0000
0101
0000
,
1000
0100
0010
1100
,
0001
0010
1000
0010
,
0100
0001
0010
0000
0010
0001
0100
0000
,
0100
0001
0010
0000
1000
0000
1100
0000
,
0001
0101
0110
1001
,
0100
1000
0010
0001
,
0100
1000
0010
0001
,
0100
1000
0010
0000
1000
0000
0001
0000
,
0100
0000
0010
0000
0100
0001
0100
0001
,
0100
0001
0010
0001
0010
0001
0010
0000
,
1000
0100
0001
0010
,
1000
0100
0001
0000
1000
0000
0001
0000
,
0100
0000
0010
0000
0100
0001
1000
0000
,
0100
0000
0100
0000
1000
0001
0000
0020
,
0200
0000
0330
0000
1000
0100
0001
0000
,
0001
0100
1000
0010
0100
0000
0002
2000
,
0000
3003
1100
0101
,
2002
0000
3003
0000
1000
0010
0000
0200
,
0002
0000
0000
0303
0000
2002
0000
3003
,
0000
0010
0000
1000
0001
0000
0020
0200
,
0000
0000
0000
0000
0000
0000
0000
0000
0000
0000
0000
0000
0000
0000
0000
0000
0330
0000
0000
0000
0000
0000
0000
0000
0000
0000
0000
0000
0000
0000
0000
0000
0001
0000
0000
0000
0000
0000
0000
0000
0000
0000
0100
0000
0000
0000
0000
0000
0000
0000
0000
0000
0000
0001
0000
0000
0000
0000
0000
0000
0000
0000
0000
0000
,
1000
0000
0000
0000
0000
0000
0000
0000
0000
0000
0100
0000
0000
0000
0000
0000
0000
0000
0000
0000
0000
1000
0000
0000
0000
0000
0000
0000
0000
0000
0000
0000
0010
0000
0000
0000
0000
0000
0000
0000
0000
0000
0000
0000
0000
0000
0000
0000
0010
0000
0000
0000
0000
0000
0000
0000
0000
0000
0000
0000
0000
0000
0000
0000
,
0001
0010
0100
1000
,
0100
0000
0100
0000
0010
1000
0001
0000
,
0010
0001
1000
0000
0100
1000
0001
0000
,
0100
1001
0010
0010
,
1000
0010
0100
0001
,
0100
0000
0100
0000
0010
0001
1000
0000
,
0010
1000
0001
0000
0100
0001
1000
0000
,
0100
0000
1001
0000
0010
1000
0010
1000
,
0010
1000
0100
0001
0200
0000
1300
0000
,
0010
0001
0010
0100
,
1000
0000
0100
0000
0001
0100
0001
0000
,
1000
0100
1000
0000
0010
0001
0010
0001
,
0010
0001
0100
1000
0200
0000
0301
0000
,
0010
1000
1001
2100
,
0001
0000
3001
0000
0001
1000
0100
0000
,
1000
0001
0100
0000
0020
0000
1030
0000
,
0010
1001
0020
0031
,
0010
1001
0010
0010
,
1000
1000
0001
0010
,
0100
1000
0002
0103
,
0001
1001
2000
3100
,
1000
1001
0000
0010
,
0010
1000
1000
0001
,
0010
0000
0001
0000
0000
0010
0001
0010
,
0200
0000
0300
0000
0000
0010
0100
0010
,
0002
0000
0003
0000
0000
1000
0000
1000
,
0000
0001
0000
0100
0000
0010
1000
0010
,
0200
0000
0300
0000
0000
0001
0010
0001
,
2000
0000
3000
0000
0000
0010
1000
0010
,
0200
0000
0300
0000
0000
0001
0000
0001
,
0000
1000
0000
0100
0000
0010
0000
0002
,
2000
0000
3003
0000
0000
0010
1000
0010
,
0200
0000
0300
0000
0000
0001
0010
0001
,
2000
0000
3000
0000
0000
0010
0000
0010
,
0000
1000
0000
0001
0000
0100
1000
0100
,
0002
0000
0003
0000
0000
1000
0010
0100
,
0002
0000
0003
0000
0000
0010
0100
1000
,
0002
0000
0003
0000
0000
1000
0000
1000
,
0000
0001
0010
0100
0000
1000
0000
0000
,
0000
0020
0000
1030
0000
1010
0000
1010
,
0000
0100
0000
0001
0000
0010
0000
0010
,
0000
0001
0000
1000
0000
0010
0000
0000
,
0000
0010
0000
1000
0000
0001
0000
0010
,
0000
0100
0000
0110
0000
1000
0000
0000
,
0000
1000
0000
0001
0000
0010
0000
0000
,
0000
0010
0000
0001
0000
1000
0000
1001
,
0000
0001
0000
1001
0000
0100
0001
0100
,
0001
0100
0010
0100
0010
1000
1000
0001
,
0001
0001
0000
0100
0000
0110
0000
0110
,
0000
1001
0000
0100
0000
0001
0000
0001
,
0000
0100
1000
0100
0000
0010
0000
0010
,
0000
1000
0100
0001
0000
0100
1000
0100
,
0010
0100
1000
0001
0000
0110
0000
0110
,
0000
1001
0000
0100
0000
0010
0000
0010
,
0000
0100
0001
0010
0000
0100
1000
0100
,
0001
0100
1000
0010
0000
1000
0000
1001
,
0000
0001
0000
0010
0000
0002
0000
0103
,
0000
0001
0000
0101
0000
0020
0000
0130
,
0000
0010
0000
0110
0000
0010
0000
0010
,
0000
1000
0000
1000
0000
0001
0000
0010
,
0000
0100
0000
1000
0000
0002
0000
0103
,
0000
0010
0000
1010
0000
0200
0000
0310
,
0000
1000
0000
1010
0000
0001
0000
0001
,
0000
0010
0000
0010
0000
0100
0000
1000
,
0000
0001
0000
0100
0000
1001
0000
0000
,
1010
0001
0100
0001
,
0100
0001
0101
1000
,
1100
0010
0001
0100
,
0001
0100
0101
0010
,
0110
1000
0100
1000
,
0100
1000
0010
0100
,
0101
0001
0100
1000
,
0100
0001
1001
0011
,
1000
0100
1000
0100
,
1000
1100
0001
0101
,
0010
1000
0100
1000
,
0100
1100
0010
0110
,
0001
0100
0001
0100
,
0001
0010
0100
1100
,
1000
0100
0001
0100
,
1000
0000
0001
1000
0001
1000
0010
0000
,
0010
0100
0100
0001
,
0001
0000
1000
0100
1000
0000
0100
0000
,
0100
0010
0010
0001
,
0001
0100
0000
0100
1000
0000
0100
0000
,
0100
0001
0001
0010
,
0010
0000
0100
1000
0100
0000
1100
0000
,
0000
0001
0101
0000
,
0000
0000
0000
0010
,
0010
0100
0100
1000
,
1000
0000
0001
0100
0001
0000
0100
0000
,
0100
0000
0010
0000
0010
0000
1000
0010
,
1000
0100
0100
0010
,
0010
0000
0001
0000
0001
0000
0010
0001
,
0010
0000
0001
0100
0001
0100
0001
0000
,
1000
0100
1100
0000
,
0000
1001
0100
1000
,
0010
0000
0000
0100
0001
0000
1000
0000
,
0100
1100
0010
0001
,
0100
0000
0000
0010
1000
0000
0001
0000
,
0000
0011
0100
1000
,
0010
0000
0000
0010
0100
0000
0001
0000
,
1000
1001
0100
0010
,
0001
0000
0000
1000
0001
0000
0100
0000
,
0000
1001
0010
0100
,
0001
0000
0000
1000
0100
0000
0010
0000
,
0001
0011
0100
0010
,
1000
0000
0000
0001
0100
0000
0010
0000
,
0000
0110
0100
1000
,
0100
0000
0000
0100
0001
0000
0010
0000
,
0100
0110
1000
0001
,
1000
0001
1000
0001
1000
0000
0010
0000
,
1000
0100
0000
0100
0010
0000
0010
0001
,
0000
0001
0100
0000
0000
0000
0000
0000
,
0010
1000
0000
1000
0001
0000
0001
0010
,
0000
0010
0100
0000
0000
0000
0000
0000
,
1000
0001
0000
0001
1000
0000
1000
0010
,
0000
0010
0100
0000
0000
0000
0000
0000
,
0001
1000
0000
1000
0001
0000
0001
0010
,
0000
0010
0100
0000
1000
0000
0010
0000
,
1000
0100
0001
0100
,
1000
0010
0100
0001
,
0100
1000
0100
0001
,
0010
0100
1000
0001
,
0001
0000
1000
0001
1000
0000
0001
0000
,
0001
0000
1000
0100
1000
0000
0010
0000
,
0010
0000
0100
0001
0100
0000
0010
0000
,
0010
0000
0010
1000
0001
0010
0100
1000
,
0001
0100
0010
1000
0100
0000
0110
0000
,
0000
0010
0000
0010
,
0000
0010
0000
0001
,
0000
0001
0000
0001
,
0000
0001
0000
1000
,
0000
1000
0000
0001
,
0000
0001
0000
0010
,
0000
1000
0000
0000
0100
0000
0000
0001
,
0000
0010
1000
2002
,
0000
0000
0000
0000
,
0000
0000
0000
0000
,
0000
0000
0000
0000
,
0000
3003
0000
0002
,
0000
0013
0000
2000
,
0000
3010
0000
0002
,
0000
0023
0000
0230
,
2300
3020
0032
0003
,
0000
0000
0000
2000
,
3100
0010
0001
0200
,
0310
1000
0100
0002
,
0103
1000
0010
0200
,
0301
0010
0100
2000
,
3010
0100
1000
0100
,
0001
1000
0100
0020
,
0031
0100
0010
0002
,
0013
1000
0100
0020
,
0031
1000
0010
0200
,
0301
0010
0100
2000
,
3010
0100
0001
2000
,
3010
0100
0001
0020
,
1030
0010
0001
0200
,
1300
0100
0001
2000
,
3100
0010
0001
2000
,
3010
0100
1000
0200
,
0301
0010
0100
2000
,
3010
0000
0000
0000
0010
0001
0000
0101
,
0000
0000
0010
1000
0000
1100
0000
0000
,
0010
0100
0000
0110
0000
0000
0001
0000
,
1001
0000
0000
0000
;

//---------------dance-single - ----------------
#NOTES:
     dance-single:
     :
     Hard:
     9:
     0.719,0.825,0.408,0.321,0.034: // measure 1
0000
0000
0000
0000
,  // measure 2
0000
0000
0000
0000
,  // measure 3
0000
0000
0000
0000
,  // measure 4
0000
0000
0000
0000
,  // measure 5
0000
0000
0000
0000
,  // measure 6
0000
0000
0000
0000
,  // measure 7
0000
0000
0000
0000
,  // measure 8
0000
0000
0000
0000
,  // measure 9
0000
0000
0000
0000
,  // measure 10
2100
0000
3001
0000
0100
0001
1000
0000
,  // measure 11
0020
0000
0130
1000
0001
0100
1000
0000
,  // measure 12
0102
0000
1003
0000
0100
1000
0001
0000
,  // measure 13
0020
0000
0130
0001
1000
0100
0001
0000
,  // measure 14
0010
0000
0010
0000
1001
0000
0001
0100
,  // measure 15
0010
1010
0202
0303
,  // measure 16
1000
0000
0100
0000
0001
0010
1000
0000
,  // measure 17
0100
0002
1003
2002
,  // measure 18
3003
0000
2000
0000
3100
0000
0010
0100
,  // measure 19
0001
0000
0010
0000
1001
0000
1000
0100
,  // measure 20
0010
0000
0100
0000
0001
0010
0100
0000
,  // measure 21
0010
0100
0001
0100
1000
0000
0001
0010
,  // measure 22
1000
0000
0001
0000
0010
1000
0001
0000
,  // measure 23
1000
0001
0010
0001
0001
0000
0010
1000
,  // measure 24
0100
0000
0010
0000
1000
0100
0010
0000
,  // measure 25
0100
0010
1000
0010
0001
0000
1000
0100
,  // measure 26
0001
0010
1000
0100
,  // measure 27
0001
0010
1000
0200
,  // measure 28
0001
0010
0301
0010
,  // measure 29
1000
0100
0001
0010
,  // measure 30
1000
0100
0001
0020
,  // measure 31
1000
0100
1030
0100
,  // measure 32
0001
0010
1000
0100
,  // measure 33
0001
0000
0010
0000
1000
0100
0001
0000
,  // measure 34
0002
0000
0000
0010
0000
0000
0100
0000
,  // measure 35
0000
1003
0000
0100
0001
0001
0100
0000
,  // measure 36
2000
0000
0000
0010
0000
0000
0100
0000
,  // measure 37
0000
3001
0000
0100
1000
1000
0100
0000
,  // measure 38
0002
0000
0000
0010
0000
0000
0100
0000
,  // measure 39
0000
1003
0000
0100
0001
0001
0100
0000
,  // measure 40
2000
0000
0000
0010
0000
0000
0100
0000
,  // measure 41
0000
3001
0000
0100
1000
1000
0100
0000
,  // measure 42
0020
0000
0030
0000
0001
0010
1000
0000
,  // measure 43
0000
0000
0001
0100
1000
0100
0001
0000
,  // measure 44
0001
0000
1010
0000
0100
0001
0010
0000
,  // measure 45
1001
0000
0100
1000
0010
1000
0100
0000
,  // measure 46
0100
0000
0011
0000
1000
0100
0001
0000
,  // measure 47
0110
0000
1000
0010
0001
0010
1000
0000
,  // measure 48
1000
0000
0101
0000
0010
1000
0100
0000
,  // measure 49
1001
0000
0010
0001
0100
0001
0010
0000
,  // measure 50
0010
0000
1100
0000
0001
0010
1000
0000
,  // measure 51
0110
0000
0001
0100
1000
0100
0001
0000
,  // measure 52
1000
0100
0002
0000
0000
0000
0010
0000
,  // measure 53
0003
0101
0100
1100
,  // measure 54
0001
0100
2000
0000
0000
0000
0010
0000
,  // measure 55
3000
1100
0100
0101
,  // measure 56
1000
0100
0002
0000
0000
0000
0010
0000
,  // measure 57
0003
0101
0100
1100
,  // measure 58
0001
0100
2000
0000
0000
0000
0010
0000
,  // measure 59
3000
1100
0100
0101
,  // measure 60
0001
0010
1000
0000
0200
0000
0301
0000
,  // measure 61
1000
0100
0001
0000
0100
1000
0010
0000
,  // measure 62
0001
0010
1000
0000
0200
0000
0301
0000
,  // measure 63
1000
0100
0001
0000
0100
1000
0010
0000
,  // measure 64
0002
1003
0200
0301
,  // measure 65
1000
0100
0001
0000
0100
1000
0010
0000
,  // measure 66
0001
0010
1000
0000
0200
0000
0301
0000
,  // measure 67
1000
0100
0001
0000
0100
1000
0010
0000
,  // measure 68
0020
0001
0001
0031
0020
0001
0031
0000
,  // measure 69
0020
1000
1000
1030
0020
1000
1030
0000
,  // measure 70
0100
1000
0200
1000
1000
1000
1300
0000
,  // measure 71
0100
0001
0200
0001
0001
0001
0301
0000
,  // measure 72
0001
0020
0100
0100
0130
0010
0001
0000
,  // measure 73
1000
0020
0100
0100
0130
0010
1000
0000
,  // measure 74
0010
0001
1000
0100
0000
0001
1000
0000
,  // measure 75
0101
1100
0011
1010
,  // measure 76
1001
0000
0010
0000
0001
0001
1000
1000
,  // measure 77
1001
0000
1000
1000
0001
0001
0100
0000
,  // measure 78
0001
0000
1000
0000
0100
0100
0100
0000
,  // measure 79
0010
0001
0010
0100
0010
1000
0010
0100
,  // measure 80
0001
0100
1000
0000
0000
0000
0001
1000
,  // measure 81
0000
0001
1000
0200
0000
0000
0000
0300
,  // measure 82
0010
0001
0002
0000
0000
0100
0000
0000
,  // measure 83
2003
3200
0320
0031
,  // measure 84
0001
0010
1000
0001
0100
2000
0000
3000
,  // measure 85
0000
0101
0000
1010
0010
0000
0101
0000
,  // measure 86
1000
0010
0001
1000
0100
0002
0000
1003
,  // measure 87
0000
1001
0000
0001
0100
1000
0100
0000
,  // measure 88
1000
0010
0001
1000
0100
0002
0000
0003
,  // measure 89
0000
1100
0000
0011
0010
0000
1100
0000
,  // measure 90
0001
0010
1000
0001
0100
2000
0000
3001
,  // measure 91
0000
1001
0000
1000
0100
0001
0100
0000
,  // measure 92
0002
0100
0000
2003
0000
0000
3002
0000
,  // measure 93
1003
0010
0100
0001
0010
0100
0001
0000
,  // measure 94
1000
0100
0010
0001
0000
1000
0100
0000
,  // measure 95
0010
1000
0000
0101
0000
1010
0000
0010
,  // measure 96
0100
0000
0020
0001
0031
0000
0100
0000
,  // measure 97
0020
1000
1030
0000
0100
0000
0110
0000
,  // measure 98
2000
0000
0002
3000
,  // measure 99
2003
3002
0203
0320
,  // measure 100
1030
0010
0000
0010
0002
0000
0003
0000
,  // measure 101
0010
0001
0010
1000
0010
0000
0101
0000
,  // measure 102
0001
0010
0000
0100
2000
0000
3000
0000
,  // measure 103
0010
1000
0000
0101
0000
1010
0000
0010
,  // measure 104
0100
0020
0100
0130
,  // measure 105
0010
1000
0000
0101
0000
1010
0000
0010
,  // measure 106
0200
0320
2030
3002
,  // measure 107
0203
0320
2030
3001
,  // measure 108
1000
0100
1000
0100
0001
0100
0001
0100
,  // measure 109
1000
0010
1000
0010
0001
0010
0001
0010
,  // measure 110
1000
0010
0001
1000
0100
0001
1000
0010
,  // measure 111
0001
1000
0100
0001
1000
0010
0001
0000
,  // measure 112
1000
0100
1000
0100
0001
0100
0001
0100
,  // measure 113
1000
0010
1000
0010
0001
0010
0001
0010
,  // measure 114
1000
0010
0001
1000
0100
0001
1000
0010
,  // measure 115
0001
1000
0100
0001
1000
0010
0001
0000
,  // measure 116
0110
1001
0110
1001
,  // measure 117
1100
0101
2002
3003
,  // measure 118
0110
1001
0110
1001
,  // measure 119
1100
0101
2002
3003
,  // measure 120
0110
1001
0110
1001
,  // measure 121
1100
0101
2002
3003
,  // measure 122
0110
1001
0110
1001
,  // measure 123
1100
0101
2002
3003
,  // measure 124
0010
1000
0010
0000
0100
0001
0100
0000
,  // measure 125
0010
1000
0010
1000
0001
0100
0001
0000
,  // measure 126
0100
0001
0100
0000
0010
1000
0010
0000
,  // measure 127
0100
0001
0100
0001
1000
0010
1000
0000
,  // measure 128
1000
0010
0100
0000
0001
0100
0010
0000
,  // measure 129
1000
0010
0100
0001
0100
0010
1000
0000
,  // measure 130
0001
0010
0100
0000
1000
0100
0010
0000
,  // measure 131
0001
0010
0100
1000
0100
0010
0001
0000
,  // measure 132
1001
0000
0010
0000
0001
0100
1000
0000
,  // measure 133
1020
0000
0031
0000
0010
1000
0001
0000
,  // measure 134
0210
0000
0310
0000
1000
0001
0100
0000
,  // measure 135
2100
0000
3010
0000
0001
0010
1000
0000
,  // measure 136
0012
0000
0103
0000
0001
0010
0100
0000
,  // measure 137
0201
0000
0310
0000
0001
0010
1000
0000
,  // measure 138
0000
2000
0000
0002
,  // measure 139
3003
0000
0000
0000
0020
0000
0000
1030
0000
0000
0002
0000
0000
1003
0000
0000
,  // measure 140
0100
0000
0110
0000
1001
0000
0100
0010
,  // measure 141
0100
0010
1000
0010
1000
0000
0001
0010
,  // measure 142
0001
0000
0010
0001
0010
0100
0010
1000
,  // measure 143
0010
0000
0001
0100
0001
0000
1000
0100
,  // measure 144
0010
0000
0010
0001
0010
0000
0010
1000
,  // measure 145
0010
0000
0010
0001
0010
0100
0010
1000
,  // measure 146
0010
0200
0310
1001
,  // measure 147
2100
0000
3001
0000
0010
0001
0010
0100
,  // measure 148
0010
1000
0010
0000
0100
0000
0110
0000
,  // measure 149
0102
0000
1003
0000
0010
0001
0010
0100
,  // measure 150
0010
1000
0010
0000
1000
0000
0011
0000
,  // measure 151
0210
0000
0301
0000
0010
0001
0010
0100
,  // measure 152
0010
1000
0010
0000
0001
0000
1010
0000
,  // measure 153
1200
0000
0301
0000
0010
0001
0010
0100
,  // measure 154
0010
1000
0010
0000
0010
1000
0001
0010
,  // measure 155
0100
1000
0001
0100
0010
1000
0100
0010
,  // measure 156
0001
0100
0010
0000
1001
0000
1100
0000
,  // measure 157
1001
0000
0101
0000
1000
0100
1000
0010
,  // measure 158
0001
1000
0100
0000
0010
0001
1000
0010
,  // measure 159
0100
0001
1000
0100
0010
0001
0100
0010
,  // measure 160
1000
0100
0010
0000
1001
0000
0101
0000
,  // measure 161
1001
0000
1100
0000
0001
0100
0001
0010
,  // measure 162
1000
0001
0100
0000
1001
0000
0000
0000
,  // measure 163
1001
0000
0110
0000
1100
0000
0101
0000
0011
0000
1010
0000
,  // measure 164
0110
0000
0020
0130
,  // measure 165
1000
0010
0001
0000
0010
0000
0011
0000
,  // measure 166
0001
0010
1000
0000
0010
1000
0100
0000
,  // measure 167
1000
0001
0100
0000
0010
0000
1100
0000
,  // measure 168
0011
0001
0100
0000
0010
0000
1000
0000
,  // measure 169
0001
0100
0010
0000
1000
0100
0010
0000
,  // measure 170
0001
0100
0010
0000
1000
1000
1000
0100
,  // measure 171
0001
0001
0001
0200
0010
0010
0010
0010
,  // measure 172
0010
0010
0310
0000
0011
0000
0001
0000
,  // measure 173
1000
0100
0001
0000
0010
0100
0110
0000
,  // measure 174
1000
0001
1001
0000
0100
0010
0001
0000
,  // measure 175
1100
0100
0001
0000
0100
0010
0100
0010
,  // measure 176
1000
0010
0001
0000
1100
0000
0011
0000
,  // measure 177
1000
0010
0001
0000
0010
0100
0001
0000
,  // measure 178
0010
0100
1000
0000
1000
0001
0101
0000
,  // measure 179
0001
1000
1100
0000
0001
0100
0010
0100
,  // measure 180
1000
0100
0100
0000
0010
1000
0010
0000
,  // measure 181
0010
0100
0010
0000
0010
0001
0010
0000
,  // measure 182
0110
0000
1010
0000
0010
1000
0001
0000
,  // measure 183
0100
0001
1000
0000
0010
1000
0001
0010
,  // measure 184
0100
1000
0001
0100
1000
0100
0001
0000
,  // measure 185
1100
0000
0101
0000
0010
1000
0100
0000
,  // measure 186
0011
1100
0002
0103
,  // measure 187
0010
1000
0001
0000
1000
0010
0001
0000
,  // measure 188
0010
0001
1000
0000
0100
0002
0000
0103
,  // measure 189
1000
0000
1001
0000
0020
1000
2030
0100
,  // measure 190
3100
1000
0010
0100
0001
0000
0100
2000
,  // measure 191
0000
0000
0000
3000
0010
1000
0100
0010
,  // measure 192
2002
0000
3003
0000
0200
0001
0300
0200
,  // measure 193
1000
0300
2002
0000
3003
0220
0000
0330
,  // measure 194
0000
0100
1000
0010
0200
0000
0302
0100
,  // measure 195
0000
0000
0000
0000
0000
0000
0000
0000
0000
0000
0000
0000
0000
0000
0000
0000
0003
0000
0000
0000
0000
0000
0000
0000
0000
0000
0000
0000
0000
0000
0000
0000
0002
0000
0000
0000
0000
0000
0000
0000
0003
0000
0100
0000
0000
0000
0000
0000
0000
0000
0000
0000
0000
0101
0000
0000
0000
0000
0000
0000
0000
0000
0000
0000
,  // measure 196
2000
0000
0000
0000
0000
0000
0000
0000
3000
0000
0100
0000
0000
0000
0000
0000
0000
0000
0000
0000
0000
1100
0000
0000
0000
0000
0000
0000
0000
0000
0000
0000
0020
0000
0000
0000
0000
0000
0000
0000
0000
0000
0000
0000
0000
0000
0000
0000
0130
0000
0000
0000
0000
0000
0000
0000
0000
0000
0000
0000
0000
0000
0000
0000
,  // measure 197
0001
0100
1000
0000
0001
0100
0010
0000
,  // measure 198
1000
0100
0010
0000
0010
0001
1000
1001
,  // measure 199
0100
1000
0001
1001
1000
0100
0001
0100
,  // measure 200
1000
1001
0020
0130
,  // measure 201
1000
0010
0001
0000
0010
1000
0100
0000
,  // measure 202
0010
0001
0100
0000
1000
0001
0100
0101
,  // measure 203
0001
1000
0100
1100
0001
0010
0100
1000
,  // measure 204
0010
0000
1001
0000
1000
0100
0001
0100
,  // measure 205
1000
0100
0001
0100
1000
0000
0101
0000
,  // measure 206
0010
1000
0100
0000
0010
0001
1000
0001
,  // measure 207
1000
0100
1000
0000
0010
0010
0010
0100
,  // measure 208
0100
0001
1000
0000
1000
0010
0001
0010
,  // measure 209
1000
0010
0001
0010
1000
0000
0101
0000
,  // measure 210
1000
0001
0100
0010
1000
0001
0100
0000
,  // measure 211
0010
1000
0001
0000
0010
0001
1000
0000
,  // measure 212
0010
1000
0001
0000
0110
0001
0000
0110
,  // measure 213
1000
0000
0000
0000
0010
1000
1010
0100
,  // measure 214
0001
0101
1000
0000
0010
0100
0000
0100
,  // measure 215
0010
0000
1100
0000
0010
0001
0101
0000
,  // measure 216
0010
1000
1100
0000
0001
0010
1000
0000
,  // measure 217
0110
0000
1001
0000
0100
2000
0010
3020
,  // measure 218
0100
0230
0301
0000
1010
0100
0010
0000
,  // measure 219
0011
0100
0010
0000
1000
0100
0001
0100
,  // measure 220
0000
1000
0010
0000
1000
0010
0100
0001
,  // measure 221
2000
0000
3100
0000
0010
0001
1000
0010
,  // measure 222
0100
0000
0010
1000
0001
0010
0100
0010
,  // measure 223
0001
1000
1000
0001
1000
0010
1000
0010
,  // measure 224
0100
0000
0001
0100
1000
0100
0010
1000
,  // measure 225
0100
0000
0001
0100
1000
0010
1000
0001
,  // measure 226
0010
0000
0100
1000
0100
0001
0100
1000
,  // measure 227
1000
0001
0001
0100
0010
0200
0000
0000
,  // measure 228
0000
0000
0310
0000
1000
0010
0100
0001
,  // measure 229
2000
0000
3100
0000
0010
0001
1000
0010
,  // measure 230
0100
0000
0010
1000
0001
0100
1000
0100
,  // measure 231
0001
0100
0100
0001
1000
0100
0001
0100
,  // measure 232
2000
0000
3010
0000
1000
0001
0100
1000
,  // measure 233
0200
0000
0301
0000
0100
0001
1000
0100
,  // measure 234
0020
0000
0130
0000
1000
0100
0001
0100
,  // measure 235
1000
0001
0001
0100
0010
0200
0000
0000
,  // measure 236
0000
0001
0000
0301
0000
1001
0000
1001
,  // measure 237
0000
0020
0000
1030
0000
0001
0010
0001
,  // measure 238
0000
1000
0000
1001
0000
0010
0000
0010
,  // measure 239
0000
0100
1000
0100
0000
0001
0000
0001
,  // measure 240
0000
1000
0000
0001
0000
1000
0000
1000
,  // measure 241
0000
0010
0000
0010
0000
1000
0010
0100
,  // measure 242
0000
0001
0010
0100
0000
0011
0000
0100
,  // measure 243
0000
1100
0000
0002
0000
0100
0000
0100
,  // measure 244
0000
0100
0000
0103
0000
0000
0010
1000
,  // measure 245
0010
0100
0000
1001
0000
0020
0000
0031
,  // measure 246
0000
0100
0010
1000
0000
0010
0100
0001
,  // measure 247
1000
0100
0010
0001
0000
0100
0010
1000
,  // measure 248
0001
0100
1000
0100
0010
1000
0100
0001
,  // measure 249
0100
0010
0000
0110
0000
2000
0000
3100
,  // measure 250
0000
0010
0001
1000
0000
0100
0010
0001
,  // measure 251
1000
0010
0100
0001
0000
0010
0100
1000
,  // measure 252
0001
0100
0010
1000
0100
0001
0100
0010
,  // measure 253
0001
0000
0100
0000
0010
0000
1000
0000
0100
0000
0010
0001
0010
0001
1000
0000
,  // measure 254
0010
0000
0100
0000
0000
0000
1001
0000
0000
0000
1000
0010
1000
0010
0100
0000
,  // measure 255
0001
0000
0010
0000
0000
0000
1001
0000
0000
0000
0100
1000
0100
0010
1000
0000
,  // measure 256
0000
0000
0100
0001
0100
1000
0010
0000
0000
0000
1000
0100
0000
0000
1000
0100
,  // measure 257
0000
0000
0010
0001
0000
0000
0010
0001
0000
0000
0100
0001
1000
0001
0100
0000
,  // measure 258
0010
0000
1000
0000
0000
0000
0110
0000
0000
0000
0100
1000
0100
0010
1000
0000
,  // measure 259
0001
0000
0100
0000
0000
0000
0110
0000
0000
0000
0001
0100
1000
0100
0001
0000
,  // measure 260
0000
0000
0010
0100
0001
0100
2000
0000
0000
0000
0002
0000
0000
0000
0000
0000
,  // measure 261
0000
0000
0000
3003
0000
1001
0000
0000
,  // measure 262
0110
0000
1000
0001
1000
0100
0000
0000
,  // measure 263
0001
1000
0001
0100
0000
0001
0010
0001
,  // measure 264
0000
1000
0010
1000
0000
0100
0010
0000
,  // measure 265
1000
1100
0001
0101
,  // measure 266
0000
0000
0001
1000
0001
0010
0000
0000
,  // measure 267
1000
0001
1000
0010
0000
0001
0100
0001
,  // measure 268
0000
1000
0100
0000
0001
0100
0000
1000
,  // measure 269
0010
0001
0010
1000
0100
0000
0110
0000
,  // measure 270
0001
1000
0001
0010
0000
0000
1000
0001
,  // measure 271
1000
0010
0000
0100
0001
0100
0000
1000
,  // measure 272
0100
1000
0000
0100
0001
0000
0010
0000
,  // measure 273
0011
0100
1100
0000
,  // measure 274
1000
0001
1000
0100
0000
0000
0001
1000
,  // measure 275
0001
0100
0000
1000
0010
1000
0000
0001
,  // measure 276
0010
0000
1000
0010
0000
0001
0100
1000
,  // measure 277
0100
0001
0010
0100
1000
0010
0100
0000
,  // measure 278
0100
0001
0001
0010
,  // measure 279
0010
0000
0100
0001
0100
0000
1000
0000
,  // measure 280
1000
0010
0010
0100
,  // measure 281
1000
0100
0000
0100
0001
0000
0010
0000
,  // measure 282
0010
0100
0100
1000
,  // measure 283
0001
1000
0001
1000
0010
0000
0110
0000
,  // measure 284
0100
0010
1001
0000
,  // measure 285
1000
0001
1000
0001
1000
0000
0100
0000
,  // measure 286
0100
1000
1000
0010
,  // measure 287
0010
0000
0100
1000
0100
0000
0001
0000
,  // measure 288
0001
0010
0010
0100
,  // measure 289
0001
0100
0000
0100
1000
0000
0010
0000
,  // measure 290
0010
0000
0100
0000
0100
0000
0001
1000
,  // measure 291
0001
0000
0010
0100
0010
0100
0010
0000
,  // measure 292
0001
1000
1001
0000
,  // measure 293
0000
1001
0001
0100
,  // measure 294
1000
0000
0100
0001
0010
0000
0100
0000
,  // measure 295
1000
1001
0001
0010
,  // measure 296
0100
0000
1000
0001
0100
0000
0010
0000
,  // measure 297
0000
1010
1000
0100
,  // measure 298
0010
0000
0001
0010
0001
0000
0100
0000
,  // measure 299
0010
0110
1000
0100
,  // measure 300
0001
0000
0100
0001
0100
0000
1000
0000
,  // measure 301
0000
0101
1000
0100
,  // measure 302
1000
0000
0001
0010
0100
0000
1000
0000
,  // measure 303
0010
0101
1000
0010
,  // measure 304
0001
0000
0010
1000
0100
0000
0010
0000
,  // measure 305
0000
1100
0001
0100
,  // measure 306
1000
0000
0100
0010
1000
0000
0001
0000
,  // measure 307
1000
1001
0001
0010
,  // measure 308
0100
1000
0001
1000
0010
0000
0100
0000
,  // measure 309
0001
0100
0001
0100
0010
0000
0001
0100
,  // measure 310
0001
0100
1000
0000
0000
0000
0000
0000
,  // measure 311
0001
0010
0001
0010
0100
0000
0001
0010
,  // measure 312
0001
0010
1000
0000
0000
0000
0000
0000
,  // measure 313
1000
0100
1000
0100
0010
0000
1000
0100
,  // measure 314
1000
0100
0001
0000
0000
0000
0000
0000
,  // measure 315
1000
0010
1000
0010
0100
0000
1000
0010
,  // measure 316
1000
0010
0001
0000
1000
0000
0001
1000
,  // measure 317
0001
0000
1000
0001
1000
0000
0010
1000
,  // measure 318
0010
0000
1000
0100
1000
0000
0100
0010
,  // measure 319
0100
0000
0010
0001
0010
0000
0100
1000
,  // measure 320
0100
0000
1000
0010
1000
0000
0010
0001
,  // measure 321
0010
0000
0100
0010
0100
0000
1000
0100
,  // measure 322
1000
0000
0001
0100
0001
0000
1000
0001
,  // measure 323
1000
0000
0001
0100
0010
1000
0100
0010
,  // measure 324
0001
0100
0010
1000
0100
0010
0001
0100
,  // measure 325
0010
1000
0100
0010
0002
0000
0010
0000
,  // measure 326
0000
0010
0000
0100
,  // measure 327
0000
0100
0000
0010
,  // measure 328
0000
0010
0000
0100
,  // measure 329
0000
0203
0000
1000
,  // measure 330
0000
1000
0000
0001
,  // measure 331
0000
0001
0300
0010
,  // measure 332
0000
1000
0000
0000
0100
0000
0000
0001
,  // measure 333
0000
0010
1000
2100
,  // measure 334
0000
0010
0000
0100
,  // measure 335
0000
0010
0000
0100
,  // measure 336
0000
0001
0000
0100
,  // measure 337
0000
3010
0100
0002
,  // measure 338
0000
0010
0000
0100
,  // measure 339
0000
0020
0003
1000
,  // measure 340
0000
0032
0000
2003
,  // measure 341
3020
0230
0002
0303
,  // measure 342
0000
0000
0000
0000
0000
0000
0001
1000
,  // measure 343
0010
0100
0001
0010
0100
2000
0010
3100
,  // measure 344
0001
1000
0100
0000
0000
0000
0010
0001
,  // measure 345
0010
0100
1000
0010
0100
0002
0010
0103
,  // measure 346
0010
0001
0100
0010
0000
0010
0100
1000
,  // measure 347
0100
0010
1000
0100
0001
0200
0010
0301
,  // measure 348
1000
0010
0100
0000
0000
0000
0001
0100
,  // measure 349
0010
1000
0100
0001
0100
2000
0010
3100
,  // measure 350
0010
1000
0001
0010
0000
0010
0100
1000
,  // measure 351
0001
1000
0010
0100
1000
0200
0010
1300
,  // measure 352
0001
0010
1000
0000
0000
0000
0010
0100
,  // measure 353
0010
0100
1000
0001
0100
0020
0100
0031
,  // measure 354
0100
0001
0010
0100
0000
0100
0010
1000
,  // measure 355
0010
0100
1000
0100
0010
0200
0010
0301
,  // measure 356
1000
0010
0100
0000
0000
0000
1000
0100
,  // measure 357
0010
0001
0100
0010
0100
2000
0100
3001
,  // measure 358
0010
0100
0001
0100
1000
0001
0000
1000
,  // measure 359
0000
0001
0000
1000
0000
0001
0000
1000
,  // measure 360
0000
0001
0000
0000
0010
0001
0010
0100
,  // measure 361
0000
0000
0010
1000
0010
0100
0000
0000
,  // measure 362
0001
1000
0100
0010
0000
0000
0101
0000
,  // measure 363
1100
0000
0000
0000
;
