#TITLE:stompin' club Mix;
#SUBTITLE:(DDR 2nd Mix);
#ARTIST:Nightime;
#TITLETRANSLIT:;
#SUBTITLETRANSLIT:;
#ARTISTTRANSLIT:;
#CREDIT:;
#BANNER:2ndMix.png;
#BACKGROUND:2ndMix-bg.png;
#LYRICSPATH:;
#CDTITLE:./CDTITLES/Dance Dance Revolution 2nd Mix.png;
#MUSIC:2ndMix.ogg;
#OFFSET:1.249;
#SAMPLESTART:68.000;
#SAMPLELENGTH:20.000;
#SELECTABLE:YES;
#BPMS:0.000=135.000,172.000=134.600,332.000=130.000,471.000=140.000,488.000=145.000,499.000=150.000,628.000=160.000,644.000=170.000,660.000=180.000,668.000=190.000;
#STOPS:;
#BGCHANGES:;

//---------------dance-single - ----------------
#NOTES:
     dance-single:
     :
     Easy:
     5:
     0.387,0.468,0.237,0.176,0.008:
0000
0000
0000
0000
,
0000
0000
0000
0000
,
0000
0000
0000
0000
,
0000
0000
0000
0000
,
0000
0000
0000
0000
,
0000
0000
0000
0000
,
0000
0000
0000
0000
,
0001
1000
0001
1000
,
0001
0001
1000
1000
,
0020
0030
0200
0300
,
0002
0003
2000
3000
,
0002
0003
0200
0300
,
1000
0001
1000
0001
,
0200
0300
2000
3000
,
0020
0030
0002
0003
,
2000
3000
0200
0300
,
0001
1000
0001
1000
,
0200
0300
0020
0030
,
0020
0030
0200
0300
,
2000
3000
0002
0003
,
2000
3000
0002
0003
,
0200
0300
2000
3000
,
0200
0300
0002
0003
,
0020
0030
2000
0000
,
0002
0000
0000
3003
,
1000
0001
1000
0001
,
1000
0001
1000
1000
,
0001
1000
0001
1000
,
0001
1000
0001
0001
,
1000
0001
1000
0001
,
1000
0001
1000
1000
,
0020
0000
0000
0030
,
0200
0000
0000
0300
,
1000
0001
1000
0001
,
1000
1000
1000
1000
,
0001
1000
0001
1000
,
0001
0001
0001
0001
,
1000
1000
0001
0001
,
1000
0001
1000
0001
,
0020
0000
0000
0030
,
0200
0000
0000
0300
,
0010
0010
0010
0010
,
0100
0100
0100
0100
,
0010
0010
1000
0100
,
0010
0010
0001
0100
,
0020
0030
0010
1001
,
1100
0101
0000
0010
,
0010
0000
1000
0001
0100
0000
0010
0000
,
0010
0000
0001
1000
0100
0000
0001
0000
,
0110
0100
0100
1001
,
0101
1100
0000
0002
,
0003
0001
0001
0200
,
0300
0100
0100
2000
,
3000
1000
1000
0010
,
0010
0010
0010
0001
,
0001
0100
0100
1000
,
1000
0010
0010
0001
,
0100
1000
0010
0001
,
0100
1000
0010
0020
,
0000
0000
0030
0000
1000
0010
0200
0000
,
0001
0000
0301
0000
1000
0010
0200
0000
,
0001
0000
0301
0000
1000
0010
0100
0000
,
0100
0000
1000
0010
0100
0000
0100
0000
,
0010
0000
0001
1000
0100
0000
0010
0000
,
0100
0000
1000
0001
0100
0000
0001
0000
,
0120
0100
0130
1001
,
1100
0101
0000
2000
,
3001
0000
0010
0100
1000
0000
0002
0000
,
1003
0000
0010
0100
0001
0000
1000
0000
,
0120
0100
0130
1001
,
0101
1100
0000
0001
,
0001
0100
0100
0010
,
1000
0000
1000
0100
0001
0000
1000
0000
,
1000
0100
0100
0010
,
0001
0000
0001
0100
1000
0000
1000
0000
,
0002
0003
2000
3000
,
0002
0003
1000
0010
,
0010
0001
0001
0100
,
0100
1000
1000
0020
,
0130
0001
0100
0020
,
0130
1000
0100
0020
,
0130
0001
0100
1000
,
0100
1000
0100
0010
,
2100
0001
0100
3010
,
0102
1000
0100
0013
,
0001
0100
1000
0010
,
0001
0100
1000
0010
,
1000
0010
1001
1000
,
0001
0100
1001
0100
,
1001
0100
1001
0100
,
1001
0100
1001
0010
,
0100
0010
1001
0010
,
1000
0100
1001
0010
,
0001
0100
1001
0010
,
1000
0100
1001
1100
,
0001
0101
1000
1100
,
0001
0000
0000
0000
0101
0000
0000
0000
1000
0000
0000
0000
0001
0000
0000
0001
,
0000
0000
0001
0000
0000
0000
1000
0000
0100
0000
0000
0000
1000
0000
0000
1000
,
0000
0000
1000
0000
0000
0000
0001
0000
0100
0000
0000
0000
0001
0000
0000
1000
,
0000
0001
0000
0010
0100
0000
0020
0000
,
0001
0000
0000
0000
0001
0000
0000
0000
0031
0000
0000
0000
1000
0000
0000
0100
,
0000
0000
1000
0000
0000
0000
0001
0000
0100
0000
0000
0000
0100
0000
0000
0001
,
0000
0000
1000
0000
0000
0000
0100
0000
1000
0000
0000
0000
0010
0000
0000
0001
,
0000
1000
0000
0100
0010
0000
0020
0000
,
1000
1000
1030
0001
,
0100
0010
1000
0100
,
0010
0001
0100
0010
,
1000
0100
0010
0001
,
0001
1000
1000
0010
,
1000
0100
0110
0010
,
0001
0100
0110
1000
,
0100
0001
0010
1010
,
0001
0011
1000
0020
,
1030
0000
0001
0100
0001
0000
0020
0000
,
0031
0000
0100
0100
0100
0000
1001
0000
,
1001
0000
1000
0100
1000
0000
2000
0000
,
3100
0000
0010
0001
0100
0000
1100
0000
,
0001
0101
1000
1100
,
0001
0101
1000
0010
,
1000
0100
0010
0001
,
0100
0010
1001
1000
,
0010
0000
0001
0000
0010
0000
1000
0010
,
0100
0000
0001
0010
0100
0000
0010
0000
,
0000
1000
0000
0000
0100
0000
0000
0001
,
0000
0000
0010
0010
0100
0100
0000
0000
,
0020
0030
0020
0030
,
0010
0000
0100
0000
0001
1000
0100
0000
,
0020
0030
0010
0100
,
0010
0001
0010
1000
,
0010
0000
0100
0000
0001
1000
0100
0000
,
0020
0030
0010
0100
,
0010
0001
0010
1000
,
0010
0000
0100
0000
0010
0001
1000
0000
,
0010
0100
0010
0110
,
0000
0100
0000
0100
,
0010
0000
0010
1001
,
0000
0100
0100
0100
,
0100
0001
0010
0110
,
0000
0010
0010
0010
,
0010
0100
0010
1001
,
0000
1000
1000
1000
,
0020
0030
0020
0030
,
0010
0100
0110
0000
,
0020
0030
0020
0030
,
0001
0100
1000
0000
,
0010
0100
0001
0100
,
1000
0100
1001
0000
,
0010
0100
1000
0010
,
0001
0010
0001
0100
,
0020
0030
0020
0030
,
0010
0000
0100
0000
0001
1000
0100
0000
,
0010
0001
0100
1000
,
0010
0001
0010
1000
,
0010
0000
0100
0000
0001
1000
0100
0000
,
0010
0001
0100
1000
,
0010
0001
0010
1000
,
0010
0000
0100
0000
0010
0001
1000
0000
,
0010
0100
0010
0110
,
0000
0100
0001
0100
,
0010
0100
0010
1001
,
0000
1000
0100
0001
,
0010
0001
0010
0110
,
0000
0001
0100
1000
,
0010
0100
0010
1001
,
0000
1000
1000
1000
,
0100
0200
0000
0000
0000
0300
0000
0001
,
0001
0001
0000
0001
0001
0001
0001
0001
,
0001
0001
0000
0001
,
0000
0100
0000
0100
,
0000
0010
0100
1000
,
0100
0001
0010
0001
,
0100
1000
0100
0100
,
0001
0010
0100
1000
,
0010
1000
0100
0000
0000
0000
0100
0000
,
0010
0001
0100
1000
,
0101
0101
1100
1100
,
0011
0101
1001
0101
,
0010
0001
0010
1000
,
0010
0000
0100
0000
0001
1000
0100
0000
,
0001
0001
1000
1000
,
0010
0000
0100
0000
0010
0001
1000
0000
,
0001
1000
0100
0001
,
1000
0000
0001
0000
1000
0100
1100
0000
,
1000
0011
0100
1010
,
0101
0011
1100
0000
,
0001
1000
0001
1000
,
0001
0001
0001
0001
,
1000
1000
0001
0001
,
1000
0001
1000
0001
,
1000
0100
0001
0010
,
1000
0100
1000
0100
,
1000
0100
1000
0010
,
0001
0100
1000
0100
,
1000
0000
0000
0100
0000
0000
0001
0000
,
0000
1000
0000
0010
0001
0001
0001
0000
,
0001
0000
0000
0100
0000
0000
1000
0000
,
0000
0001
0000
0010
1000
1000
1000
0000
,
1000
0000
0000
0100
0000
0000
0001
0000
,
0000
1000
0000
0010
0001
0001
0001
0000
,
0001
0000
0000
0100
0000
0000
1000
0000
,
0000
0001
0000
0010
1000
1000
1000
0000
,
0010
0000
0001
0001
,
0000
1000
1000
1000
,
0100
1000
0010
0010
,
1000
0001
0001
0001
,
1000
0001
0100
0100
,
0001
0010
0010
0010
,
0001
0010
1000
1000
,
0010
0100
0100
0100
,
0010
0100
0001
0001
,
0100
1000
1000
1000
,
0010
0001
0010
1000
,
1001
0000
0010
0100
,
0010
0001
0010
1000
,
1001
0000
0100
0010
,
0100
1000
0100
0001
,
1001
0000
0100
0010
,
0100
1000
0100
0000
,
1001
0000
0110
0000
,
1000
0010
0100
0000
0001
0000
0001
0000
,
1001
0110
1001
0110
,
1000
0010
0100
0000
0001
0000
0001
0000
,
1001
1100
0101
0000
,
1000
0010
0100
0000
0001
0000
0001
0000
,
0110
1001
0100
1000
,
1000
0010
0100
0000
0001
0000
0001
0000
,
1010
0110
0101
0000
,
1000
0000
0110
0000
0001
0100
1000
0000
,
0100
0000
1001
0000
1000
0100
0001
0000
,
0100
0010
0001
1000
0010
0100
0000
0000
,
0100
0010
1000
0001
0010
0100
0000
0000
,
0010
1000
0100
0110
,
0010
0001
0100
0110
,
1000
0100
0001
0010
,
1010
0001
0011
0000
;

//---------------dance-single - ----------------
#NOTES:
     dance-single:
     :
     Medium:
     6:
     0.500,0.593,0.434,0.408,0.008:
0000
0000
0000
0000
,
0000
0000
0000
0000
,
0000
0000
0000
0000
,
0000
0000
0000
0000
,
0000
0000
0000
0000
,
0000
0000
0000
0000
,
0000
0000
0000
0000
,
0001
1000
0001
1000
,
0001
0001
0002
0000
1000
1000
2003
0000
,
0000
3010
0001
0010
,
1000
0010
1000
0010
,
0001
0010
0001
0000
,
0010
1000
0100
0001
0100
1000
0010
0000
,
1000
0100
0001
0100
,
1000
0010
1000
0010
,
0001
0010
1000
0000
,
0010
1000
0100
0001
0100
1000
0010
0000
,
1000
0010
2002
3000
,
0010
0010
1003
0100
,
0001
0010
0001
0000
0100
0000
1000
0000
,
1000
0000
0100
0000
0001
0000
0001
0100
,
1000
0000
0200
0000
0301
0000
1000
0100
,
0001
0000
0200
0000
1300
0000
0010
1000
,
0001
2000
3100
0002
,
0103
2000
0002
3003
,
0010
1000
0010
1001
,
0010
0000
0010
0000
1000
0100
0000
0000
,
0020
0031
0020
1030
,
1000
0100
0001
0000
0100
1000
0010
0000
,
0020
0031
0020
1030
,
0100
0001
0100
1000
,
0020
0000
0000
0030
,
0200
0000
0000
0300
,
0020
1030
0020
0031
,
0010
0010
0010
0010
,
1000
0100
0001
0000
0001
0100
1000
0000
,
0010
0010
0010
0010
,
0100
0001
0010
0000
0001
1000
0100
0000
,
0001
0000
0001
0000
1000
0001
1000
0000
,
0001
0100
1000
0000
1000
0100
0001
0000
,
0200
1300
0002
0103
,
0010
0010
1100
0101
,
0100
1000
0100
0001
0100
0000
2100
0000
,
3001
0000
0010
0100
1000
0000
0012
0000
,
1003
0000
0010
0100
0001
0000
0010
0000
,
0011
2100
3100
1001
,
0101
1100
0000
2010
,
3001
0000
0010
0100
1000
0000
0012
0000
,
1003
0000
0010
0100
0001
0000
0010
0000
,
0011
2100
3100
1001
,
0101
1100
0000
0002
,
1003
0000
0001
0010
1000
0000
0002
0000
,
1003
0000
0001
0100
1000
0000
0002
0000
,
1003
0000
0001
0010
1000
0000
0001
0100
,
1000
0000
0001
0100
1000
0000
0002
0000
,
0010
0100
1003
2000
,
0100
0010
3001
0002
,
0100
2003
0010
3002
,
0100
2003
0010
3020
,
0000
0000
0030
0000
1000
0010
0100
0000
,
0001
0010
0100
0000
1000
0010
0100
0000
,
0001
0010
0100
0000
1000
0010
0100
0010
,
0100
0010
1000
0010
0100
0000
2010
0000
,
3001
0000
0010
0100
1000
0000
0012
0000
,
1003
0000
0010
0100
0001
0000
0010
0000
,
0011
2100
3100
1001
,
0101
1100
0000
0012
,
1003
0000
0010
0100
0001
0000
2010
0000
,
3001
0000
0010
0100
1000
0000
0010
0000
,
1010
0102
0103
1001
,
1100
0101
0000
0010
,
0010
0101
1100
0020
,
0031
0000
1000
0100
0001
0000
0010
0000
,
0010
1100
0101
0020
,
1030
0000
0001
0100
1000
0000
1000
0000
,
0002
0003
2000
3000
,
0020
0030
0200
0301
,
0100
1000
0010
0001
,
0100
1000
0010
0020
,
0130
0000
0010
1000
0100
0000
0020
0000
,
0130
0000
0010
0001
0100
0000
0020
0000
,
0130
0001
0100
1000
,
0100
2000
0100
3010
,
1100
0012
0100
0013
,
0101
2010
0100
0010
,
3001
0110
1001
0010
,
1000
0000
0110
0000
1001
0000
1000
0100
,
1000
0000
0010
1000
0001
0000
0001
0100
,
0001
0000
0100
0000
1001
0000
0100
1000
,
1001
0000
0100
0001
1001
0000
0100
1000
,
1001
0000
0100
0001
1001
0000
0010
0000
,
0100
0000
0010
0000
1001
0000
0010
0001
,
0100
0000
0100
0000
1001
0000
0100
0001
,
0100
0000
0100
1000
0100
0000
0100
0001
,
0100
0000
0100
1000
0100
0000
0100
1000
,
0001
0000
0100
0001
1000
0000
0100
1000
,
0001
0000
0000
0000
0100
0000
0001
0000
1000
0000
0000
0000
0001
0000
0000
0001
,
0000
0000
0001
0000
0000
0000
0100
0000
1000
0000
0100
0000
1000
0000
0000
1000
,
0000
0000
1000
0000
0000
0000
0001
0000
0100
0000
0001
0000
0010
0000
0000
0001
,
0000
0100
0000
1000
0100
0001
0100
0000
,
0100
0000
0000
0000
0100
0000
0000
0000
0100
0000
0000
0000
0010
0000
0000
0010
,
0000
0000
0010
0000
0000
0000
1000
0000
0001
0000
0100
0000
0010
0000
0000
0010
,
0000
0000
1001
0000
0000
0000
0010
0000
1000
0000
0100
0000
0001
0000
0000
0001
,
0000
0110
0000
0001
1000
0100
0010
0000
,
0010
0000
1001
1000
0100
0000
0200
0000
,
0310
0000
1000
0100
0010
0000
0002
0000
,
0103
0000
0010
1000
0100
0000
0020
0000
,
0031
0000
0100
0010
1000
0000
1001
0000
,
1001
0000
0100
0001
1000
0000
0020
0000
,
1000
0130
0110
0020
,
0001
0000
0130
0000
0110
0000
1000
0100
,
1000
0000
0001
0100
0001
0000
1000
0100
,
1000
0000
0001
0100
0001
0000
2000
0000
,
3001
0000
1000
1000
0100
0000
0002
0000
,
1003
0000
0001
0001
0100
0000
0011
0000
,
1001
0000
0001
1000
0100
0000
0010
0000
,
1001
0000
0010
0100
0010
0000
2100
0000
,
3001
0102
1003
1100
,
0110
0101
0110
0020
,
1000
0130
0011
0002
,
0100
0013
1010
0002
,
0100
0000
0010
0000
1003
0000
1000
0010
,
0100
0000
0001
0010
0100
0000
0020
0000
,
0030
2000
0000
3000
0200
0000
0300
0002
,
0000
0003
0100
0100
0010
0010
0000
0000
,
0020
0030
0020
0030
,
0011
0000
1100
0000
0001
1000
0200
0000
,
0010
0301
0011
0200
,
0010
1000
0310
1010
,
1010
0000
0101
0000
1000
0001
0200
0000
,
0010
1300
1010
0200
,
0010
0001
0310
0011
,
0011
0000
1100
0000
0010
0001
1000
0000
,
0002
0103
2000
3100
,
0001
1100
1000
0101
,
2000
3100
0002
0103
,
1000
0101
0001
1100
,
0020
0230
0310
0110
,
0010
0001
0100
1000
,
0010
0001
0100
1002
,
0000
1000
1000
1003
,
0020
0130
1010
1100
,
0020
0130
2002
3003
,
0002
1003
0011
1010
,
0002
1003
0220
0330
,
0200
0310
0101
0011
,
0200
0310
2002
3003
,
2000
3001
1100
0101
,
2000
3001
1100
0101
,
0020
0030
0020
0030
,
0011
0000
1100
0000
0001
1000
0200
0000
,
0010
0301
0011
0200
,
0310
1001
0010
1010
,
1010
0000
0101
0000
1000
0001
0200
0000
,
0010
1300
1010
0200
,
0310
1001
0010
0011
,
0020
0000
0130
0000
0010
0001
1000
0000
,
0002
0103
2000
3100
,
0001
1100
1000
0101
,
2000
3100
0002
0103
,
1000
0101
0001
1100
,
0020
0230
0310
0110
,
0010
0001
0100
1000
,
0010
0001
0100
1002
,
0000
1000
1000
1003
,
0100
2000
0000
0000
0000
3000
0000
0100
,
1000
0010
0000
1000
0100
1000
0010
2000
,
0001
0001
0000
0001
,
0000
0100
0000
3100
,
0002
0100
1000
0103
,
0020
0001
1000
0130
,
0002
0100
0010
1003
,
0110
1001
0110
1001
,
0010
0010
0002
0103
,
1000
1000
0200
0301
,
0020
0030
0020
0030
,
0011
0000
1100
0000
0001
1000
0100
0000
,
0002
0103
0020
1030
,
0002
0103
0020
1030
,
0001
0100
1000
0000
0001
0100
1000
0000
,
0001
1000
0001
1000
0001
0100
1000
0000
,
0101
0100
0100
0000
1002
0000
0003
0000
,
1010
0010
0010
0000
2001
0000
3000
0000
,
0021
0001
0031
0000
1200
1000
1300
0000
,
0101
1100
2002
3003
,
1000
1100
0001
0101
,
0020
0100
1030
1001
,
0001
0101
0100
1100
,
0020
0100
0031
1001
,
1000
0001
1000
0110
,
0001
1000
0001
1001
,
0010
1100
0001
0101
,
0100
0010
1001
0100
,
0002
0000
0000
1000
0000
0000
0100
0000
,
0000
1003
0000
0001
0010
0010
0010
0000
,
2000
0000
0000
0001
0000
0000
0100
0000
,
0000
3001
0000
1000
0010
0010
0010
0000
,
0002
0000
0000
1000
0000
0000
0100
0000
,
0000
1003
0000
0001
0010
0010
0010
0000
,
2000
0000
0000
0001
0000
0000
0100
0000
,
0000
3001
0000
1000
0010
0010
0010
0000
,
0020
0000
0001
1000
,
0000
1000
0100
0031
,
0002
0010
1000
0100
,
0010
0100
0010
1000
,
2003
0001
0100
0010
,
0001
0010
0001
0100
,
3200
1000
0010
0001
,
1000
0001
1000
0010
,
0320
0100
0001
1000
,
0100
1000
0100
0031
,
0020
0031
0011
1000
,
2200
0000
3300
0000
0010
0010
0100
0000
,
0020
0031
0011
1000
,
2200
0000
3300
0000
0100
0100
0010
0000
,
0200
1300
1100
0001
,
0202
0000
0303
0000
0100
0100
0010
0000
,
0100
1000
0100
0000
,
0010
0100
0220
0330
,
1000
0100
1000
0000
0001
0100
0001
0000
,
1001
1010
1100
1000
,
1000
0100
1000
0000
0001
0100
0001
0000
,
1001
1100
0101
0000
,
1000
0100
1000
0000
0001
0100
0001
0000
,
1001
1010
1100
1000
,
1000
0100
1000
0000
0001
0100
0001
0000
,
1001
1100
0101
0000
,
0100
0001
0100
0000
0010
1000
0010
0000
,
0100
0001
0100
0000
0010
1000
0010
0000
,
1000
0010
1000
0010
1000
0100
1000
0100
,
1000
0001
0100
0001
0100
0001
0001
0000
,
0010
0010
1100
0101
,
0100
1000
0100
0001
0100
0000
0100
0000
,
0010
1001
0110
0002
,
1000
0000
0100
0100
0103
0000
0000
0000
;

//---------------dance-single - ----------------
#NOTES:
     dance-single:
     :
     Hard:
     8:
     0.602,0.626,0.498,0.232,0.075: // measure 1
0000
0000
0000
0000
,  // measure 2
0000
0000
0000
0000
,  // measure 3
0000
0000
0000
0000
,  // measure 4
0000
0000
0000
0000
,  // measure 5
0000
0000
0000
0000
,  // measure 6
0000
0000
0000
0000
,  // measure 7
0000
0000
0000
0000
,  // measure 8
0002
0000
1003
0000
0010
1000
0100
0000
,  // measure 9
0010
0001
0100
0000
0010
1000
0100
0000
,  // measure 10
0000
0000
0001
0000
0010
1000
0100
0000
,  // measure 11
1000
0000
0010
0000
1000
0010
0001
0000
,  // measure 12
0001
0010
1000
0000
0001
0001
0100
0000
,  // measure 13
0010
1000
0100
0001
0100
1000
0010
0000
,  // measure 14
2000
0000
3100
0000
0001
0001
0100
0000
,  // measure 15
1000
0000
0020
0000
1030
0000
0010
0010
,  // measure 16
0001
0000
0010
0010
2000
0000
3001
0000
,  // measure 17
0010
1000
0100
0001
0100
1000
0010
0000
,  // measure 18
2000
0000
3010
0000
1001
0000
0100
0200
,  // measure 19
0010
0000
0010
0000
1300
0000
0100
0100
,  // measure 20
0001
0010
0002
0000
0103
0000
1000
2000
,  // measure 21
0100
0000
0100
0000
3001
0000
0001
0100
,  // measure 22
1000
0000
0200
0000
0301
0000
1000
0100
,  // measure 23
0001
0000
0200
0000
1300
0000
0010
1000
,  // measure 24
0001
0000
1000
0001
0100
0000
0001
1000
,  // measure 25
0100
0000
1000
0000
0001
1000
0001
1000
,  // measure 26
0010
0010
0010
0000
1000
0010
0001
0000
,  // measure 27
0010
0010
0010
0010
1000
0100
0000
0000
,  // measure 28
0001
1000
0010
0000
1000
0001
0010
0000
,  // measure 29
1000
0010
0001
0000
0001
0010
1000
0000
,  // measure 30
0010
0010
1010
0000
1000
0010
0001
0000
,  // measure 31
0010
0010
1010
0000
0001
0010
1000
0000
,  // measure 32
0010
1000
0100
0001
0100
1000
0010
1000
,  // measure 33
0100
0001
0100
1000
0010
1000
0100
0001
,  // measure 34
0100
0100
1100
0000
0010
0010
1010
0000
,  // measure 35
0010
0000
0010
0010
0010
1000
0010
0000
,  // measure 36
2100
0100
3100
0000
0102
0100
0103
0000
,  // measure 37
0010
0000
0010
0010
0010
1000
0010
0000
,  // measure 38
0100
1100
0100
0000
0100
0101
0100
0000
,  // measure 39
0002
1003
2000
3001
,  // measure 40
0010
1000
0100
0001
0100
1000
0010
1000
,  // measure 41
0100
0001
0100
1000
0010
1000
0100
0001
,  // measure 42
0100
0000
0100
0000
0100
1000
0001
0000
,  // measure 43
0100
1000
0100
0001
0100
0000
0110
0000
,  // measure 44
1000
0100
1000
0100
1000
0000
0110
0000
,  // measure 45
0001
0100
0001
0100
0001
0000
0110
0000
,  // measure 46
1000
0001
1000
0001
1000
0000
0110
0000
,  // measure 47
1010
0101
1001
1010
,  // measure 48
1000
0001
1000
0001
1000
0000
0011
0000
,  // measure 49
0001
1000
0001
1000
0001
0000
1100
0000
,  // measure 50
1000
0001
1000
0001
1000
0001
0100
0001
,  // measure 51
1000
0001
1000
0001
1000
0001
1001
0000
,  // measure 52
0010
0000
0100
0000
0001
1000
0000
0001
1000
0000
0010
0000
0101
0000
0000
0000
,  // measure 53
0100
0000
0010
0000
1000
0001
0000
1000
0001
0000
0100
0000
0110
0000
0000
0000
,  // measure 54
0010
0000
0100
0000
0001
1000
0000
0001
1000
0000
0010
0000
1000
0001
0000
1000
,  // measure 55
0001
0000
0100
0000
0001
1000
0000
0001
1000
0000
0010
0000
0110
0000
0000
0001
,  // measure 56
1000
0000
0000
0010
1000
0000
0000
0100
1000
0000
0000
0010
1000
0000
0000
0001
,  // measure 57
1000
0000
0000
0001
0100
0000
0000
0001
0010
0000
0000
0001
1000
0000
0100
0000
,  // measure 58
0001
0100
1000
0010
0001
0010
1000
0100
,  // measure 59
0001
0100
1000
0010
0001
0010
1001
0000
,  // measure 60
1000
1001
0001
0000
0010
1010
1000
0000
,  // measure 61
0001
1001
1000
0000
0010
0110
0100
0000
,  // measure 62
0001
0101
0100
0000
0100
0100
1000
1000
,  // measure 63
0010
0010
0001
0001
0100
0100
1001
0000
,  // measure 64
0001
1000
0001
0100
0010
0000
1001
0000
,  // measure 65
1000
0001
1000
0010
0100
0000
1001
0000
,  // measure 66
0001
1000
0001
0100
0010
0100
0000
1001
,  // measure 67
0000
0101
0000
0010
0001
1000
1001
0000
,  // measure 68
0001
1000
0001
0100
0010
0000
1001
0000
,  // measure 69
1000
0001
1000
0010
0100
0000
1001
0000
,  // measure 70
0001
1000
0001
0100
0010
0100
0000
1001
,  // measure 71
0000
1010
0000
0100
1000
0001
1001
0000
,  // measure 72
1010
0000
0000
0000
0101
0000
0000
0000
1001
0000
0000
0000
0001
0000
0010
0001
,  // measure 73
0000
1000
0100
0000
1000
0010
0000
1000
0001
0000
0100
0000
1001
0000
0000
0000
,  // measure 74
0101
0000
0000
0000
1010
0000
0000
0000
1001
0000
0000
0000
1000
0000
0100
1000
,  // measure 75
0000
0001
0010
0000
0001
0100
0000
0001
1000
0000
0010
0000
1100
0000
0000
0000
,  // measure 76
0010
0100
0101
0000
0010
0100
1100
0000
,  // measure 77
0010
0100
0101
0000
0010
0100
1000
0100
,  // measure 78
0010
0001
0001
0010
0100
1000
1000
0010
,  // measure 79
0100
0001
0001
0100
0010
1000
1001
0000
,  // measure 80
0010
0000
0100
0000
0001
1000
0000
0001
1000
0000
0010
0000
0101
0000
0000
0000
,  // measure 81
0100
0000
0010
0000
1000
0001
0000
1000
0001
0000
0100
0000
0110
0000
0000
0000
,  // measure 82
0010
0000
0100
0000
0001
1000
0000
0001
1000
0000
0010
0000
1000
0001
0000
1000
,  // measure 83
0001
0000
0100
0000
0001
1000
0000
0001
1000
0000
0010
0000
0110
0000
0000
0000
,  // measure 84
1000
0001
1001
0000
0100
0010
0110
0000
,  // measure 85
1000
0010
1010
0000
0100
1000
1000
0100
,  // measure 86
0001
0100
1000
0010
0001
0010
1000
0100
,  // measure 87
0001
0100
1000
0010
0001
0010
1000
0100
,  // measure 88
1000
0100
0010
0100
0010
0100
0001
0100
,  // measure 89
0001
0100
0010
0100
0010
0100
1000
0100
,  // measure 90
0001
0100
1000
0100
0001
0100
1000
0100
,  // measure 91
0001
0100
1000
0100
0010
0100
0010
0100
,  // measure 92
0001
0100
1000
0100
0001
0100
1000
0100
,  // measure 93
0001
0100
0010
0100
1000
0100
0010
0001
,  // measure 94
0100
0001
0010
0001
0100
0001
0010
0001
,  // measure 95
1000
0001
1000
0001
0100
0001
0100
1000
,  // measure 96
0001
1000
0001
1000
0010
1000
0010
1000
,  // measure 97
0100
0000
1000
0000
0010
0000
1000
0000
0100
0000
1010
0000
1000
0000
0000
0001
,  // measure 98
0000
0000
2000
0000
0000
0000
3010
0000
0100
0000
0001
0000
0001
0000
0000
1000
,  // measure 99
0000
0000
0002
0000
0000
0000
0013
0000
0100
0000
1000
0000
0010
0000
0000
0010
,  // measure 100
0000
0020
0000
1030
0001
0200
0010
0000
,  // measure 101
0010
0000
0300
0000
0010
0000
1000
0000
0200
0000
0000
0000
1000
0000
0000
1000
,  // measure 102
0000
0000
1300
0000
0000
0100
1000
0000
0001
0000
0200
0000
0001
0000
0000
0001
,  // measure 103
0000
0000
0301
0000
0000
0010
0001
0000
1000
0000
0200
0000
0010
0000
0000
0010
,  // measure 104
0000
0000
0310
0000
0000
0100
1000
0000
0001
0000
0100
0000
0010
1000
0000
0000
,  // measure 105
0100
1000
0000
0000
0001
1000
0000
0000
0100
1000
0000
0000
0000
0000
1000
0000
,  // measure 106
0000
1000
0000
0001
0000
0001
0000
0010
,  // measure 107
0000
1100
0000
0010
0000
0101
0000
0100
,  // measure 108
0000
1001
0000
0100
0000
1001
0000
0100
,  // measure 109
0000
0100
0000
0010
1001
0000
0100
1000
,  // measure 110
0100
1000
0001
0010
0001
0010
0001
0100
,  // measure 111
0001
0100
0010
1000
1010
0000
0100
1000
,  // measure 112
0010
1000
0001
0100
0010
1000
0100
0010
,  // measure 113
0001
0100
0010
0100
1001
0000
0020
0000
,  // measure 114
1030
0000
0001
1001
1001
0000
1001
0000
,  // measure 115
0100
0000
1001
1000
0100
0000
0010
1000
,  // measure 116
0100
0010
0001
0100
0100
0000
1100
0000
,  // measure 117
1010
0000
0010
0001
0101
0000
1001
0000
,  // measure 118
0100
0000
0001
0100
1000
0000
1001
0000
,  // measure 119
0100
0000
1000
0100
0001
0000
1001
0000
,  // measure 120
0101
0000
0001
0010
0101
0000
0011
0000
,  // measure 121
1100
0000
1010
0001
0100
0000
1000
0000
,  // measure 122
0101
0001
1100
0010
,  // measure 123
0001
1100
0000
1000
0101
0000
0020
0001
,  // measure 124
0031
2000
0001
3001
0200
0001
0301
0002
,  // measure 125
1000
1003
0010
1000
1001
0101
0000
0000
,  // measure 126
0020
0000
0130
0000
0010
0010
0010
0000
,  // measure 127
0011
0000
1100
0000
0001
1000
0100
0000
,  // measure 128
0010
0000
0010
0000
0010
1000
0100
0000
,  // measure 129
0020
0000
1000
0000
0031
0001
1000
0000
,  // measure 130
1010
0000
0101
0000
1100
0101
1100
0000
,  // measure 131
0010
0010
1000
0000
1001
0000
1100
0000
,  // measure 132
0020
0031
0020
1030
,  // measure 133
0010
1000
0100
0000
0001
0100
1000
0000
,  // measure 134
0002
0100
0100
0103
,  // measure 135
0001
1100
0101
1100
,  // measure 136
0002
0100
0100
0103
,  // measure 137
1100
0101
1100
0101
,  // measure 138
0200
0310
0200
0310
,  // measure 139
1010
0011
1010
0011
,  // measure 140
0200
1300
0200
0301
,  // measure 141
1001
1010
0101
1001
,  // measure 142
0010
0000
0100
0000
0010
1000
0000
0000
0200
0000
0000
0000
0301
0000
0000
0000
,  // measure 143
0010
0000
0100
0000
0010
1000
0000
0000
0200
0000
0000
0000
0310
0000
0000
0000
,  // measure 144
0001
0000
1000
0000
0001
1000
0000
0000
0002
0000
0000
0000
0103
0000
0000
0000
,  // measure 145
1000
0000
0001
0000
1000
0001
0000
0000
2000
0000
0000
0000
3100
0000
0000
0000
,  // measure 146
0010
0000
0100
0000
0010
1000
0000
0000
0200
0000
0000
0000
0301
0000
0000
0000
,  // measure 147
0010
0000
0100
0000
0010
1000
0000
0000
0200
0000
0000
0000
0310
0000
0000
0000
,  // measure 148
0001
0000
1000
0000
0001
1000
0000
0000
0002
0000
0000
0000
0103
0000
0000
0000
,  // measure 149
0010
0001
0100
1000
0010
0001
0100
1000
,  // measure 150
0020
0000
0130
0000
0010
0010
0010
0000
,  // measure 151
0011
0000
1100
0000
0001
1000
0100
0000
,  // measure 152
0010
0000
0010
0000
0010
1000
0100
0000
,  // measure 153
0020
0000
1000
0000
0031
0001
1000
0000
,  // measure 154
1010
0000
0101
0000
1100
0101
1100
0000
,  // measure 155
0010
0010
1000
0000
1001
0000
1100
0000
,  // measure 156
0110
0000
1001
0000
0110
0000
0010
0100
,  // measure 157
0010
0000
0100
0001
0010
0100
1000
0000
,  // measure 158
0002
0103
2000
3100
,  // measure 159
0001
0000
1100
0000
0101
0000
1000
0100
,  // measure 160
0001
0101
1100
0101
,  // measure 161
1000
0000
0011
0000
1010
0000
0001
0010
,  // measure 162
2000
3200
0310
0110
,  // measure 163
0010
0020
0130
2000
,  // measure 164
3010
0002
0103
2000
,  // measure 165
3010
0002
0103
1000
,  // measure 166
1000
0100
0000
1000
0000
0100
0000
1000
,  // measure 167
0010
0100
0000
1000
0100
1000
0010
2000
,  // measure 168
0002
0000
0000
0000
,  // measure 169
0000
3003
0000
0000
0000
0000
0000
0000
,  // measure 170
0010
0000
0010
0000
0001
0100
0001
0000
,  // measure 171
1000
0000
1000
0000
0100
1000
0001
0000
,  // measure 172
0020
0000
0130
0000
0010
0010
0010
0000
,  // measure 173
0011
0000
1100
0000
0001
1000
0100
0000
,  // measure 174
0010
0010
0010
0000
1000
0010
0001
0000
,  // measure 175
0010
0010
0010
0000
2000
0000
3100
0000
,  // measure 176
0001
1000
0010
0000
1000
0001
0010
0000
,  // measure 177
1000
0010
0001
0000
0001
0010
1000
0000
,  // measure 178
2000
3001
1010
1001
,  // measure 179
0010
0000
1010
0000
0100
0100
0100
0000
,  // measure 180
0020
0031
0200
1300
,  // measure 181
0100
0001
0100
1000
0100
0001
0100
0000
,  // measure 182
0010
0100
0010
0000
0001
0100
1000
0000
,  // measure 183
0002
0000
1003
0000
0001
1000
0100
0000
,  // measure 184
0001
0010
1000
0000
0002
0000
0103
0000
,  // measure 185
0001
1000
0100
0010
0100
1000
0001
0000
,  // measure 186
1000
2000
0001
3002
,  // measure 187
1000
2003
0001
3001
,  // measure 188
0100
0110
0110
0110
,  // measure 189
1010
0001
1100
0101
,  // measure 190
0002
1003
0101
0101
,  // measure 191
1010
0101
0101
0000
,  // measure 192
2000
3001
1100
1100
,  // measure 193
0011
1100
1100
0000
,  // measure 194
2000
0000
0000
3001
0000
0000
0110
0000
,  // measure 195
0000
1001
0000
0020
0100
0100
0130
0000
,  // measure 196
0002
0000
0000
1003
0000
0000
0110
0000
,  // measure 197
0000
1001
0000
0020
0100
0100
0130
0000
,  // measure 198
2000
0000
0000
3001
0000
0000
0110
0000
,  // measure 199
0000
1001
0000
0020
0100
0100
0130
0000
,  // measure 200
0002
0000
0000
1003
0000
0000
0110
0000
,  // measure 201
0000
1001
0000
0020
0100
0100
0130
0000
,  // measure 202
0010
0000
1001
0011
,  // measure 203
0000
0000
1000
0100
0010
0100
1000
0000
,  // measure 204
0002
0013
1100
1001
,  // measure 205
0010
0000
0100
0010
0001
0010
0100
0000
,  // measure 206
2000
3001
0110
1100
,  // measure 207
0001
0000
0010
0001
1000
0001
0010
0000
,  // measure 208
0200
1300
0011
0110
,  // measure 209
1000
0000
0001
1000
0100
1000
0001
0000
,  // measure 210
0020
0130
1001
0011
,  // measure 211
0100
0000
1000
0100
0010
0100
1000
0000
,  // measure 212
0020
1030
0110
0001
,  // measure 213
1001
0100
1001
0010
,  // measure 214
0001
1000
0010
0000
1000
0100
0001
0000
,  // measure 215
1000
0001
0010
0000
0001
1000
0200
0000
,  // measure 216
1000
1000
0001
0301
,  // measure 217
1001
0110
1001
0100
,  // measure 218
1000
0100
0001
0000
0100
1000
0020
0000
,  // measure 219
0001
0031
1001
1001
,  // measure 220
1000
0100
1000
0100
0001
0100
0001
0100
,  // measure 221
1000
0001
1000
0001
1000
0100
1000
0100
,  // measure 222
0010
0001
1000
0100
0010
0001
0010
1000
,  // measure 223
0010
0001
0100
0001
0010
1000
0001
0010
,  // measure 224
0100
0001
1000
0001
0100
1000
0010
1000
,  // measure 225
0100
0001
0010
0001
0100
1000
0010
1000
,  // measure 226
0100
0001
0010
1000
0001
0100
1000
0010
,  // measure 227
0100
0001
1000
1000
0100
0000
1001
0000
,  // measure 228
0001
0001
0001
0000
0001
0100
1000
0000
,  // measure 229
1000
1000
1000
0000
1000
0100
0001
0000
,  // measure 230
0001
0001
0001
0000
0001
0100
1000
0000
,  // measure 231
0010
0100
0001
1000
0100
0010
0100
0000
,  // measure 232
1000
0101
0001
1100
,  // measure 233
0020
0031
1100
0101
,  // measure 234
0011
0001
1001
0101
,  // measure 235
0002
1003
0202
0000
,  // measure 236
0303
0000
0000
0000
;

//---------------dance-single - ----------------
#NOTES:
     dance-single:
     :
     Challenge:
     9:
     0.598,0.750,0.416,0.019,0.181:
0000
0000
0000
0000
,
0000
0000
0000
0000
,
0000
0000
0000
0000
,
0000
0000
0000
0000
,
0000
0000
0000
0000
,
0000
0000
0000
0000
,
0000
0000
0000
0000
,
0001
0100
1000
0100
,
0010
0010
1000
1000
0001
0001
0100
0100
,
0000
0000
0010
0000
1000
0001
0000
0000
,
0010
0000
1000
0100
0010
0000
0001
0100
,
1000
0010
0001
0100
,
1000
0100
1000
0100
1000
0100
1000
0100
,
0000
0000
0010
0000
0001
1000
0000
0000
,
0010
0000
0001
0100
0010
0000
1000
0100
,
0001
0010
1000
0100
,
0001
0100
0001
0100
0001
0100
0001
0100
,
0000
1000
0100
0010
0001
0000
0001
0000
,
0010
0000
1000
0000
0100
0010
0000
0000
,
0000
0001
0100
0010
1000
0000
1000
0000
,
0100
0001
0010
1000
,
0000
1000
0100
0010
0001
0000
0001
0000
,
0010
0000
1000
0000
0100
0010
0000
0000
,
0001
0000
0001
0000
0010
1000
0100
0000
,
0100
0100
0010
0010
1000
1000
0001
0001
,
1000
0001
1000
0001
,
0001
0001
1000
0100
0001
1000
0000
0000
,
0001
1000
0001
1000
,
0010
0000
1000
0100
0010
0000
0101
0000
,
1000
0001
1000
0001
,
1000
1000
0001
0100
1000
0001
0000
0000
,
0020
0000
0000
0030
,
0200
0000
0000
0300
,
0001
1000
0001
1000
,
1000
0100
1000
0100
1000
0100
1000
0100
,
1000
0001
1000
0001
,
0001
0010
0001
0010
0001
0010
0001
0010
,
0001
1000
0001
1000
,
0001
0001
1000
0100
0001
1000
0000
0000
,
0020
0000
0000
0030
,
0200
0000
0000
0300
,
0010
0010
0010
0010
,
0010
0010
0100
0100
1000
0000
0110
0000
,
0001
1000
0001
1000
0001
0000
1010
0000
,
1000
0001
1000
0001
1000
0000
0001
1000
,
0001
1000
0010
1000
1001
0000
0110
0000
,
1010
0101
1001
1010
,
1000
0001
1000
0001
1000
0000
0011
0000
,
0001
1000
0001
1000
0001
0000
1100
0000
,
1000
0001
1000
0001
1000
0001
0100
0001
,
1000
0001
1000
0001
1000
0001
1001
0000
,
0010
0000
0100
0000
0001
1000
0000
0001
1000
0000
0010
0000
0101
0000
0000
0000
,
0100
0000
0010
0000
1000
0001
0000
1000
0001
0000
0100
0000
0110
0000
0000
0000
,
0010
0000
0100
0000
0001
1000
0000
0001
1000
0000
0010
0000
1000
0001
0000
1000
,
0001
0000
0100
0000
0001
1000
0000
0001
1000
0000
0010
0000
0110
0000
0000
0001
,
1000
0000
0000
0010
1000
0000
0000
0100
1000
0000
0000
0010
1000
0000
0000
0001
,
1000
0000
0000
0001
0100
0000
0000
0001
0010
0000
0000
0001
1000
0000
0100
0000
,
0001
0100
1000
0010
0001
0010
1000
0100
,
0001
0100
1000
0010
0001
0010
1001
0000
,
1000
1001
0001
0000
0010
1010
1000
0000
,
0001
1001
1000
0000
0010
0110
0100
0000
,
0001
0101
0100
0000
0100
0100
1000
1000
,
0010
0010
0001
0001
0100
0100
1001
0000
,
0001
1000
0001
0100
0010
0000
1001
0000
,
1000
0001
1000
0010
0100
0000
1001
0000
,
0001
1000
0001
0100
0010
0100
0000
1001
,
0000
0101
0000
0010
0001
1000
1001
0000
,
0001
1000
0001
0100
0010
0000
1001
0000
,
1000
0001
1000
0010
0100
0000
1001
0000
,
0001
1000
0001
0100
0010
0100
0000
1001
,
0000
1010
0000
0100
1000
0001
1001
0000
,
1010
0000
0000
0000
0101
0000
0000
0000
1001
0000
0000
0000
0001
0000
0010
0001
,
0000
1000
0100
0000
1000
0010
0000
1000
0001
0000
0100
0000
1001
0000
0000
0000
,
0101
0000
0000
0000
1010
0000
0000
0000
1001
0000
0000
0000
1000
0000
0100
1000
,
0000
0001
0010
0000
0001
0100
0000
0001
1000
0000
0010
0000
1100
0000
0000
0000
,
0010
0100
0101
0000
0010
0100
1100
0000
,
0010
0100
0101
0000
0010
0100
1000
0100
,
0010
0001
0001
0010
0100
1000
1000
0010
,
0100
0001
0001
0100
0010
1000
1001
0000
,
0010
0000
0100
0000
0001
1000
0000
0001
1000
0000
0010
0000
0101
0000
0000
0000
,
0100
0000
0010
0000
1000
0001
0000
1000
0001
0000
0100
0000
0110
0000
0000
0000
,
0010
0000
0100
0000
0001
1000
0000
0001
1000
0000
0010
0000
1000
0001
0000
1000
,
0001
0000
0100
0000
0001
1000
0000
0001
1000
0000
0010
0000
0110
0000
0000
0000
,
1000
0001
1001
0000
0100
0010
0110
0000
,
1000
0010
1010
0000
0100
1000
1000
0100
,
0001
0100
1000
0010
0001
0010
1000
0100
,
0001
0100
1000
0010
0001
0010
1000
0000
,
0001
0000
0000
0000
0010
0100
0000
1000
0000
0010
0100
0001
0101
0000
0000
0000
,
1010
0000
0201
0000
0310
0000
1000
0001
,
0010
0000
0000
0100
0000
1000
0001
1000
0100
1000
0000
0000
0010
0000
0100
0000
,
0001
0010
0011
0000
1100
0000
0001
0010
,
0100
0000
0000
1000
0000
0001
1000
0001
0010
0001
0000
0000
1000
0000
0000
0000
,
0001
0000
0000
0000
0100
0010
0000
0010
0000
0010
0000
0000
1000
0000
0001
0000
,
0100
0000
0000
0010
0000
0100
0001
0100
0010
0100
0000
0000
0010
0000
1000
0000
,
0100
0010
0110
0000
1001
0000
0100
0010
,
1000
0000
0000
0001
0000
1000
0100
1000
0010
1000
0000
0000
0100
0000
0000
1000
,
0000
0000
0010
0000
0000
0001
0000
0000
0100
0000
1000
0000
0101
0000
0000
1100
,
0000
0000
0101
0000
0000
0010
0100
0000
1000
0000
0100
0000
0011
0000
0000
1010
,
0000
0000
0011
0000
0000
1000
0010
0000
0100
0000
0001
0000
1100
0000
0000
0101
,
0000
0000
1100
0000
0000
0010
1000
0000
0100
0000
0010
0000
0001
0100
0000
0100
,
0010
0000
0010
1000
0000
1000
0001
0000
0000
0000
0000
0000
1010
0000
0000
1100
,
0000
0000
1001
0000
0000
0100
0010
0000
1000
0000
0001
0000
0011
0000
0000
0101
,
0000
0000
1001
0000
0000
0010
0100
0000
0010
0000
0001
0000
1100
0000
0000
0101
,
0000
0000
1100
0000
0000
0001
1000
0000
0010
0000
0100
0000
0001
0010
0000
0010
,
0100
0000
0100
1000
0000
1000
0001
0000
0000
0000
0000
0000
1000
0000
0000
0010
,
0000
0000
0110
0000
0000
1000
0000
0000
0100
0000
0010
0000
0001
0000
0000
1000
,
0000
0000
1100
0000
0000
0001
0000
0000
0100
0000
0010
0000
1000
0000
0000
0010
,
0000
0000
0110
0000
0000
0001
0000
0000
1000
0000
0010
0000
0100
0000
0000
0001
,
0000
0000
0012
0000
0000
0000
1000
0000
1003
0000
0000
0000
0010
0000
0000
1000
,
0000
0000
1100
0000
0000
0010
0000
0000
0001
0000
0100
0000
0010
0000
0000
0100
,
0000
0000
0101
0000
0000
0010
0000
0000
0100
0000
0010
0000
1000
0000
0000
0100
,
0000
0000
1001
0000
0000
0010
0000
0000
0100
0000
0001
0000
0100
0000
0000
0010
,
0000
0000
0110
0000
0000
0000
0000
0000
0000
0000
0000
0000
0000
1000
0100
0010
,
0001
0000
0000
0001
0010
0100
1000
0000
0000
0100
0010
0100
0000
1000
0010
0100
,
0001
0100
0010
0000
0000
0100
0001
0100
0010
0100
0000
0000
0000
0001
0100
0010
,
1000
0000
0000
1000
0010
0100
0001
0000
0000
0100
0010
0100
0000
0001
1000
0001
,
0010
0010
0010
0010
0011
0011
1001
0000
,
1000
0100
0010
0000
0110
0000
0011
0000
,
0101
0000
0000
0000
1100
0000
0000
0000
1010
0000
0000
0000
0010
0100
0000
0000
,
0100
0001
0000
0000
0001
1000
0000
0000
1001
0000
0000
0000
0110
0000
0000
0000
,
0011
0000
1010
0000
1001
0100
1001
0000
,
0001
1000
0100
0000
0110
0000
1100
0000
,
1010
1001
0000
1001
0101
0001
0011
0100
,
0010
1010
0100
0010
1100
1000
0010
0101
,
0001
0010
0100
0010
0110
1001
0000
0000
,
0011
0000
1100
0000
0001
1000
0100
0000
,
1000
0000
0001
0000
1000
0001
0100
0000
,
0010
0000
0010
0000
0010
1000
0100
0000
,
1000
0001
0100
0000
1000
0100
0001
0000
,
1001
0000
0101
0000
0010
0010
0010
0000
,
1000
0001
0100
0000
0110
0000
0101
0000
,
0010
1000
0001
0100
0010
1000
0001
0100
,
0010
0010
0010
0000
1000
0001
0100
0000
,
1001
0000
0110
0000
0001
1000
0100
0000
,
0010
1000
0100
0001
0100
1000
0001
0001
,
0001
0000
1001
0000
0010
1000
0100
0000
,
0001
0100
0010
1000
0100
0010
0001
0001
,
0001
0000
1100
0000
0010
1000
0100
0000
,
0010
0100
0001
1000
0100
0010
0001
1000
,
0100
0000
0101
0000
0010
1000
0100
0000
,
0001
1000
0100
0001
0100
1000
0001
0000
,
0001
0000
1000
0000
0010
0100
0000
0001
0000
1000
0000
0000
0000
0000
0000
0000
,
0001
0000
1000
0000
1000
0100
0000
0010
0000
0000
0000
0000
0000
0000
0000
0000
,
1000
0000
0001
0000
0001
1000
0000
0010
0000
0100
0000
0000
0000
0000
0000
0000
,
1000
0000
0010
0000
1000
0100
0000
0010
0000
0000
0000
0000
0000
0000
0000
0000
,
0001
0000
1000
0000
0100
0010
0000
0001
0000
0100
0000
0000
0000
0000
0000
0000
,
0010
0000
0010
0000
0001
1000
0000
0001
0000
0000
0000
0000
0000
0000
0000
0000
,
0010
0000
0010
0000
0001
1000
0000
0001
0000
1000
0000
0000
0000
0000
0000
0000
,
0010
0100
1000
0001
0100
0010
1000
0100
,
0110
0000
1001
0000
0010
0010
0010
0000
,
0100
0000
1001
0000
0001
1000
0100
0000
,
0010
1000
0010
1000
0001
0101
0101
0000
,
0010
1000
0100
0000
1001
0100
0010
0000
,
0010
0001
0010
0001
1000
1100
1100
0000
,
0001
1000
0100
0000
1001
0000
0101
0000
,
1001
0110
1001
0010
,
1001
0100
0010
0000
1001
0100
0010
0000
,
0001
0100
0001
0100
0010
1000
0100
0000
,
0001
0000
1000
0000
0001
0000
0110
0001
,
1000
0100
1000
0100
0010
0001
0100
0000
,
0001
0000
1000
0000
0001
0000
1001
0100
,
0010
0001
0010
0001
1000
0010
0100
0000
,
1001
0000
0110
0000
1001
0100
0010
0000
,
0001
1000
0100
0010
0001
0001
0100
0000
,
1000
0001
0100
1001
,
0010
1000
0100
0001
0100
0001
0100
1000
,
0001
0100
0001
0100
0010
1000
0100
1000
,
0020
0000
0000
0000
,
0030
0000
0000
0000
,
0001
0001
0100
0100
1000
0100
0010
0001
,
1000
1000
0100
0100
0010
0001
0100
0000
,
0010
1000
0100
0000
0010
0001
0100
0000
,
1000
0001
0100
0000
1000
0001
1000
0000
,
1000
0100
0010
0001
0100
0001
1000
0010
,
1000
0100
0010
0001
0100
0001
1000
0000
,
0100
0010
0100
1000
0100
0010
0100
1000
,
0100
0001
0100
1000
0100
0001
0100
0000
,
0010
1001
0100
1001
,
0100
0001
0100
0001
0100
0001
0100
0000
,
0010
0000
0001
0010
0100
1000
0100
0000
,
1000
0000
0010
0000
0001
1000
0100
0000
,
1010
0000
1010
0000
0100
1000
0100
0000
,
0010
0010
0100
0100
1100
0000
0011
0000
,
0010
0000
0010
0100
1000
0000
0010
1000
,
0001
0010
0100
1000
0001
0000
1001
0000
,
1001
0000
0101
0000
0010
0001
0100
0000
,
1001
0000
1100
0000
0010
1000
0100
0000
,
0010
1000
0010
0000
0100
0001
0100
0000
,
0010
1000
0010
1000
0001
0100
0001
0000
,
1000
0100
1000
0100
0100
1000
0010
0100
,
0001
0001
1000
0100
0100
0100
1000
0000
,
0100
0010
0001
0100
0010
0100
0001
0010
,
0100
0010
0001
0100
0001
0000
0000
0000
,
0010
1000
0100
1000
0100
0010
0001
0010
,
0001
0100
0010
0100
0010
1000
0100
1000
,
0010
1000
0001
0010
0001
1000
0100
0010
,
0001
0100
0010
1000
0001
0100
1000
0100
,
0010
0100
0001
0010
0100
1000
0010
0100
,
0001
1000
0100
0010
0001
0100
0010
1000
,
0100
0001
0100
1000
0100
0010
0001
0010
,
1000
0010
0001
1000
0010
1000
0001
0000
,
0010
0000
0001
0001
,
0000
1000
1000
1000
,
0010
0000
0000
1000
0000
0000
0100
0000
,
0000
0010
0000
0001
0000
0100
0000
0010
,
0000
1000
0000
0000
0100
0000
0000
0001
,
0000
0000
0010
0000
0000
0100
0100
0010
,
0010
0000
1000
0000
0000
0100
0000
1000
,
0000
0000
0001
0001
1000
0100
0100
0000
,
0001
0000
0000
0010
0000
0000
1000
0000
,
0000
0100
0000
0000
0010
0100
0100
0000
,
1000
0100
1000
0001
0100
0010
0100
0000
,
0001
0010
0001
0100
0010
1000
0100
0000
,
0010
1000
0010
0100
0010
0001
0010
0100
,
0010
1000
0010
0100
0010
0001
0010
0000
,
1000
0001
0100
0010
1000
0001
0100
0010
,
1000
0001
0100
0010
1000
0001
0100
0000
,
0001
0001
1000
0001
0001
0001
1000
0001
,
0001
0001
1000
0001
1000
1000
0001
0000
,
0010
0100
0001
0100
0010
0100
0001
0100
,
1000
0010
0001
0010
1000
0010
0001
0000
,
1000
0100
1000
0100
0010
0100
0010
0100
,
0001
0100
0001
0100
0010
0100
0010
0000
,
0100
1000
0010
0001
0010
1000
0100
0001
,
0100
1000
0100
0010
0001
0100
0010
0000
,
0001
0001
1000
0000
0010
1000
0001
0000
,
1000
0010
0100
0001
0100
0100
0001
0000
,
1000
0100
0010
0001
1000
0100
0010
0000
,
0001
0010
0100
1000
0001
0010
0100
0000
,
1000
0010
1000
0010
1000
0100
1000
0000
,
1000
0000
0100
0000
0001
0100
1000
0000
,
0011
0000
1010
0000
0001
0010
1000
0000
,
1100
0000
0101
0000
1000
0100
0001
0000
,
0001
0001
1000
0000
0001
1000
1000
0000
,
1000
0001
0100
0000
1000
0000
0000
0000
;
