#TITLE:Spring Break Mix;
#SUBTITLE:(DDRMAX 2);
#ARTIST:Tony the TGR;
#TITLETRANSLIT:;
#SUBTITLETRANSLIT:;
#ARTISTTRANSLIT:;
#CREDIT:;
#BANNER:DDRMAX2.png;
#BACKGROUND:DDRMAX2-bg.png;
#LYRICSPATH:;
#CDTITLE:./CDTITLES/DANCE DANCE REVOLUTION MAX 2.PNG;
#MUSIC:DDRMAX2.mp3;
#OFFSET:-1.309;
#SAMPLESTART:228.930;
#SAMPLELENGTH:24.000;
#SELECTABLE:YES;
#BPMS:0.000=190.000,216.000=180.000,232.000=170.000,248.000=160.000,471.000=165.000,648.000=155.000,656.000=150.000,664.000=145.000,672.000=140.000,680.000=136.000,871.000=140.000;
#STOPS:471.000=1.089
,875.000=0.900
,1009.000=0.840
;
#BGCHANGES:;

//---------------dance-single - ----------------
#NOTES:
     dance-single:
     :
     Easy:
     4:
     0.236,0.290,0.150,0.081,0.000:
0000
0000
0000
0000
,
0000
0000
0000
0000
,
0000
0000
0000
0000
,
0000
0000
0000
0000
,
0001
0000
0001
0000
,
0001
0000
0001
0000
,
1001
0000
1001
0000
,
0010
1000
0100
0000
,
1000
0000
1000
0000
,
1000
0000
1000
0000
,
1001
0000
1001
0000
,
0010
0001
0100
0000
,
1001
0000
1001
0000
,
0010
1000
0100
0000
,
1000
0000
0100
0000
,
1000
0000
1001
0000
,
0001
0000
0100
0000
,
1001
0000
1001
0000
,
0001
0000
0100
0000
,
0001
0000
1001
0000
,
1000
0000
0100
0000
,
0010
0000
0001
0000
,
1000
0000
0100
0000
,
1000
0000
1001
0000
,
0001
0000
0100
0000
,
1001
0000
1001
0000
,
0001
0000
0100
0000
,
0001
0000
1001
0000
,
0010
0000
0010
0000
,
0100
0000
0100
0000
,
1000
2000
0000
0000
,
0001
0000
0001
3000
,
0010
0000
0001
0000
,
0100
0000
0000
0000
,
0001
0002
0000
0000
,
1000
0000
1000
0003
,
0010
0000
1000
0000
,
0100
0000
0100
0000
,
1001
0000
1000
0000
,
0001
0000
1001
0000
,
0010
0000
0010
0000
,
0100
0000
0010
0000
,
1001
0000
1000
0000
,
0001
0000
1001
0000
,
0010
0000
0010
0000
,
0100
0000
0100
0000
,
0110
0000
0010
0000
,
1000
0000
0100
0000
,
0110
0000
0010
0000
,
0001
0000
0100
0000
,
0110
0000
0010
0000
,
1000
0000
0100
0000
,
0110
0000
0010
0000
,
0010
0001
0100
0000
,
2000
0000
0000
0000
,
0000
3000
1000
0000
,
0002
0000
0000
0000
,
0000
0003
0001
0000
,
2000
0000
0000
0000
,
0000
3000
1000
0000
,
0002
0000
0000
0003
,
0001
0100
1000
1000
,
0100
0100
0001
0000
,
0100
0100
1000
0000
,
0100
0100
0001
0000
,
0100
0000
1000
0000
,
0100
0100
0001
0000
,
0100
0000
1000
0000
,
0100
0000
0001
0001
,
0100
0100
1000
1000
,
0100
0100
0010
0001
,
0010
0001
0010
0001
,
0100
0100
0010
0000
,
0010
0000
0010
0010
,
0010
1001
0001
0000
,
0001
0000
1000
0000
,
1000
0000
0010
0000
,
0010
0000
0100
0000
,
0100
0000
0001
0000
,
1000
1000
0001
0000
,
1000
1000
0001
0000
,
0001
0000
0001
0001
,
0001
0001
2000
0000
,
0000
3000
0100
0000
,
0000
0000
0002
0000
,
0000
0003
0100
0000
,
0000
0000
0010
0000
,
0010
0000
0100
0000
,
0100
0000
0001
0001
,
0100
0100
0010
0010
,
1000
1000
0001
0000
,
1000
0000
0010
0010
,
0010
0010
1000
0000
,
0001
0000
0100
0100
,
0100
0100
0010
0000
,
0010
0000
0100
0000
,
0100
1001
0001
0000
,
0001
0000
1000
1000
,
0100
1001
0001
0000
,
1000
0000
0100
0000
,
1000
0000
0001
0000
,
0100
0000
0010
0000
,
0100
0000
0001
0001
,
0001
1000
1000
1000
,
0001
0000
1000
0000
,
0001
0000
1000
1000
,
1000
0000
1001
0000
,
0100
0000
1001
0000
,
0100
0000
0001
0000
,
1000
0000
0010
0100
,
0100
0100
0002
0000
,
0003
2000
0000
3000
,
0010
0000
0010
0000
,
0010
0000
0100
0100
,
0001
0001
1000
0000
,
0000
0000
0001
0000
,
0000
0000
0100
0000
,
0100
0000
0010
0010
,
0000
0000
0100
0000
,
0010
0000
0010
0000
,
0100
0000
0100
0000
,
0010
0000
0010
0100
,
0000
0100
0000
0000
,
0001
0000
0001
0000
,
1000
0000
1000
0000
,
0001
0000
0001
1000
,
0000
1000
0000
0000
,
0010
0000
0100
0000
,
0010
0000
0100
0000
,
0010
0000
0100
0010
,
0000
0100
0000
0000
,
0010
0000
1000
0000
,
0001
0000
0100
0000
,
0010
0000
1000
0001
,
0000
0100
0000
0020
,
0000
0000
0000
0000
,
0000
0000
0000
0000
,
0000
0000
0030
1000
,
0000
1000
0000
0001
,
0000
0001
0000
1000
,
0000
1000
0000
0001
,
0000
0001
1001
0010
,
0000
0010
0000
0100
,
0000
0100
0000
0010
,
0000
0010
0000
0100
,
0000
0100
0110
1000
,
0000
0001
0000
0010
,
0000
0100
0000
1000
,
0000
0010
0000
0100
,
0000
0001
1001
0010
,
0000
1001
0000
0100
,
0000
1001
0000
0010
,
0000
1001
0000
0100
,
0000
1001
0000
0020
,
0000
0000
0030
2000
,
0000
0000
3000
0002
,
0000
0000
0003
0200
,
0000
0000
0300
0020
,
0030
2000
3000
0002
,
0003
0200
0300
0020
,
0030
2000
3000
0002
,
0003
0200
0300
2002
,
0000
0000
3003
0110
,
0000
1001
0000
0010
,
0100
1001
0000
1001
,
0000
0110
0000
1000
,
0001
0110
0000
0011
,
0000
1001
0000
0010
,
0001
1001
0000
1010
,
0000
1001
0000
0010
,
1000
0001
0000
0001
,
0000
0010
0000
0100
,
0000
0010
0000
0001
,
0000
0100
0000
1000
,
0000
0100
0000
0001
,
0000
0100
0000
0101
,
0000
1000
0000
1100
,
0000
0001
0000
0100
,
0001
0100
0000
0001
,
0000
0010
0000
0100
,
0000
0010
0000
0001
,
0000
0100
0000
1000
,
0000
0100
0000
0001
,
0000
0100
0000
0101
,
0000
1000
0000
1100
,
0000
0010
0000
1001
,
0020
0000
0000
0000
,
0000
0000
0000
0230
,
0000
0000
0000
0000
,
0000
0000
0300
0001
,
0020
0000
0000
0000
,
0000
0000
0030
0001
,
0200
0000
0000
0000
,
0000
0300
0010
1001
,
0000
0010
1000
0100
,
0000
0010
0001
0100
,
0000
0010
1000
0100
,
0000
0010
0001
0100
,
0000
1000
1000
0100
,
0000
0001
0001
0100
,
0000
1000
1000
0100
,
0000
0001
0010
1001
,
0000
0010
1000
0100
,
0000
0010
0001
0100
,
0000
0010
1000
0100
,
0000
0010
0001
1000
,
0000
0100
1000
0010
,
0000
0100
0001
0010
,
0000
0100
1000
0010
,
0000
0100
0000
0110
,
0000
0001
0000
1000
,
0000
1000
0000
0001
,
0000
0011
0000
1000
,
0000
1010
0000
0001
,
0000
0011
1000
0100
,
0000
1010
0001
0100
,
0000
1000
0001
1000
,
0000
0010
0000
1001
,
0000
0100
0000
0010
,
0000
0001
0001
1000
,
1000
0001
1000
0100
,
0000
1000
1000
0001
,
0001
1000
0001
0100
,
0000
0010
0010
0100
,
0100
0010
1000
0100
,
0000
0010
0010
0100
,
0100
0010
0001
0100
,
0000
2002
0000
0000
,
3003
0000
0010
0000
,
0010
0000
1000
0100
,
0001
0000
0010
0000
,
0010
0000
0001
0100
,
1000
0000
0010
0000
,
0100
0000
0001
1000
,
0100
0000
0010
0000
,
0100
0000
1000
0001
,
0100
0010
0010
0000
,
1000
0000
0001
0000
,
0010
0100
0100
0000
,
1000
0000
0001
0000
,
0001
1000
1000
0000
,
0010
0000
0010
0000
,
1000
0001
0001
0000
,
0010
0000
0010
0000
,
0010
0000
0001
0000
,
0001
0000
1000
0010
,
0001
0000
0010
0000
,
0100
0000
0010
1000
,
0001
0000
0001
0000
,
1000
0000
0010
1000
,
0100
0000
0010
0000
,
0100
0000
1000
0100
,
0001
0000
0000
1000
,
0000
0001
0000
0010
,
0001
1000
0000
0010
,
0000
0100
0000
0010
,
1000
0100
0000
0010
,
0000
0001
0000
1000
,
0100
0001
0000
0100
,
0000
0100
0000
1000
,
0001
0010
0000
2002
,
0000
0000
3003
0000
;

//---------------dance-single - ----------------
#NOTES:
     dance-single:
     :
     Medium:
     6:
     0.447,0.516,0.348,0.138,0.032:
0000
0000
0000
0000
,
0000
0000
0000
0000
,
0000
0000
0000
0000
,
0000
0000
0000
0000
,
1000
1100
0001
1100
,
0001
0101
1000
0101
,
0010
1001
0100
1001
,
0010
0001
1000
1000
,
0001
0101
1000
0101
,
1000
1100
0001
1100
,
0010
1001
0100
1001
,
0010
1000
0001
0001
,
0010
1001
1000
1100
,
0001
0101
0100
0100
,
0010
0001
1000
0010
,
0100
0001
1000
0101
,
0010
1000
0001
0010
,
0100
1000
0001
1100
,
0010
0001
0100
1000
,
0100
0001
0010
1000
,
0001
0101
1000
1100
,
0001
0101
1000
1100
,
0010
1000
0001
0010
,
0100
1000
0001
1100
,
0010
0001
1000
0010
,
0100
0001
1000
0101
,
0010
1000
0100
0001
,
0100
1000
0010
0001
,
0010
0010
0010
0010
,
0100
0100
0100
0100
,
1000
0001
0010
0020
,
0100
0100
0200
0330
,
1000
1100
0001
0101
,
0010
1001
0100
1000
,
0001
1000
0100
0200
,
0010
0010
0020
0330
,
1100
0001
0101
1000
,
0010
1000
0100
0000
,
1000
0010
0100
1000
,
0100
0001
0100
0010
,
0100
0100
0100
1001
,
0100
1001
0100
1001
,
0010
0001
0100
1000
,
0001
0010
1000
0100
,
1001
0100
1001
0100
,
1100
0101
1000
0100
,
1000
0010
0100
1000
,
0100
0001
0100
0010
,
0101
1000
1100
0001
,
0010
0001
0100
1001
,
0010
0001
0100
1000
,
0001
0010
1000
0100
,
0010
1001
0100
1001
,
0010
1000
0100
0000
,
2200
0000
3300
0000
0001
0100
0000
1000
,
0000
0001
0000
1000
0100
0000
0000
0000
,
0202
0000
0303
0000
1000
0100
0000
0001
,
0000
1000
0000
0001
0100
0000
0000
0000
,
2200
0000
3300
0000
0001
0100
0000
1000
,
0000
0001
0000
1000
0100
0000
0100
0000
,
0010
0001
0100
1000
,
1100
0101
1000
0100
,
0010
1000
0010
0000
0010
1000
0010
0000
,
0001
0100
0001
0000
0001
0100
0001
0000
,
2000
3100
0002
0103
,
2000
0000
3000
1001
,
0010
0010
2000
3100
,
0010
0010
0002
0103
,
0010
1000
0010
0000
0001
0100
0001
0000
,
1001
0100
0010
1001
,
0010
1000
0100
0001
,
0001
1000
0100
0000
0010
0000
0010
0000
,
0100
1000
1000
0000
0100
0001
0001
0000
,
0010
1000
0010
1000
0010
0000
1001
0000
,
1000
0000
0100
0000
0001
0010
0100
0000
,
0001
0000
0100
0000
1000
0010
0100
0000
,
0001
0010
0100
0000
0001
0010
0100
0000
,
1000
0010
0100
0000
1000
0010
0100
0000
,
0002
0103
2000
3100
,
0002
0103
2000
3100
,
0010
0010
0010
0010
,
0001
0100
0010
1001
,
0220
0000
0000
0330
,
1001
0202
0000
0303
,
0001
0001
0100
0100
,
0010
0010
1000
0101
,
1001
0000
0100
0000
0010
1000
0100
0000
,
0001
0100
0001
0100
,
2000
3100
0002
0103
,
2000
3100
0001
0101
,
0010
1000
0010
0001
,
0010
1000
0001
1001
,
1000
0100
0001
0100
,
1000
0100
0001
0101
,
0001
0001
1000
1000
,
0010
0010
0100
0101
,
0002
0003
2000
3000
,
0010
0010
1001
1001
,
0010
1000
0010
0000
0010
1000
0010
0000
,
0001
0100
0001
0000
0001
0100
0001
0000
,
2000
3100
0002
0103
,
2000
3100
0002
0103
,
1001
0000
0110
1001
,
1001
0000
0100
0100
,
1001
0100
0010
1001
,
0010
0010
0010
1001
,
2000
3100
1002
0103
,
2001
3100
1002
0103
,
0010
0000
1000
0000
,
0001
0001
0001
0000
,
1001
0000
0110
1001
,
1001
0000
0100
0100
,
0010
0100
0010
0100
,
0100
0000
0010
0000
1000
0001
0100
0000
,
2002
0000
0000
3003
0000
0010
0100
2000
,
0000
0000
0000
3000
0000
0010
0100
0002
,
0000
0000
0000
0003
0000
0001
0000
0100
,
0000
1000
0000
0100
0000
0010
0001
0000
,
0000
0000
0000
0100
0000
0100
0000
0001
,
0001
0000
0000
1000
0000
1000
0000
0001
,
0001
0000
0000
0010
0000
0010
0000
0001
,
0001
0011
1001
1010
,
1001
0000
0000
0100
0000
0100
0000
1000
,
1000
0000
0000
0001
0000
0001
0000
1000
,
1000
0000
0000
0010
0000
0010
0000
1000
,
1000
1100
1001
0101
,
1001
0000
0000
0100
0000
1000
0000
0001
,
0001
0000
0000
1000
0000
0010
0000
0001
,
0001
0000
0000
0010
0000
0100
0000
0001
,
0001
0011
0101
0110
,
1010
0000
0000
0100
0000
0001
0000
1000
,
1000
0000
0000
0001
0000
0010
0000
1000
,
1000
0000
0000
0010
0000
0100
0000
1000
,
1000
1010
1100
0110
,
0011
2002
0000
0000
,
0000
0000
0000
0000
,
0000
0000
0000
0000
,
3003
0000
0000
0000
0010
0000
0000
0000
0010
0000
0000
0000
0010
0000
0000
0010
,
1000
0000
0000
1000
0001
0000
0000
0000
0001
0000
0000
0000
0001
0000
0000
0001
,
0100
0000
0000
0100
0010
0000
0000
0000
0010
0000
0000
0000
0010
0000
0000
0010
,
1000
0000
0000
1000
0001
0000
0000
0000
0001
0000
0000
0000
0001
0000
0000
0001
,
0100
0000
0000
0100
0010
0000
0000
0000
0010
0000
0000
0000
0010
0000
0000
0010
,
0100
0000
0000
0100
0001
0000
0000
0000
0001
0000
0000
0000
0001
0000
0000
0001
,
1000
0000
0000
1000
0100
0000
0000
0000
0100
0000
0000
0000
0100
0000
0000
0100
,
0010
0000
0000
0010
0001
0000
0000
0000
0001
0000
0000
0000
0001
0000
0000
0001
,
1000
0000
0000
1000
0001
0000
0000
0000
0001
0000
0000
0000
1000
0000
0000
0000
,
1000
0010
0010
0100
,
0100
0001
0001
1000
,
1000
0010
0010
0100
,
0100
0010
0010
1100
,
0000
0100
0100
0011
,
0000
0001
1001
1000
,
1001
0100
0100
1001
,
0000
0000
0010
0000
0000
1000
0000
0000
,
0100
0000
0001
0000
0001
0000
0000
1000
,
0000
1000
0010
0000
1000
0000
0100
0000
,
0100
0000
0001
0000
0001
0000
0000
1000
,
0000
1000
0100
0000
0100
0000
0010
0001
,
0010
0000
0001
0000
0001
0000
1000
0010
,
1000
0000
0010
0000
0100
0000
0010
1000
,
0100
0000
0100
0000
0010
0000
0100
1000
,
0010
0000
0101
0000
0000
1001
0000
0000
,
1100
0000
0000
0000
0010
0000
0000
0000
0010
0000
0000
0000
0010
0000
0000
0010
,
0001
0000
0000
0001
1000
0000
0000
0000
1000
0000
0000
0000
1000
0000
0000
0000
,
1000
0000
0000
0001
0100
0000
0000
0000
0100
0000
0000
0000
0100
0000
0000
0100
,
0001
0000
0000
0001
1000
0000
0000
0000
0001
0000
0000
0000
0001
0000
0000
0000
,
0001
0000
0000
0000
0100
0000
0000
0000
0100
0000
0000
0000
0100
0000
0000
0100
,
1000
0000
0000
1000
0001
0000
0000
0000
1000
0000
0000
0000
1000
0000
0000
0000
,
1000
0000
0000
0001
0010
0000
0000
0000
0010
0000
0000
0000
0010
0000
0000
0010
,
0001
0000
0000
0001
1000
0000
0000
0000
0001
0000
0000
0000
1001
0000
0000
0000
,
0000
0000
0000
0000
1000
0001
0100
0000
,
0001
0010
0000
0001
0000
1000
0000
0010
,
0000
0100
0000
0000
0001
0100
0000
0001
,
0000
0010
0000
0001
0000
1000
0000
0100
,
0000
0001
0000
0000
1000
0100
0000
1000
,
0000
0010
0000
1000
0000
0001
0000
0010
,
0000
0002
0000
0000
0100
0000
0000
0000
,
0010
0000
0203
0000
,
0301
0000
0110
0000
1000
0100
0000
1000
,
0000
0010
0000
1000
0000
0001
0000
0010
,
0000
0100
0000
0000
1000
0100
0000
1000
,
0000
0010
0000
1000
0000
0001
0000
0100
,
0000
1000
0000
0000
0001
0100
0000
0001
,
0000
0010
0000
0001
0000
1000
0000
0010
,
0000
2000
0000
0000
0001
0000
0000
0000
,
3010
0000
0000
0000
0100
0000
0010
1000
,
0001
0100
0002
0000
2000
0000
3003
0000
,
0010
0100
0000
0000
0010
0000
0100
0001
,
1000
0100
0000
0100
0000
1000
0000
0001
,
0000
0100
0000
0010
0000
0000
0010
1000
,
0001
0100
0000
0000
1001
0000
0000
0000
,
0010
0100
0000
0000
0010
0000
0100
0001
,
1000
0100
0000
0100
0000
0100
0000
0010
,
0000
0100
0000
0010
0000
0001
0000
1000
,
0000
0000
0000
1000
0100
0000
0010
0100
,
0010
0000
0000
0001
0100
0000
0010
0100
,
0010
0000
0000
1000
0100
0000
0010
0001
,
0100
0000
0000
0001
0100
0000
0010
1000
,
0100
0000
0000
1000
0100
0000
1000
0001
,
0010
0000
0000
0001
0100
0000
0001
1000
,
0010
0000
0000
1000
0100
0000
1000
0002
,
2000
0000
0000
3003
0000
0100
0000
1000
,
0001
1000
0020
0000
0000
0030
0000
0010
,
1000
0001
0000
1000
0000
0100
0000
1000
,
0000
0010
0000
1000
0100
0000
0110
0000
,
0010
0001
0000
0001
0100
0000
0110
0000
,
0010
1000
0000
1000
0100
0000
1001
0000
,
0001
0100
0000
0001
0100
0000
1001
0000
,
1000
0100
0000
0010
0001
0000
0101
0000
,
0010
0100
0000
1000
0100
0001
0000
0010
,
0100
1000
0000
1000
0100
0010
0001
0000
,
0001
0010
0000
0001
0000
0100
0000
0010
,
0000
1000
0000
1000
0100
0000
1000
0100
,
0010
0001
0000
0001
0100
0000
0001
0010
,
0100
1000
0000
0001
0100
0000
0010
0100
,
0010
1000
0000
1000
0100
0000
0001
0100
,
0010
0001
0000
0001
0100
0000
1000
0100
,
0010
1000
0000
1000
0100
0000
1000
0010
,
0100
0001
1000
0010
0100
0001
1000
0000
,
0000
0001
1000
0010
,
0100
1001
0110
0001
,
1000
0010
1000
0010
,
0001
0110
1001
0010
,
1000
0010
1000
0100
,
0001
0110
1001
1000
,
0001
0100
1000
0010
,
0001
1001
0110
1001
,
0110
2002
0000
0000
,
3003
0010
0100
0010
,
0100
0001
0010
0100
,
1000
0001
1000
0001
,
1000
0100
0001
0010
,
1000
0010
0100
0010
,
0100
0001
1000
0010
,
0001
0010
1000
0100
,
0001
0100
1000
0110
,
1001
0110
0110
0001
,
1000
0100
0010
1000
,
0001
0110
0110
0001
,
0010
1000
0100
0001
,
0010
0110
0110
1000
,
0001
0100
0010
1000
,
0001
0110
0110
1000
,
0010
0001
0100
1000
,
0010
1001
0100
0010
,
0100
0001
0100
1000
,
0100
0110
0110
0001
,
1000
0000
0100
0000
0010
0001
0010
0100
,
1000
0110
0110
1000
,
1000
0000
0001
0000
0010
0000
0010
0100
,
0001
0110
0110
0001
,
0010
0000
0100
0000
1000
0001
0010
0100
,
1000
2002
3003
0001
,
0001
1000
1000
0001
,
1000
0000
0001
1000
0100
0000
0010
0000
,
0010
0100
0100
0010
,
0100
1000
0001
0100
0010
0000
0010
0000
,
1000
0100
0001
1001
,
0110
0000
1000
0100
0001
0000
0010
0000
,
0001
0100
1000
0010
,
0001
0010
1000
0010
0001
0000
2002
0000
,
0000
0000
3003
0000
;

//---------------dance-single - ----------------
#NOTES:
     dance-single:
     :
     Hard:
     9:
     0.626,0.742,0.375,0.064,0.266: // measure 1
0000
0000
0000
0000
,  // measure 2
0000
0000
0000
0000
,  // measure 3
0000
0000
0000
0000
,  // measure 4
0000
0000
0000
0000
,  // measure 5
0001
0100
0010
1000
0100
0010
1000
0000
,  // measure 6
0001
0100
0010
1000
0100
0010
1000
0000
,  // measure 7
1000
0001
1000
0000
0011
0000
1000
0000
,  // measure 8
1000
0100
0010
0001
0010
0100
1000
0000
,  // measure 9
1000
0100
0010
0001
0100
0010
0001
0000
,  // measure 10
1000
0100
0010
0001
0100
0010
0001
0000
,  // measure 11
0001
1000
0001
0000
1010
0000
0001
0000
,  // measure 12
0001
0100
0010
1000
0010
0100
0001
0000
,  // measure 13
1000
1100
0001
0101
,  // measure 14
1000
0100
0001
0010
1000
0000
0110
0000
,  // measure 15
1000
1000
0100
0000
0001
0001
0100
0000
,  // measure 16
1000
0100
0001
0100
1000
0010
0001
0000
,  // measure 17
1000
1000
0010
0000
0001
0001
0010
0000
,  // measure 18
1000
0010
0001
0010
1000
0100
0001
0000
,  // measure 19
1000
1000
0100
0000
0001
0001
0100
0000
,  // measure 20
0010
1000
0001
0010
0100
1000
0001
0000
,  // measure 21
1100
1001
0101
1001
,  // measure 22
0010
1000
0100
0001
,  // measure 23
0010
0001
0010
0000
0100
1000
0100
0000
,  // measure 24
1000
0010
0100
1000
0001
0010
0100
0000
,  // measure 25
0010
1000
0010
0000
0100
0001
0100
0000
,  // measure 26
0001
0010
0100
0001
1000
0010
0100
0000
,  // measure 27
0010
0001
0010
0000
0100
1000
0100
0000
,  // measure 28
0010
0001
1000
0010
0100
0001
1000
0000
,  // measure 29
1100
1001
0101
1001
,  // measure 30
0010
0010
0010
0010
,  // measure 31
1000
0000
1100
0000
0001
0100
1000
0000
,  // measure 32
0001
0000
0101
0000
1000
0100
0001
0000
,  // measure 33
0010
0001
0100
0000
0010
0100
0001
0000
,  // measure 34
0010
1000
0100
1000
0010
0100
1000
0000
,  // measure 35
0001
0000
0101
0000
1000
0100
0001
0000
,  // measure 36
1000
0000
1100
0000
0001
0100
1000
0000
,  // measure 37
0010
1000
0100
0000
0010
0100
1000
0000
,  // measure 38
0000
0001
1000
0100
0010
0000
0000
0000
,  // measure 39
1000
0100
0001
0000
1000
0100
0001
0000
,  // measure 40
1000
1100
0001
0101
,  // measure 41
1000
0100
0001
0000
1000
0100
0001
0000
,  // measure 42
0010
1001
0100
1001
,  // measure 43
1000
0100
0001
0000
1000
0100
0001
0000
,  // measure 44
0010
0001
0101
1100
,  // measure 45
1000
0100
0001
0000
1000
0100
0001
0000
,  // measure 46
1100
0101
1100
0101
,  // measure 47
0001
0100
1000
0000
0001
0100
1000
0000
,  // measure 48
0010
0010
1001
0100
,  // measure 49
0001
0100
1000
0000
0001
0100
1000
0000
,  // measure 50
0010
0100
0011
1010
,  // measure 51
0001
0100
1000
0000
0001
0100
1000
0000
,  // measure 52
1100
0001
1100
0001
,  // measure 53
0001
0100
1000
0000
0001
0100
1000
0000
,  // measure 54
0000
1000
0100
0001
0010
0000
0000
0000
,  // measure 55
2010
0000
0001
0001
0001
0001
0000
0100
,  // measure 56
0000
0001
0000
0010
0010
0000
3000
0000
,  // measure 57
0012
0000
1000
1000
1000
1000
0000
0100
,  // measure 58
0000
1000
0000
0010
0010
0000
0003
0000
,  // measure 59
0210
0000
0001
0001
0001
0001
0000
1000
,  // measure 60
0000
0001
0000
1000
1000
0000
0300
0000
,  // measure 61
0220
0000
0000
0330
,  // measure 62
1001
1100
0101
1001
,  // measure 63
0010
1000
0100
0000
0010
0001
0100
0000
,  // measure 64
0001
1000
0100
0000
1000
0001
0100
0000
,  // measure 65
0010
1000
0100
0001
0100
1000
0010
0000
,  // measure 66
0000
1000
0000
0001
0000
0010
1001
0000
,  // measure 67
0010
1000
0001
1000
0100
0001
0100
0000
,  // measure 68
0010
0010
0010
0000
1000
0000
0100
0000
,  // measure 69
0010
0001
0100
0001
1000
0010
0100
0001
,  // measure 70
1000
0010
0001
0010
1000
0100
0001
0000
,  // measure 71
0100
1000
1000
0000
0100
0001
0001
0000
,  // measure 72
1000
0010
0100
0001
0010
0100
1000
0000
,  // measure 73
0010
1000
0101
0000
0001
1000
1100
0000
,  // measure 74
0100
0001
1000
0100
1001
0000
1001
0000
,  // measure 75
1000
0000
0000
0000
0001
0000
0000
0000
0100
0010
0100
0000
0110
0000
0000
0000
,  // measure 76
0010
0000
0000
0000
0100
0000
0000
0000
0001
1000
0001
0000
1001
0000
0000
0000
,  // measure 77
1000
0000
0000
0000
0010
0000
0000
0000
0100
0001
0100
0000
0101
0000
0000
0000
,  // measure 78
1000
0000
0000
0000
0100
0000
0000
0000
0010
0001
0010
0000
0011
0000
0000
0000
,  // measure 79
0100
0000
1000
0001
0000
0000
0100
0000
,  // measure 80
0010
1000
0000
0001
0000
1000
0100
0010
,  // measure 81
0001
0000
1000
0100
0000
1000
0001
0000
,  // measure 82
0010
1000
0100
0000
0010
0001
0100
0000
,  // measure 83
2002
0000
0000
3003
,  // measure 84
1000
1000
1000
1000
,  // measure 85
0010
0000
1000
0000
0001
0000
1000
0100
0000
0010
0000
0001
1000
0000
0100
0000
,  // measure 86
0010
0000
0001
0000
0100
0000
0010
1000
0000
0000
0001
0000
0100
0000
1000
0000
,  // measure 87
1000
0000
0000
0001
0000
0000
0100
0000
0000
0010
0100
0000
0001
0000
1000
0000
,  // measure 88
1000
1000
1000
1000
,  // measure 89
0100
0000
1000
0000
0010
0000
0001
0010
0000
1000
0000
0100
0010
0000
0001
0000
,  // measure 90
0100
0000
0010
0000
1000
0000
0100
0001
0000
0000
0000
0000
0000
0000
0000
0000
,  // measure 91
0010
0100
0001
0000
1000
0001
1000
0000
,  // measure 92
0010
0100
1000
0100
0001
0000
0100
0000
,  // measure 93
1000
0001
1000
0100
0010
0100
0001
0100
,  // measure 94
1000
0010
0001
0010
1000
0000
0001
0000
,  // measure 95
0100
1000
0010
0000
0010
1000
0100
0000
,  // measure 96
0010
0001
0100
0010
1000
0100
1000
0000
,  // measure 97
1000
0010
0100
0000
0001
1000
0100
0000
,  // measure 98
1000
0000
0000
1000
0000
0000
1000
0000
0001
0000
0101
0000
0101
0000
0000
0000
,  // measure 99
1000
0000
0000
0000
1000
0000
0000
0000
0001
1000
0001
0000
0101
0000
0000
0000
,  // measure 100
0001
0000
0000
0000
0001
0000
0000
0000
1000
0001
1000
0000
1100
0000
0000
0000
,  // measure 101
0001
0000
1000
0100
0000
0001
0100
0000
,  // measure 102
0010
0000
0100
0010
0000
1000
0100
0000
,  // measure 103
1000
0000
1000
0001
0000
0000
0010
0000
,  // measure 104
0100
0010
0000
0001
0000
1000
0100
0010
,  // measure 105
0001
0000
1000
1000
0000
0001
0001
0000
,  // measure 106
0000
0010
0000
0100
0000
1000
1000
0000
,  // measure 107
1000
0000
0010
0100
0000
0001
0001
0000
,  // measure 108
0010
0100
1000
0000
0010
0100
0001
0000
,  // measure 109
0010
0000
0100
1000
0000
1000
0010
0000
,  // measure 110
0000
1001
0000
0100
0000
1000
0010
1000
,  // measure 111
0010
0000
1001
1001
0000
0000
0010
0000
,  // measure 112
0110
0110
0000
1000
0000
0001
0100
1000
,  // measure 113
1000
0000
1000
1000
0000
1000
1000
0000
,  // measure 114
0001
0000
0000
0010
0000
0000
0100
0000
1000
0000
0001
0000
0100
0000
0000
0000
,  // measure 115
2020
0000
3030
0000
0100
0010
2002
0000
,  // measure 116
0000
0000
3003
0000
1000
0100
0220
0000
,  // measure 117
0000
0330
0000
1000
0000
1000
0000
1000
,  // measure 118
0000
0100
0000
0100
0001
1000
0100
0000
,  // measure 119
0000
0000
0000
0100
0001
0001
0100
0001
,  // measure 120
0001
0000
0000
1000
0001
0001
1000
0001
,  // measure 121
0001
0000
0000
0010
0001
0001
0010
0001
,  // measure 122
0100
0001
0010
0100
0100
1000
0001
0001
,  // measure 123
0100
0001
0000
0010
1000
1000
0010
1000
,  // measure 124
1000
0000
0000
0001
1000
1000
0001
1000
,  // measure 125
1000
0000
0000
0100
1000
1000
0100
1000
,  // measure 126
0010
1000
0100
0010
0010
0001
1000
1000
,  // measure 127
0010
1000
0000
0100
0010
0010
0100
0010
,  // measure 128
0010
0000
0000
1000
0010
0010
1000
0010
,  // measure 129
0010
0000
0000
0001
0010
0010
0001
0010
,  // measure 130
1000
0010
1000
0001
0001
0010
0100
0100
,  // measure 131
1000
0001
0000
0010
0100
0100
0010
0100
,  // measure 132
0100
0000
0000
0001
0100
0100
0001
0100
,  // measure 133
0100
0000
0000
1000
0100
0100
1000
0100
,  // measure 134
0001
0100
1000
0001
0001
0010
0100
0100
,  // measure 135
1000
0001
2002
0000
0000
0000
0000
0000
,  // measure 136
0000
0000
0000
0000
,  // measure 137
0000
0000
0000
0000
,  // measure 138
3003
0000
0000
0000
0010
0000
0000
0010
1000
0000
0000
1000
0001
0000
0000
0001
,  // measure 139
0100
0000
0000
0100
0010
0000
0000
0010
1000
0000
0000
1000
0001
0000
0000
0001
,  // measure 140
0100
0000
0000
0100
0010
0000
0000
0010
1000
0000
0000
1000
0001
0000
0000
0001
,  // measure 141
0100
0000
0000
0100
0010
0000
0000
0010
1000
0000
0000
1000
0001
0000
0000
0001
,  // measure 142
0100
0000
0000
0100
0010
0000
0000
0010
1000
0000
0000
1000
0100
0000
0000
0100
,  // measure 143
0010
0000
0000
0010
0001
0000
0000
0001
0100
0000
0000
0100
0010
0000
0000
0010
,  // measure 144
1000
0000
0000
1000
0010
0000
0000
0010
1000
0000
0000
1000
0100
0000
0000
0100
,  // measure 145
0010
0000
0000
0010
0001
0000
0000
0001
0100
0000
0000
0100
0010
0000
0000
0010
,  // measure 146
1000
0000
0000
0000
0000
0000
1000
0000
0010
0000
0000
0000
0000
0000
0000
0010
0100
0000
0000
0000
0000
0000
0100
0000
0001
0000
0000
0000
0000
0000
0000
0001
,  // measure 147
1000
0000
0000
0000
0000
0000
1000
0000
0010
0000
0000
0000
0000
0000
0000
0010
0100
0000
0000
0000
0000
0000
0100
0000
0001
0000
0000
0000
0000
0000
0000
0001
,  // measure 148
1000
0000
0000
0000
0000
0000
1000
0000
0010
0000
0000
0000
0000
0000
0000
0010
0100
0000
0000
0000
0000
0000
0100
0000
0001
0000
0000
0000
0000
0000
0000
0001
,  // measure 149
1000
0000
0000
0000
0000
0000
1000
0000
0010
0000
0000
0000
0000
0000
0000
0010
0100
0000
0000
0000
0000
0000
0100
0000
0001
0000
0000
0000
0000
0000
0000
0001
,  // measure 150
1000
0000
0000
0000
0000
0000
1000
0000
0001
0000
0000
1000
0000
0000
0001
0000
1000
0000
0000
0000
0000
0000
0000
0000
1001
0000
0000
0000
0000
0000
0000
0000
,  // measure 151
0001
0000
0000
0000
0000
0000
1000
0000
0010
0000
0000
0100
0000
0000
0010
0000
0100
0000
0000
0000
0000
0000
0000
0000
0110
0000
0000
0000
0000
0000
0000
0000
,  // measure 152
0010
0000
0000
0000
0000
0000
0100
0000
0001
0000
0000
1000
0000
0000
0001
0000
1000
0000
0000
0000
0000
0000
0000
0000
0010
0000
0000
0100
0000
0000
0010
0000
,  // measure 153
0100
0000
0000
0000
0000
0000
0000
0000
0001
0000
0000
1000
0000
0000
0001
0000
1000
0000
0000
0000
0000
0000
0000
0000
2002
0000
0000
0000
0000
0000
0000
0000
,  // measure 154
3003
0000
1100
0000
0001
0010
0000
0001
,  // measure 155
0100
0001
1010
0000
0101
0000
1000
0100
,  // measure 156
1000
0100
0011
0000
1010
0000
0100
0001
,  // measure 157
0010
0000
0100
0000
1000
0000
0001
0000
0110
0000
0000
0000
1001
0000
1000
0001
,  // measure 158
1000
1001
0010
1000
0100
0001
0100
1000
,  // measure 159
0010
0001
0010
1000
0100
0001
0100
1000
,  // measure 160
0010
0001
0010
1000
0100
0010
0100
1000
,  // measure 161
0010
0001
0010
1000
0100
0010
0100
1000
,  // measure 162
0010
0001
0010
1000
0001
0100
0010
1000
,  // measure 163
0001
0000
0000
0001
1000
0000
0000
1000
0001
0000
0000
0001
0100
0000
0000
0100
,  // measure 164
0010
1010
0101
1100
,  // measure 165
0011
0000
0000
0001
1000
0000
0000
1000
0001
0000
0000
0001
0010
0000
0000
0010
,  // measure 166
0100
0000
0000
0100
1000
0000
0010
0000
0100
0000
0001
0000
0010
0000
0100
0000
,  // measure 167
1000
0000
0001
0000
1000
0000
0000
1000
0001
0000
0000
0001
0100
0000
0000
0100
,  // measure 168
0010
0000
0000
0010
1000
0000
0000
0000
0101
0000
0000
0000
0010
0000
0000
0000
,  // measure 169
1100
0000
0000
0100
1000
0000
0000
1000
0010
0000
0000
0010
0100
0000
0000
0100
,  // measure 170
0001
0000
0000
0001
0100
0000
0000
0000
0011
0000
0000
0000
0100
0000
0000
0000
,  // measure 171
1010
0000
0001
1000
0100
0000
0010
0000
,  // measure 172
1001
0000
0010
1000
0100
0000
0010
0001
,  // measure 173
0010
1000
0001
0100
0010
0000
0001
0010
,  // measure 174
1000
0000
0010
0001
0100
1000
0010
0100
,  // measure 175
0001
0000
1000
0000
0000
0000
0001
1000
0000
0000
0001
0100
0000
0000
0010
1000
,  // measure 176
0000
0000
0010
0100
0000
0000
0001
1000
0000
0000
0001
0010
0000
0000
0100
1000
,  // measure 177
0000
0000
0100
0010
0000
0000
0000
0000
0110
0000
0000
0000
0001
0000
0000
0000
,  // measure 178
0110
1000
0110
0001
,  // measure 179
0110
0000
0000
0000
1000
0100
0000
0000
1100
0000
0000
0000
0001
0100
0000
0000
,  // measure 180
0101
0000
0000
0000
1000
0010
0000
0000
0010
0001
0000
0000
1000
0010
0000
0000
,  // measure 181
0110
0000
0000
0000
0100
0001
0000
0000
0101
0000
0000
0000
0100
1000
0000
0000
,  // measure 182
1100
0000
0000
0000
0100
0010
0000
0000
0010
1000
0000
0000
0001
0100
0000
0000
,  // measure 183
1001
0000
0000
0000
1000
0100
1000
0000
1100
0000
0000
0000
0010
0100
0010
0000
,  // measure 184
0110
0000
0000
0000
1000
0100
1000
0000
0010
0100
0010
0000
1000
0001
1000
0000
,  // measure 185
0110
0001
0110
1000
,  // measure 186
0110
0000
0001
0000
0110
0000
1000
1000
,  // measure 187
0010
0001
0000
0000
0210
0000
0000
0000
,  // measure 188
0301
0010
0200
0000
,  // measure 189
1300
0010
0200
0000
,  // measure 190
0301
0000
0010
0001
0100
0000
1000
0100
,  // measure 191
0010
0000
1000
0100
0001
0000
0100
1000
,  // measure 192
0002
0000
2003
0000
,  // measure 193
3020
0000
0230
0000
,  // measure 194
0301
0000
0110
0000
,  // measure 195
1001
0000
0000
0000
0001
0100
0001
0000
0100
0000
0000
0010
0000
1000
0001
0000
,  // measure 196
0010
0000
0100
0000
1000
0100
1000
0000
0100
0000
0000
0010
0000
0001
1000
0000
,  // measure 197
0010
0000
0100
0000
0001
0100
0001
0000
0100
0000
0000
0010
0000
1000
0001
0000
,  // measure 198
0010
0000
0100
0000
1000
0100
1000
0000
0100
0000
0000
0010
0000
0001
1000
0000
,  // measure 199
0010
0000
1000
0000
0100
1000
0001
0000
0100
0000
0000
0010
0000
1000
0001
0000
,  // measure 200
0010
0000
0001
0000
0100
0001
1000
0000
0100
0000
0000
0010
0000
0001
1000
0000
,  // measure 201
0010
0000
1000
0000
0100
1000
0001
0000
0100
0000
0000
0010
0000
1000
0001
0000
,  // measure 202
0010
0000
0001
0000
0100
0001
1000
0000
0100
0000
0000
0010
0000
0001
1000
0000
,  // measure 203
0001
0000
0010
0000
0001
1000
0001
0000
1000
0000
0000
0010
0000
1000
0001
0000
,  // measure 204
0010
0000
0100
0000
1000
0001
1000
0000
0001
0000
0000
0010
0000
0001
1000
0000
,  // measure 205
0010
0000
0100
0000
0001
0100
0001
0000
0100
0000
0000
0010
0000
1000
0001
0000
,  // measure 206
0010
0000
0100
0000
1000
0100
1000
0000
0100
0000
0000
0010
0000
0001
1000
0000
,  // measure 207
0010
0000
1000
0000
0100
1000
0100
0000
1000
0000
0000
0010
0000
1000
0001
0000
,  // measure 208
0010
0000
0001
0000
0100
0001
0100
0000
0001
0000
0000
0010
0000
0001
1000
0000
,  // measure 209
0010
0000
1000
0000
0100
1000
0100
0000
1000
0000
0000
0010
0000
1000
0001
0000
,  // measure 210
0010
0000
0001
0000
0100
0001
0100
0000
0001
0000
0000
0010
0000
0001
1000
0000
,  // measure 211
0001
0000
0010
0000
0001
1000
0001
0000
1000
0000
0000
0010
0000
1000
0001
0000
,  // measure 212
1000
0000
0100
0000
1000
0001
1000
0000
0001
0000
0000
0010
0000
0001
1000
0000
,  // measure 213
0001
0000
0100
0000
0001
0100
0001
0000
0100
0000
0000
0010
0000
1000
0001
0000
,  // measure 214
1000
0000
0100
0000
1000
0100
1000
0000
0100
0000
0000
0010
0000
0001
1000
0000
,  // measure 215
0001
0000
0100
0000
0100
0001
0100
0000
0001
0000
0000
0010
0000
0001
1000
0000
,  // measure 216
0001
0000
0100
0000
0100
0001
0100
0000
0001
0000
0000
0010
0000
0001
1000
0000
,  // measure 217
0001
0000
0100
0000
0100
0001
0100
0000
0001
0000
0000
0010
0000
0001
1000
0000
,  // measure 218
0001
0000
0100
0000
0100
0001
0100
0000
0001
0000
0000
0000
0100
0000
0001
0000
,  // measure 219
0010
1000
0010
0001
0100
1000
0100
0000
,  // measure 220
0000
0000
1001
0000
1010
0100
0001
1000
,  // measure 221
0000
0110
0000
0001
0010
0001
1000
0100
,  // measure 222
0001
0000
0110
0000
1001
0010
0100
0001
,  // measure 223
0000
0011
0000
1100
0001
0100
0010
1000
,  // measure 224
0100
0000
1001
0000
0110
0001
1000
0100
,  // measure 225
0000
1010
0000
0101
1000
0100
0010
0001
,  // measure 226
0100
0000
0110
0000
1001
0010
0100
0010
,  // measure 227
0000
1001
0000
0110
1000
0100
1001
0000
,  // measure 228
1001
0000
0010
1000
0001
0100
0010
1000
,  // measure 229
0001
0000
0100
0000
0001
0000
0000
0100
0010
0000
0010
0000
0010
0000
0000
1000
,  // measure 230
0100
0000
0100
0000
0100
0000
0000
0010
0001
0000
0001
0000
1000
0000
0100
0000
,  // measure 231
0010
0000
0001
0000
1000
0000
0000
0001
0010
0000
0010
0000
0010
0000
0000
0100
,  // measure 232
1000
0000
1000
0000
1000
0000
0000
0001
0100
0000
0100
0000
0001
0000
0010
0000
,  // measure 233
0100
0000
1000
0000
0001
0000
0000
1000
0100
0000
0100
0000
1000
0000
0000
0001
,  // measure 234
0100
0000
0100
0000
0010
0000
0000
1000
0001
0000
1000
0000
0010
0000
0100
0000
,  // measure 235
0010
0000
0100
0000
0001
0000
0000
1000
0010
0000
0010
0000
1000
0000
0000
0001
,  // measure 236
0010
0000
0010
0000
0100
0000
0000
1000
0001
0000
1000
0000
0001
0000
1000
0000
,  // measure 237
0010
0100
0001
0010
0100
1000
0011
0000
,  // measure 238
1100
0101
1010
1001
,  // measure 239
0110
0000
1000
0100
0010
0001
1100
0000
,  // measure 240
0011
1010
0101
0110
,  // measure 241
1001
0000
1000
0010
0100
0001
1010
0000
,  // measure 242
0101
0011
1100
0110
,  // measure 243
0110
0000
0001
0100
0010
1000
0101
0000
,  // measure 244
1010
1100
0011
1001
,  // measure 245
1001
0000
0000
0000
0001
0000
1000
0000
0100
0000
0010
0100
0000
0000
1000
0000
,  // measure 246
0001
0000
0100
0001
0000
0000
0100
0000
0010
0000
1000
0010
0000
0000
0100
0000
,  // measure 247
0001
0000
1000
0100
0000
0000
0010
0000
0001
0000
1000
0100
0000
0000
0010
0000
,  // measure 248
0001
0000
0100
1000
0000
0000
0100
0000
0001
0000
0010
0100
0000
0000
1000
0000
,  // measure 249
0001
0000
0100
0010
0000
0000
1000
0000
0100
0000
0010
0001
0000
0000
0100
0000
,  // measure 250
0010
0000
1000
0001
0000
0000
0100
0000
0010
0000
1000
0100
0000
0000
0010
0000
,  // measure 251
0001
0000
1000
0001
0000
0000
0010
0000
0100
0000
1000
0100
0000
0000
1000
0000
,  // measure 252
0010
0000
0100
0001
0000
0000
0100
0000
0000
0000
0100
0000
0000
0000
0100
0000
,  // measure 253
0000
0100
0001
1000
0100
0010
0100
0000
,  // measure 254
1000
0001
0100
0010
0000
1001
0000
0010
,  // measure 255
1000
0100
0010
0001
0100
0000
0011
0000
,  // measure 256
1000
0100
0010
0001
0000
1010
0000
0001
,  // measure 257
0100
0010
1000
0010
0100
0000
0101
0000
,  // measure 258
0010
1000
0001
0100
0000
1100
0000
0010
,  // measure 259
0001
0010
0100
1000
0100
0000
0110
0000
,  // measure 260
0001
0010
1000
0010
0000
0001
1000
0100
,  // measure 261
0010
0100
0101
0000
1100
0000
2002
0000
,  // measure 262
0000
0000
3003
0000
;
