#TITLE:SoulHacker Mix;
#SUBTITLE:(DDR ULTRAMIX -Online-);
#ARTIST:Tony the TGR;
#TITLETRANSLIT:;
#SUBTITLETRANSLIT:;
#ARTISTTRANSLIT:;
#CREDIT:;
#BANNER:ULTRAMIXSP.PNG;
#BACKGROUND:ULTRAMIXSP-bg.PNG;
#LYRICSPATH:;
#CDTITLE:./CDTITLES/DANCE DANCE REVOLUTION ULTRAMIX.PNG;
#MUSIC:ULTRAMIXSP.mp3;
#OFFSET:-1.853;
#SAMPLESTART:82.000;
#SAMPLELENGTH:24.000;
#SELECTABLE:YES;
#BPMS:0.000=145.000,611.500=150.000,619.500=160.000,627.500=170.000;
#STOPS:659.000=0.400
,795.500=0.520
;
#BGCHANGES:;

//---------------dance-single - ----------------
#NOTES:
     dance-single:
     :
     Easy:
     4:
     0.317,0.411,0.189,0.199,0.000: // measure 1
0000
0000
0000
0000
,  // measure 2
1000
0010
0101
0101
,  // measure 3
0001
0010
2200
3300
,  // measure 4
0010
0100
1001
1001
,  // measure 5
0001
1000
0220
0330
,  // measure 6
0001
0010
1100
1100
,  // measure 7
1000
0010
0202
0303
,  // measure 8
0010
0100
1001
1001
,  // measure 9
1000
0001
0220
0330
,  // measure 10
0020
0000
0230
0000
,  // measure 11
2300
0000
3010
0100
,  // measure 12
0002
0000
2003
0000
,  // measure 13
3020
0000
0130
0001
,  // measure 14
2000
0000
3200
0000
,  // measure 15
0320
0000
0031
0100
,  // measure 16
0020
0000
2030
0000
,  // measure 17
3010
0100
0001
1000
,  // measure 18
0002
0100
0100
0103
,  // measure 19
0200
0010
0010
0310
,  // measure 20
2000
0100
0100
3100
,  // measure 21
0010
0100
1001
0000
,  // measure 22
2000
0010
0010
3010
,  // measure 23
0020
0100
0100
0130
,  // measure 24
0002
0010
0010
0013
,  // measure 25
0100
0010
1001
0000
,  // measure 26
2000
3100
0002
0103
,  // measure 27
2000
3100
0002
0103
,  // measure 28
0020
0130
0002
0103
,  // measure 29
0020
0130
0002
0103
,  // measure 30
1000
0100
0010
0011
,  // measure 31
0001
0100
0010
1010
,  // measure 32
0100
0010
0100
0110
,  // measure 33
2000
3002
2003
3002
,  // measure 34
0013
0010
0010
0010
,  // measure 35
0100
0100
0100
0110
,  // measure 36
1000
1000
1000
1000
,  // measure 37
0001
0001
0001
0001
,  // measure 38
1001
2000
0001
3002
,  // measure 39
0010
0023
0100
0230
,  // measure 40
1000
2300
0001
3001
,  // measure 41
1001
0001
1000
0010
,  // measure 42
2000
0010
0010
3010
,  // measure 43
0020
0100
0100
0130
,  // measure 44
0002
0010
0010
0013
,  // measure 45
0100
0010
1001
0000
,  // measure 46
0002
0100
0100
0103
,  // measure 47
0200
0010
0010
0310
,  // measure 48
2000
0100
0100
3100
,  // measure 49
0010
0100
1001
0000
,  // measure 50
1000
0010
0101
0101
,  // measure 51
0001
0010
2200
3300
,  // measure 52
0010
0100
1001
1001
,  // measure 53
0001
1000
0220
0330
,  // measure 54
0001
0010
1100
1100
,  // measure 55
1000
0010
0202
0303
,  // measure 56
0010
0100
1001
1001
,  // measure 57
1000
0000
0001
0000
0220
0000
0330
1001
,  // measure 58
0000
0000
0000
1000
0000
0001
0000
0100
,  // measure 59
0000
0000
0000
0010
0000
0000
0000
0100
,  // measure 60
0000
0000
0000
0010
0000
0000
0000
0100
,  // measure 61
0000
0001
0000
0010
0000
0000
0000
0100
,  // measure 62
0000
0000
0000
1000
0000
0001
0000
0100
,  // measure 63
0000
0000
0000
0010
0000
0000
0000
0100
,  // measure 64
0000
0000
0000
0010
0000
0000
0000
0100
,  // measure 65
0000
0001
0000
0010
0000
0000
0000
0100
,  // measure 66
0100
0010
0000
0100
0000
0010
0000
0001
,  // measure 67
0000
1000
0000
0001
0000
0001
0000
0010
,  // measure 68
0000
0100
0000
0010
0000
0100
0000
1000
,  // measure 69
0000
0001
0000
1000
0000
0001
0000
0100
,  // measure 70
0000
0010
0000
0100
0000
0010
0000
1000
,  // measure 71
0000
0001
0000
1000
0000
0000
0000
0001
,  // measure 72
0000
0100
0000
0010
0000
0100
0000
0001
,  // measure 73
0000
1000
0000
0001
0000
1000
0000
0002
,  // measure 74
0000
0000
0000
0003
0000
0100
0000
0020
,  // measure 75
0000
0000
0000
0030
0000
1000
0000
0200
,  // measure 76
0000
0000
0000
0300
0000
0010
0000
0002
,  // measure 77
0000
0000
0000
0003
0000
1000
0000
0020
,  // measure 78
0000
0000
0000
0030
0000
0001
0000
0200
,  // measure 79
0000
0300
0000
0010
0000
0100
0000
0020
,  // measure 80
0000
0000
0000
0000
0000
0030
0000
2000
,  // measure 81
0000
0000
0000
0000
0000
3000
0000
1001
,  // measure 82
0000
0010
0000
0100
0000
0000
0000
0110
,  // measure 83
0000
0100
0000
0010
0000
0001
0000
1001
,  // measure 84
0000
0010
0000
0100
0000
0000
0000
0110
,  // measure 85
0000
0100
0000
0010
0000
0001
0000
1001
,  // measure 86
0000
0100
0000
0010
0000
0000
0000
0110
,  // measure 87
0000
0010
0000
0001
0000
0000
0000
2000
,  // measure 88
0000
0000
0000
0100
0000
3000
0000
0002
,  // measure 89
0000
0000
0000
0100
0000
0003
0000
0101
,  // measure 90
0000
0000
0000
0010
0000
0000
0000
0100
,  // measure 91
0000
0010
0000
0100
0000
0010
0000
1000
,  // measure 92
0000
0000
0000
0100
0000
0010
0000
0100
,  // measure 93
0000
0000
0000
0010
0000
0001
0000
1000
,  // measure 94
0000
0000
0000
0010
0000
0100
0000
1001
,  // measure 95
0000
0000
0000
0010
0000
0100
0000
1000
,  // measure 96
0000
0000
0000
0100
0000
0010
0000
0001
,  // measure 97
0000
0000
0000
0010
0000
0100
0000
1000
,  // measure 98
0000
0000
0000
0001
0000
0000
0000
1000
,  // measure 99
0000
0000
0000
0001
0000
0000
0000
0010
,  // measure 100
0000
0000
0000
0100
0000
0000
0000
0010
,  // measure 101
0000
0000
0000
0100
0000
0000
0000
1000
,  // measure 102
0000
0000
0000
0010
0000
0000
0000
1000
,  // measure 103
0000
0000
0000
0010
0000
0000
0000
0100
,  // measure 104
0000
0000
0000
0001
0000
0000
0000
0100
,  // measure 105
0000
0000
0000
0001
0000
0000
0000
1000
,  // measure 106
0000
0100
0000
1000
0000
0100
0000
0010
,  // measure 107
0000
0001
0000
0010
0000
0001
0000
0100
,  // measure 108
0000
0001
0000
0100
0000
0001
0000
1000
,  // measure 109
0000
0010
0000
1000
0000
0010
0000
1000
,  // measure 110
0000
0001
0000
1000
0000
0001
0000
0010
,  // measure 111
0000
0100
0000
0010
0000
0100
0000
1000
,  // measure 112
0000
0100
0000
1000
0000
0100
0000
0001
,  // measure 113
0000
0100
0000
0001
0000
0100
0000
1000
,  // measure 114
0000
0000
0000
0001
0000
0000
0000
1000
,  // measure 115
0000
0000
0000
0001
0000
0000
0000
0010
,  // measure 116
0000
0000
0000
0100
0000
0000
0000
0010
,  // measure 117
0000
0000
0000
0100
0000
0000
0000
1000
,  // measure 118
0000
0000
0000
0100
0000
0000
0000
1000
,  // measure 119
0000
0000
0000
0100
0000
0000
0000
0010
,  // measure 120
0000
0000
0000
0001
0000
0000
0000
0010
,  // measure 121
0000
0000
0000
0001
0000
0000
0000
0100
,  // measure 122
0000
0001
0000
0100
0000
0000
0000
0010
,  // measure 123
0000
1000
0000
0010
0000
0000
0000
1000
,  // measure 124
0000
0100
0000
1000
0000
0000
0000
0001
,  // measure 125
0000
0010
0000
0001
0000
0000
0000
0010
,  // measure 126
0000
0100
0000
0010
0000
0000
0000
1000
,  // measure 127
0000
0001
0000
1000
0000
0000
0000
0100
,  // measure 128
0000
0010
0000
0100
0000
0000
0000
0001
,  // measure 129
0000
1000
0000
0001
0000
0000
0000
1000
,  // measure 130
0000
0010
0000
1000
0000
0010
0000
0100
,  // measure 131
0000
0001
0000
0100
0000
0001
0000
0010
,  // measure 132
0000
0001
0000
0010
0000
0001
0000
1000
,  // measure 133
0000
0100
0000
1000
0000
0100
0000
1000
,  // measure 134
0000
0001
0000
1000
0000
0100
0000
1000
,  // measure 135
0000
0001
0000
1000
0000
0100
0000
0010
,  // measure 136
0000
0001
0000
1000
0000
0001
0000
0010
,  // measure 137
0000
0001
0000
1000
0000
0001
0000
1000
,  // measure 138
0000
1010
0000
1000
0000
1000
0000
0001
,  // measure 139
0000
0101
0000
0001
0000
0001
0000
0100
,  // measure 140
0000
0110
0000
0100
0000
0100
0000
0010
,  // measure 141
0000
1010
0000
0010
0000
0010
0000
1000
,  // measure 142
0000
1100
0000
1000
0000
1000
0000
0010
,  // measure 143
0000
0011
0000
0010
0000
0010
0000
0100
,  // measure 144
0000
0101
0000
0100
0000
0100
0000
0010
,  // measure 145
0000
1010
0000
0010
0000
0010
0000
0010
,  // measure 146
0000
1000
0000
0010
0000
0000
0000
0100
,  // measure 147
0000
0001
0000
0100
0000
0000
0000
0001
,  // measure 148
0000
0010
0000
0001
0000
0000
0000
1000
,  // measure 149
0000
0100
0000
1000
0000
0000
0000
0100
,  // measure 150
0000
0010
0000
0100
0000
0000
0000
0001
,  // measure 151
0000
1000
0000
0001
0000
0000
0000
0010
,  // measure 152
0000
0100
0000
0010
0000
0000
0000
1000
,  // measure 153
0000
0001
0000
1000
0000
0000
0000
0100
,  // measure 154
0000
0001
0000
0100
0000
0001
0000
1000
,  // measure 155
0000
0100
0000
1000
0000
0100
0000
0010
,  // measure 156
0000
0001
0000
0010
0000
0001
0000
1000
,  // measure 157
0000
0010
0000
1000
0000
0010
0000
1001
,  // measure 158
0000
0000
0000
0000
0000
0000
0000
0010
,  // measure 159
0000
0000
0000
0110
0000
0000
0000
0010
,  // measure 160
0000
0000
0000
0110
0000
0000
0000
1000
,  // measure 161
0000
0000
0000
1000
0000
0000
0000
1000
,  // measure 162
0000
0000
0000
0010
0000
0000
0000
0001
,  // measure 163
0000
0000
0000
0100
0000
0000
0000
0010
,  // measure 164
0000
0000
0000
0100
0000
0000
0000
1000
,  // measure 165
0000
0000
0000
0001
0000
0000
0000
1000
,  // measure 166
0000
0000
0000
1000
0000
0000
0000
0010
,  // measure 167
0000
0000
0000
1000
0000
0000
0000
0110
,  // measure 168
0000
0000
0000
0000
0000
0000
0000
0010
,  // measure 169
0000
0000
0000
1000
0000
0000
0000
0001
,  // measure 170
0000
0000
0000
0001
0000
0000
0000
0100
,  // measure 171
0000
0000
0000
0001
0000
0000
0000
0010
,  // measure 172
0000
0000
0000
0100
0000
0000
0000
1000
,  // measure 173
0000
0000
0000
0100
0000
0000
0000
0100
,  // measure 174
0000
0000
0000
0100
0000
0000
0000
0100
,  // measure 175
0000
0000
0000
1000
0000
0000
0000
0010
,  // measure 176
0000
0000
0000
0100
0000
0000
0000
1000
,  // measure 177
0000
0000
0000
0100
0000
0000
0000
0110
,  // measure 178
0000
0000
0000
0110
0000
0000
0000
1000
,  // measure 179
0000
0000
0000
0001
0000
0000
0000
1001
,  // measure 180
0000
0000
0000
0110
0000
0000
0000
0010
,  // measure 181
0000
0000
0000
0100
0000
0000
0000
1001
,  // measure 182
0000
0000
0000
0110
0000
0000
0000
0010
,  // measure 183
0000
0000
0000
0001
0000
0000
0000
1001
,  // measure 184
0000
0000
0000
1001
0000
0000
0000
1001
,  // measure 185
0000
0000
0000
0000
0000
0000
0000
0100
,  // measure 186
0000
0000
0000
0000
0000
0100
0000
0000
,  // measure 187
0000
0000
0000
0000
0000
0000
0000
0001
,  // measure 188
0000
0000
0000
0000
0000
0001
0000
0000
,  // measure 189
0000
1000
0000
0000
0000
1000
0000
0000
,  // measure 190
0000
0001
0000
0000
0000
0001
0000
0000
,  // measure 191
0000
0100
0000
0000
0000
0100
0000
0000
,  // measure 192
0000
0100
0000
0000
0000
0100
0000
0000
,  // measure 193
0000
0100
0000
0000
0000
0010
0000
0000
,  // measure 194
0000
1000
0000
0000
0000
1000
0000
0000
,  // measure 195
0000
0001
0000
0000
0000
1000
0000
0000
,  // measure 196
0000
0100
0000
0000
0000
0100
0000
0000
,  // measure 197
0000
1000
0000
0000
0000
0100
0000
0000
,  // measure 198
0000
0001
0000
0000
0000
0001
0000
0000
,  // measure 199
0000
0001
0000
0000
0000
0010
0000
2002
,  // measure 200
0000
0000
0000
0000
0000
3003
0000
0000
,  // measure 201
0010
0000
0110
0000
,  // measure 202
0000
0020
0030
2000
,  // measure 203
3000
0002
0003
1000
,  // measure 204
0100
1000
0000
0010
,  // measure 205
0000
0110
0000
0000
,  // measure 206
0001
0002
0003
2000
,  // measure 207
3000
0020
0000
0000
,  // measure 208
0030
0100
0100
0100
,  // measure 209
0000
0001
1000
0001
,  // measure 210
0000
0010
0010
0010
,  // measure 211
0000
0100
1000
0100
,  // measure 212
0000
1000
1000
1000
,  // measure 213
0000
0001
0010
0001
,  // measure 214
0000
0100
0000
1001
,  // measure 215
0000
1000
1000
0001
,  // measure 216
0000
1000
0100
0010
,  // measure 217
0001
0100
0000
1001
,  // measure 218
0000
0001
1000
0001
,  // measure 219
1000
0010
0000
1000
,  // measure 220
0001
0100
0010
0100
,  // measure 221
0010
0100
0000
0110
,  // measure 222
0000
0001
0010
0100
,  // measure 223
1000
0100
0000
1001
,  // measure 224
0000
1000
0001
1000
,  // measure 225
0001
0010
0000
0001
,  // measure 226
1000
0010
0100
0010
,  // measure 227
0100
0010
0000
1000
,  // measure 228
0010
0100
0001
0100
,  // measure 229
0001
0100
0000
0001
,  // measure 230
1000
2002
0000
0000
,  // measure 231
0000
0000
0000
0000
,  // measure 232
3003
1000
0000
0001
,  // measure 233
0000
0010
0000
0001
,  // measure 234
0001
0001
0000
1000
,  // measure 235
0000
0010
0000
0100
,  // measure 236
0100
0100
0000
0001
,  // measure 237
0000
1000
0000
0001
,  // measure 238
0001
0001
0000
1000
,  // measure 239
0000
0010
0000
0100
,  // measure 240
0100
0100
0000
0010
,  // measure 241
1000
0010
0000
0010
,  // measure 242
0100
0010
0000
1000
,  // measure 243
0001
1000
0000
0001
,  // measure 244
0010
0001
0000
1000
,  // measure 245
0100
1000
0000
0001
,  // measure 246
1000
0001
0000
0110
,  // measure 247
0000
0010
0100
0010
,  // measure 248
0100
2002
0000
3003
;

//---------------dance-single - ----------------
#NOTES:
     dance-single:
     :
     Medium:
     6:
     0.494,0.505,0.306,0.219,0.005: // measure 1
0000
0000
0000
0000
,  // measure 2
1000
0000
0001
0000
0100
0010
0100
0000
,  // measure 3
0010
0100
0010
1000
0001
0200
0000
0000
,  // measure 4
0310
0000
0100
0000
0001
1000
0001
0000
,  // measure 5
1000
0001
1000
0000
0100
1000
0010
1000
,  // measure 6
0010
0000
0001
0000
1000
0100
1000
0000
,  // measure 7
0010
0001
0010
0000
1000
0002
0000
0000
,  // measure 8
0013
0000
0100
0000
1000
0010
1000
0000
,  // measure 9
0100
0001
0100
0000
1000
0001
1000
0001
,  // measure 10
0010
0100
0000
0000
0100
1000
0000
0000
,  // measure 11
1000
0001
0000
0000
0001
0100
0010
0000
,  // measure 12
0010
1000
0000
0000
1000
0001
0000
0000
,  // measure 13
0001
0000
0100
0000
0000
0000
0000
0000
0010
0000
0000
1000
0000
0000
0001
0000
,  // measure 14
1000
0100
0000
0000
0010
0001
0000
0000
,  // measure 15
0100
0010
0000
0000
0010
1000
0100
0000
,  // measure 16
0010
0001
0000
0000
0100
0010
0000
0000
,  // measure 17
1000
0000
0100
0000
0010
0000
0000
0001
0000
0000
1000
0000
0000
0000
0000
0000
,  // measure 18
0010
0100
0001
1000
0000
0100
0000
1000
,  // measure 19
0000
0100
0000
1000
0000
0100
0010
0001
,  // measure 20
1000
0010
0100
0001
0000
0100
0000
0001
,  // measure 21
0000
0100
0010
0000
1001
0000
0000
0000
,  // measure 22
1000
0001
0100
0010
0000
1000
0000
0010
,  // measure 23
0000
0001
0000
0010
0000
1000
0100
0010
,  // measure 24
0001
1000
0010
1000
0000
0100
0000
0001
,  // measure 25
0000
0100
1000
0000
2002
0000
3003
0000
,  // measure 26
0100
0001
0000
1000
0000
0001
0000
0010
,  // measure 27
0100
1000
0000
0001
0000
1000
0000
0010
,  // measure 28
1000
0100
0000
0010
0000
1000
0000
0010
,  // measure 29
0001
0100
0000
0010
0000
0001
0000
0010
,  // measure 30
1000
0001
0100
0000
0010
0000
1010
0000
,  // measure 31
0001
1000
0100
0000
0010
0000
0011
0000
,  // measure 32
0001
0100
0010
0000
1000
0000
1010
0010
,  // measure 33
0200
0302
2003
3200
,  // measure 34
0310
0001
0010
0001
0010
0001
0100
0000
,  // measure 35
0100
0010
0100
0010
0100
0010
1000
0000
,  // measure 36
1000
0100
1000
0100
1000
0100
0010
0000
,  // measure 37
0010
0001
0010
0001
0010
0001
1000
0000
,  // measure 38
1001
1000
0001
0001
,  // measure 39
0010
0010
0100
0100
,  // measure 40
1100
0000
0110
0000
0011
0000
0001
1000
,  // measure 41
0000
0100
1000
0010
0100
0001
0010
0000
,  // measure 42
0010
0100
1000
0001
0000
0100
0000
0001
,  // measure 43
0000
0100
0000
0001
0000
0100
0010
1000
,  // measure 44
0001
0010
0100
1000
0000
0100
0000
1000
,  // measure 45
0000
0100
0010
0000
1001
0000
0000
0000
,  // measure 46
0001
1000
0100
0010
0000
0001
0000
0010
,  // measure 47
0000
1000
0000
0010
0000
0001
0100
0010
,  // measure 48
1000
0001
0010
0001
0000
0100
0000
1000
,  // measure 49
0000
0100
0001
0000
2002
0000
3003
0000
,  // measure 50
0001
0000
1000
0000
0100
0010
0100
0000
,  // measure 51
0010
0100
0010
0001
1000
0200
0000
0000
,  // measure 52
0310
0000
0100
0000
1000
0001
1000
0000
,  // measure 53
0001
1000
0001
0000
0100
0001
0010
0001
,  // measure 54
0010
0000
1000
0000
0001
0100
0001
0000
,  // measure 55
0010
1000
0010
0000
0001
2000
0000
0000
,  // measure 56
3010
0000
0100
0000
0001
0010
0001
0000
,  // measure 57
0100
1000
0100
0000
0001
1000
0001
1000
,  // measure 58
0100
2000
0000
3001
0000
1000
0000
0100
,  // measure 59
0010
0200
0000
0310
0000
0001
0000
0100
,  // measure 60
0010
2000
0000
3100
0000
1000
0000
0001
,  // measure 61
0010
0100
0000
1100
0000
0101
0000
0001
,  // measure 62
0100
0002
0000
1003
0000
0010
0000
0100
,  // measure 63
0010
2000
0000
3001
0000
0100
0000
0001
,  // measure 64
1000
0200
0000
0310
0000
0001
0000
1000
,  // measure 65
0010
0100
0000
0101
0000
1100
0000
0100
,  // measure 66
0010
0100
0000
1000
0000
0010
0000
0100
,  // measure 67
0001
0100
0000
0001
0000
1000
0000
0010
,  // measure 68
0100
0001
0000
0010
0000
0100
0000
1000
,  // measure 69
0100
0010
0000
0001
0000
1000
0000
0001
,  // measure 70
0010
0100
0000
0100
0010
0001
0000
1000
,  // measure 71
0100
1000
0000
0001
1000
0010
0000
0001
,  // measure 72
0100
0001
0000
0010
0001
0100
0000
0010
,  // measure 73
1000
0100
0000
1000
0001
0100
0000
0010
,  // measure 74
0000
1000
0000
0020
0000
0030
0000
2200
,  // measure 75
0000
0000
0000
0000
0000
3300
0000
0010
,  // measure 76
0000
0001
0000
0200
0000
0300
0000
0022
,  // measure 77
0000
0000
0000
0033
0000
1000
0000
0001
,  // measure 78
0000
1000
0000
0020
0000
0030
0000
0202
,  // measure 79
0000
0000
0000
0000
0000
0303
0000
1100
,  // measure 80
0000
0110
0000
0202
0000
0303
0000
2000
,  // measure 81
0000
0000
0000
3000
0000
0010
0000
1100
,  // measure 82
0000
0010
0000
0001
1000
0001
0000
0011
,  // measure 83
0000
0100
0000
0010
0100
0010
0000
0101
,  // measure 84
0000
0010
0000
0100
0001
1000
0000
1010
,  // measure 85
0000
0100
0000
0010
1000
0001
0000
0011
,  // measure 86
0000
0100
0000
1000
0010
1000
0000
1100
,  // measure 87
0000
0010
0000
1000
0001
0100
0000
0210
,  // measure 88
0000
0000
0000
1300
0000
0001
0000
0120
,  // measure 89
0000
0000
0000
1030
0000
0100
0000
0110
,  // measure 90
0000
1000
0000
0100
0010
0001
1000
0100
,  // measure 91
0000
0010
0000
0001
1000
0010
1000
0100
,  // measure 92
0000
1000
0000
0100
1000
0010
0100
0001
,  // measure 93
0000
0010
0000
0001
0010
0001
0100
0010
,  // measure 94
0000
1000
0000
0010
0100
0010
1000
0001
,  // measure 95
0000
0100
0000
0010
0100
0001
0100
1000
,  // measure 96
0000
0010
0000
0100
0001
1000
0010
0100
,  // measure 97
0001
0010
0100
1000
0100
0010
0001
1000
,  // measure 98
0000
0101
0000
0001
0000
1100
0000
0100
,  // measure 99
0000
1010
0000
0100
0000
0011
0000
0001
,  // measure 100
0000
1001
0000
0100
0000
0110
0000
0010
,  // measure 101
0000
1100
0000
0100
0000
0011
0000
0100
,  // measure 102
0000
1001
0000
0010
0000
0110
0000
0001
,  // measure 103
0000
1100
0000
0100
0000
0101
0000
0010
,  // measure 104
0000
1010
0000
0100
0000
0101
0000
0010
,  // measure 105
0000
0110
0000
0001
0000
1001
0000
1000
,  // measure 106
0000
0100
0000
1000
0001
0100
0000
0001
,  // measure 107
0000
0100
0000
0001
1000
0100
0000
0010
,  // measure 108
0000
0100
0000
0010
0100
1000
0000
0010
,  // measure 109
0000
0100
0000
0010
0100
0001
0000
1000
,  // measure 110
0000
0001
0000
1000
0100
1000
0000
0001
,  // measure 111
0000
1000
0000
0001
0100
0001
0000
0010
,  // measure 112
0000
0100
0000
1000
0001
0100
0000
0010
,  // measure 113
0000
0100
0000
0001
1000
0100
0000
0002
,  // measure 114
0000
1000
0000
0000
0000
1000
0000
0000
,  // measure 115
0000
1003
0000
0000
0000
0001
0000
0200
,  // measure 116
0000
0010
0000
0000
0000
0010
0000
0000
,  // measure 117
0000
0310
0000
0000
0000
0010
0000
2000
,  // measure 118
0000
0100
0000
0000
0000
0100
0000
0000
,  // measure 119
0000
3100
0000
0000
0000
0001
0000
0200
,  // measure 120
0000
0010
0000
0000
0000
0010
0000
0000
,  // measure 121
0000
0310
0000
0000
0000
0010
0000
2000
,  // measure 122
0000
0001
0000
0100
0000
3001
0000
0002
,  // measure 123
0000
1000
0000
0100
0000
1003
0000
0200
,  // measure 124
0000
0001
0000
0010
0000
0301
0000
0020
,  // measure 125
0000
1000
0000
0100
0000
1030
0000
0200
,  // measure 126
0000
1000
0000
0010
0000
1300
0000
0020
,  // measure 127
0000
0001
0000
0100
0000
0031
0000
0200
,  // measure 128
0000
0001
0000
1000
0000
0301
0000
0020
,  // measure 129
0000
1000
0000
0001
0000
1030
0000
1000
,  // measure 130
0000
0010
0000
1000
0001
0010
0000
0001
,  // measure 131
0000
0010
0000
0001
1000
0010
0000
0100
,  // measure 132
0000
0010
0000
0100
0010
1000
0000
0100
,  // measure 133
0000
0010
0000
0100
0010
0001
0000
1000
,  // measure 134
0000
0001
0000
1000
0010
1000
0000
0001
,  // measure 135
0000
1000
0000
0001
0010
0001
0000
0100
,  // measure 136
0000
0010
0000
1000
0001
0010
0000
0100
,  // measure 137
0000
0010
0000
0001
1000
0010
0000
0001
,  // measure 138
0000
1010
0000
1000
0000
0011
0000
0100
,  // measure 139
0000
1010
0000
0100
0000
0011
0000
0100
,  // measure 140
0000
1001
0000
0010
0000
1001
0000
1000
,  // measure 141
0000
0110
0000
0001
0000
0110
0000
1000
,  // measure 142
0000
0101
0000
0001
0000
1100
0000
1000
,  // measure 143
0000
0011
0000
0010
0000
1010
0000
0100
,  // measure 144
0000
0101
0000
0010
0000
1010
0000
0100
,  // measure 145
0000
0110
0000
1000
0000
1001
0000
0002
,  // measure 146
0000
1000
0000
0010
0000
1003
0000
2000
,  // measure 147
0000
0001
0000
0010
0000
3001
0000
0020
,  // measure 148
0000
1000
0000
0100
0000
1030
0000
0200
,  // measure 149
0000
0001
0000
0010
0000
0301
0000
0020
,  // measure 150
0000
0001
0000
0100
0000
0031
0000
0200
,  // measure 151
0000
1000
0000
0010
0000
1300
0000
0020
,  // measure 152
0000
1000
0000
0001
0000
1030
0000
0200
,  // measure 153
0000
0001
0000
1000
0000
0301
0000
0100
,  // measure 154
0000
0001
0000
0100
0000
0001
0100
1000
,  // measure 155
0000
0100
0000
1000
0000
0010
1000
0001
,  // measure 156
0000
0010
0000
0001
0000
0010
0001
0100
,  // measure 157
0000
0010
0000
0100
0000
0010
1000
0200
,  // measure 158
0000
0000
0000
0000
0000
0300
0000
2002
,  // measure 159
0000
0000
0000
0000
0000
3003
0000
2000
,  // measure 160
0000
3000
0000
0002
0000
0003
0000
0200
,  // measure 161
0000
0300
0000
0020
0000
0030
0000
1000
,  // measure 162
0000
0001
0000
0010
0000
0100
0000
1000
,  // measure 163
0100
1000
0000
0010
1000
0100
0001
0100
,  // measure 164
1000
0010
0000
1000
0001
1000
0001
1000
,  // measure 165
0000
0000
0000
0100
0000
1001
0000
0010
,  // measure 166
0001
0010
0000
0001
1000
0001
0100
0010
,  // measure 167
0100
0010
0000
1000
0010
1000
0001
0100
,  // measure 168
0001
0100
0000
0100
0001
1000
0001
0020
,  // measure 169
0000
0000
0000
0000
0000
0030
0000
1000
,  // measure 170
0100
0010
0001
1000
0100
0000
0010
0001
,  // measure 171
1000
0100
0010
0001
1000
0000
0010
0001
,  // measure 172
0010
0000
0100
1000
0100
0000
1000
0100
,  // measure 173
0010
0001
1000
0100
0000
0000
0000
0001
,  // measure 174
0010
0100
1000
0001
0010
0000
0100
1000
,  // measure 175
0001
0010
0100
1000
0001
0000
1000
0100
,  // measure 176
1000
0000
0010
0001
0010
0000
0001
0010
,  // measure 177
0100
1000
0001
0010
0000
0000
0000
1000
,  // measure 178
0000
1100
0000
0001
0000
0101
0000
0020
,  // measure 179
0000
1000
0000
1000
0000
1030
0000
0001
,  // measure 180
0000
0011
0000
1000
0000
1010
0000
0001
,  // measure 181
0000
1001
0000
1000
0100
1000
0000
0001
,  // measure 182
0000
0101
0000
1000
0000
1100
0000
0020
,  // measure 183
0000
0001
0000
0001
0000
0031
0000
1000
,  // measure 184
0000
1010
0000
0001
0000
0011
0000
1000
,  // measure 185
0000
1001
0000
0001
0100
0001
0000
1001
,  // measure 186
0000
1000
0001
0000
0001
0000
1000
0100
,  // measure 187
0000
0010
0001
1000
0100
0010
0100
0010
,  // measure 188
0000
0010
0001
0000
0010
0001
0100
0010
,  // measure 189
0100
0010
0000
1000
0010
1000
0000
0010
,  // measure 190
0100
0001
1000
0000
0000
0010
1000
0100
,  // measure 191
0001
0100
0000
0010
0100
0010
0000
0001
,  // measure 192
1000
0001
1000
0000
0000
0010
0001
0100
,  // measure 193
1000
0100
0000
0010
0100
0010
0000
1000
,  // measure 194
0001
1000
0001
0000
0010
0100
1000
0100
,  // measure 195
0010
0001
0000
1000
0100
1000
0000
1000
,  // measure 196
0100
0010
0001
0000
0001
0010
0100
1000
,  // measure 197
0000
1100
0000
0101
0000
1001
0000
0001
,  // measure 198
1000
0001
1000
0000
0010
0100
0001
0100
,  // measure 199
0010
1000
0000
0001
0100
0001
0000
1001
,  // measure 200
0000
0000
0000
0220
0000
0000
0000
0000
0330
0000
0000
0000
0100
0000
0000
0000
,  // measure 201
0110
0010
0110
0100
,  // measure 202
0110
0000
0001
1001
,  // measure 203
1000
0000
1000
0100
0001
0000
0100
0000
,  // measure 204
1000
0000
0001
0100
1000
0000
0100
0000
,  // measure 205
0110
0010
0110
0100
,  // measure 206
0110
0000
1000
1001
,  // measure 207
0001
0000
0010
0100
0000
0100
2002
0000
,  // measure 208
0000
0000
3003
0100
,  // measure 209
1100
0100
0101
0100
,  // measure 210
1100
0000
0001
0100
0000
1000
0100
0000
,  // measure 211
0110
0100
1001
0100
,  // measure 212
0110
0000
0010
0100
0000
0001
1000
0000
,  // measure 213
1100
0100
0101
0100
,  // measure 214
1100
0000
0001
0100
0000
1000
0200
0000
,  // measure 215
0300
0020
0030
0002
,  // measure 216
0100
0103
0000
1000
,  // measure 217
0100
1000
0100
0010
,  // measure 218
0001
1001
0011
0001
,  // measure 219
0010
0001
0010
0100
,  // measure 220
1000
1001
1100
0100
,  // measure 221
0010
0100
0010
0001
,  // measure 222
1000
0110
1001
0001
,  // measure 223
1000
0001
1000
0110
,  // measure 224
0000
1001
1100
1001
,  // measure 225
0100
0001
0100
0010
,  // measure 226
1000
1010
1001
1000
,  // measure 227
0100
1000
0100
0010
,  // measure 228
0001
1001
0011
0001
,  // measure 229
0010
0001
0010
0100
,  // measure 230
1000
1001
1100
0100
,  // measure 231
0010
0100
0010
1001
,  // measure 232
1100
0000
1001
0000
0101
0000
0001
0100
,  // measure 233
1000
0000
1000
0100
0002
0000
0203
0000
,  // measure 234
2300
0000
3000
0000
0000
0000
1000
0010
,  // measure 235
0001
0000
0001
0010
2000
0000
3020
0000
,  // measure 236
0032
0000
0003
0000
0000
0000
0010
1000
,  // measure 237
0100
0000
0100
1000
0020
0000
2030
0000
,  // measure 238
3200
0000
0300
0000
0000
0000
0001
0100
,  // measure 239
1000
0000
1000
0100
0001
0000
0010
0001
,  // measure 240
0100
0000
0100
0001
0010
0000
0001
0010
,  // measure 241
1000
0000
1000
0010
0001
0000
2000
0000
,  // measure 242
0001
0000
3002
0000
1000
0000
1003
0010
,  // measure 243
0100
0000
0010
0100
0001
0000
0200
0000
,  // measure 244
0010
0000
0320
0000
1000
0000
1030
0100
,  // measure 245
0010
0000
0001
0000
1001
0000
0001
0010
,  // measure 246
0100
1000
1001
2000
,  // measure 247
3200
0000
0320
0000
0032
0000
1003
0100
,  // measure 248
0010
0000
0001
0000
1000
0000
0000
0010
0000
0000
0100
0000
0001
0000
0000
0000
;

//---------------dance-single - ----------------
#NOTES:
     dance-single:
     :
     Hard:
     9:
     0.682,0.727,0.400,0.255,0.274: // measure 1
0000
0000
0000
0000
,  // measure 2
1000
0000
0001
0000
1000
0000
0010
0100
0000
0100
0010
0000
1000
0000
0000
0000
,  // measure 3
0010
0000
0100
0000
0001
0000
0100
0010
0000
0000
2000
0000
0000
0000
3000
0000
,  // measure 4
0001
0000
1000
0000
0001
0000
0010
0100
0000
0100
0010
0000
0001
0000
0000
0000
,  // measure 5
0010
0000
0100
0000
1000
0000
0100
0010
0000
0000
0001
1000
0000
0001
1000
0000
,  // measure 6
0010
0000
0100
0000
0001
0000
1000
0100
0000
0100
1000
0000
0010
0000
0000
0000
,  // measure 7
0100
0000
0010
0000
1000
0000
0001
0010
0000
0000
0200
0000
0000
0000
0300
0000
,  // measure 8
0010
0000
0100
0000
1000
0000
0001
0100
0000
0100
0001
0000
0010
0000
0000
0000
,  // measure 9
0100
0000
0010
0000
0001
0000
1000
0010
0000
0000
0100
0010
0100
0010
0100
0000
,  // measure 10
0002
1000
0000
0000
2003
0010
0000
0000
,  // measure 11
3020
0100
0000
0000
0130
0001
1000
0000
,  // measure 12
2000
0001
0000
0000
3002
0010
0000
0000
,  // measure 13
0023
0000
0100
0000
0000
0000
0000
0000
0130
0000
1000
0100
0000
0100
0010
0000
,  // measure 14
0001
0002
0000
0000
1003
2000
0000
0000
,  // measure 15
3001
0002
0000
0000
0013
0100
1000
0000
,  // measure 16
0010
0020
0000
0000
0130
0200
0000
0000
,  // measure 17
0310
0000
0010
0000
1000
0000
0001
0100
0000
0100
0010
0000
0100
0000
0000
0000
,  // measure 18
0100
0100
0001
2000
0000
3100
0000
0002
,  // measure 19
0000
0103
0000
2000
0000
3100
0010
0001
,  // measure 20
1000
1000
0001
0200
0000
0310
0000
2000
,  // measure 21
0000
3010
0100
0000
1001
0000
0010
0100
,  // measure 22
1000
0001
0100
0010
0000
1001
0000
0100
,  // measure 23
0000
1001
0000
0010
0000
1000
0100
0010
,  // measure 24
1000
0010
0001
1000
0000
0110
0000
0001
,  // measure 25
0000
0110
0010
0000
2002
0000
3003
0000
,  // measure 26
0200
0001
0000
0010
0000
0001
0300
0010
,  // measure 27
2000
0100
0000
0001
0000
0100
3000
0001
,  // measure 28
0020
0100
0000
0001
0000
0130
0000
0010
,  // measure 29
0002
1000
0000
0100
0000
1000
0003
0100
,  // measure 30
0010
1000
0000
0101
0000
1010
0000
0010
,  // measure 31
1000
0100
0000
0011
0000
1100
0000
1000
,  // measure 32
0001
0100
0000
0110
0000
1001
0000
0100
,  // measure 33
0110
1010
1001
0101
,  // measure 34
0001
0100
0010
1000
0001
0010
0100
0001
,  // measure 35
0100
0010
0100
1000
0001
0100
0101
0000
,  // measure 36
1000
0100
0010
0001
1000
0010
0100
0010
,  // measure 37
0001
0010
1000
0001
0010
0100
1100
0000
,  // measure 38
1001
0100
0010
0100
,  // measure 39
0001
1000
0010
0100
,  // measure 40
0101
0000
0110
0000
1010
0000
1001
1001
,  // measure 41
0000
1000
0001
0010
0100
1000
0001
0000
,  // measure 42
0100
0100
1000
1002
0000
0103
0000
1002
,  // measure 43
0000
0103
0000
1002
0000
0103
0010
1000
,  // measure 44
0001
0001
1000
1200
0000
0310
0000
1002
,  // measure 45
0000
0013
0100
0000
0220
0000
0330
0000
,  // measure 46
0010
0001
1000
0100
0000
1001
0000
0110
,  // measure 47
0000
1001
0000
0110
0000
0001
0100
0010
,  // measure 48
0100
0010
1000
0001
0000
0101
0000
1010
,  // measure 49
0000
0101
0100
0000
2002
0000
3003
0000
,  // measure 50
0001
0000
1000
0000
0001
0000
0100
0010
0000
0010
0100
0000
0001
0000
0000
0000
,  // measure 51
0100
0000
0010
0000
1000
0000
0010
0100
0000
0000
0202
0000
0000
0000
0303
0000
,  // measure 52
1000
0000
0001
0000
1000
0000
0100
0010
0000
0010
0100
0000
1000
0000
0000
0000
,  // measure 53
0100
0000
0010
0000
0001
0000
0010
0100
0000
0000
1000
0001
0000
1000
0001
0000
,  // measure 54
0100
0000
0010
0000
1000
0000
0001
0010
0000
0010
0001
0000
0100
0000
0000
0000
,  // measure 55
0010
0000
0100
0000
0001
0000
1000
0100
0000
0000
0022
0000
0000
0000
0033
0000
,  // measure 56
0100
0000
0010
0000
0001
0000
1000
0010
0000
0010
1000
0000
0100
0000
0000
0000
,  // measure 57
0010
0000
0100
0000
1000
0000
0001
0100
0000
0000
0001
1000
0001
1000
0002
0000
,  // measure 58
0000
2003
0000
3010
1000
0100
1000
0002
,  // measure 59
0000
2003
0000
3100
0010
0001
0100
0020
,  // measure 60
0000
2030
0000
3010
1000
0100
0001
0200
,  // measure 61
0000
0302
0000
1003
0010
1000
0001
2000
,  // measure 62
0000
3020
0000
1030
0001
0100
0001
0020
,  // measure 63
0000
0230
0000
1300
0100
0010
0001
0200
,  // measure 64
0000
0302
0000
0013
0100
1000
0100
2000
,  // measure 65
0000
3200
0000
0310
0100
1000
0001
1000
,  // measure 66
1000
0001
0100
0001
0010
0100
1000
0001
,  // measure 67
0001
1000
0100
1000
0010
0100
0001
1000
,  // measure 68
1000
0100
0010
0100
1000
0001
0010
0001
,  // measure 69
0001
0000
0100
0000
0010
0000
0100
0000
0001
0000
1000
0000
0001
0000
1000
0100
,  // measure 70
0000
0000
1000
0000
0010
0000
1000
0000
0100
0000
0010
0000
0001
0000
1000
0001
,  // measure 71
0000
0000
0010
0000
0100
0000
0010
0000
0001
0000
0100
0000
0001
0000
0010
0100
,  // measure 72
0000
0000
1000
0000
0001
0000
0100
0000
0010
0000
0100
0000
0001
0000
0010
0001
,  // measure 73
0000
1000
0001
0100
0010
1000
0100
0010
,  // measure 74
0000
1100
0000
0000
0202
0000
0000
0000
0000
0000
0303
0000
0000
0000
2000
0000
,  // measure 75
0000
0000
3000
0000
0000
0000
0010
0100
0010
0000
0100
0001
0100
0000
0010
0000
,  // measure 76
0000
1001
0000
0000
0220
0000
0000
0000
0000
0000
0330
0000
0000
0000
0002
0000
,  // measure 77
0000
0000
0003
0000
0000
0000
1000
0100
1000
0000
0001
1000
0001
0000
0100
0000
,  // measure 78
0000
1001
0000
0000
0220
0000
0000
0000
0000
0000
0330
0000
0000
0000
0002
0000
,  // measure 79
0000
0000
0003
0000
0000
0000
0010
0001
0010
0000
0100
1000
0100
0000
0010
0000
,  // measure 80
0000
1100
0000
0000
0022
0000
0000
0000
0000
0000
0033
0000
0000
0000
0200
0000
,  // measure 81
0000
0000
0300
0000
0000
0000
0010
0100
0010
0000
1000
0001
1000
0000
0001
1000
,  // measure 82
0000
0010
0100
0000
0001
1000
0000
0001
0010
0000
0100
0000
1000
0000
0010
0100
,  // measure 83
0000
0001
1000
0000
0001
0100
0000
0010
1000
0000
0010
0000
0100
0000
0010
1000
,  // measure 84
0000
0010
0100
0000
0001
0010
0000
0001
0100
0000
0001
0000
1000
0000
0100
0010
,  // measure 85
0000
0001
0100
0000
0001
1000
0000
0010
1000
0000
0100
0000
0010
0000
0001
1000
,  // measure 86
0000
0010
0100
0000
0001
1000
0000
0100
1000
0000
0001
0000
0100
0000
0001
0100
,  // measure 87
0000
0001
0010
0000
0100
1000
0000
0001
1000
0000
0010
0000
0100
0000
2000
0000
,  // measure 88
0000
3010
0100
0000
0001
0100
0000
0010
1000
0000
0100
0000
0010
0000
0100
0010
,  // measure 89
0000
0001
1000
0000
0100
1000
0000
0001
0100
0000
0010
0000
0010
0000
0100
0001
,  // measure 90
0000
0100
0010
0000
0100
0001
0000
0100
0010
0000
0100
0000
0001
0000
0010
0100
,  // measure 91
0000
0010
0001
0000
0010
0100
0000
0010
0001
0000
1000
0000
0010
0000
0100
0001
,  // measure 92
0000
0100
0010
0000
0100
0001
0000
0100
0010
0000
1000
0000
0100
0000
1000
0010
,  // measure 93
0000
1000
0001
0000
1000
0010
0000
1000
0001
0000
0010
0000
0100
0000
0010
0001
,  // measure 94
0000
1000
0010
0000
0100
0001
0000
1000
0010
0000
0100
0000
0010
0000
0100
0001
,  // measure 95
0000
1000
0100
0000
0010
0100
0000
1000
0001
0000
1000
0000
0001
0000
0010
0001
,  // measure 96
0000
0010
0100
0000
1000
0100
0000
1000
0001
0000
0100
0000
0001
0000
1000
0010
,  // measure 97
0000
1000
0100
0000
1000
0010
0000
0100
0001
0000
0010
0000
0010
0000
1000
0000
,  // measure 98
0010
0110
0000
1000
1000
0101
0000
1000
,  // measure 99
0001
0101
0000
0100
0100
1001
0000
0001
,  // measure 100
0010
0110
0000
0001
0001
1100
0000
0010
,  // measure 101
0100
0000
0001
1000
0001
0101
0000
0001
,  // measure 102
1000
1001
0000
0010
0010
0101
0000
1000
,  // measure 103
0010
1010
0000
0100
0100
1001
0000
0010
,  // measure 104
0100
0110
0000
0001
0001
1100
0000
0010
,  // measure 105
0000
1001
0000
0100
0000
0110
0000
1000
,  // measure 106
0000
0010
0000
0000
1000
0000
0001
0000
0001
0000
0100
0000
0000
0000
0001
0000
,  // measure 107
0000
1100
0000
0001
0000
1100
0000
0001
,  // measure 108
0000
1000
0000
0000
0010
0000
0100
0000
0100
0000
0001
0000
0000
0000
1000
0000
,  // measure 109
0000
0000
0101
0000
0000
0000
1000
0000
0000
0000
0101
0000
0000
0000
0001
2000
,  // measure 110
0000
0000
0000
0000
0000
0000
3000
0000
0000
0000
0110
0000
0000
0000
1000
0020
,  // measure 111
0000
0000
0000
0030
0000
0101
0000
1001
,  // measure 112
0000
1000
0000
0001
0100
0000
0000
0101
,  // measure 113
0000
1000
0000
0010
1000
0000
0000
0001
,  // measure 114
1000
0001
0100
0000
0010
0010
0000
1000
,  // measure 115
0010
1000
0001
0000
1000
1000
0000
0100
,  // measure 116
1000
0001
0100
0000
0001
0001
0000
1000
,  // measure 117
0010
0110
0000
0001
0001
1100
0000
0001
,  // measure 118
0010
0100
1000
0000
0010
0100
0000
0001
,  // measure 119
0100
0001
0100
0000
0001
1000
0000
0010
,  // measure 120
1000
0001
1000
0000
0001
0100
0000
0020
,  // measure 121
0000
2030
0000
3002
0000
0103
0000
0000
,  // measure 122
1000
0000
0001
0000
1000
0001
0000
0001
1000
0000
0100
0000
0000
0000
0000
0000
,  // measure 123
1000
0000
0100
0000
1000
0100
0000
0100
1000
0000
0010
0000
0100
0000
0000
0000
,  // measure 124
0010
0000
0100
0000
0010
0100
0000
0100
0010
0000
1000
0000
0000
0000
0000
0000
,  // measure 125
0001
0000
0100
0000
0001
0100
0000
0100
0001
0000
1000
0000
0001
0000
0000
0000
,  // measure 126
1000
0000
0010
0000
1000
0010
0000
0010
1000
0000
0001
0000
0000
0000
0000
0000
,  // measure 127
0001
0000
1000
0000
0001
1000
0000
1000
0001
0000
0100
0000
0000
0000
1010
0000
,  // measure 128
0000
1000
0000
0010
0100
0000
0000
0110
,  // measure 129
0000
0001
0000
1000
0001
0000
0000
1000
,  // measure 130
0000
0100
0000
0000
1000
0000
0010
0000
0010
0000
0100
0000
0000
0000
0020
0000
,  // measure 131
0000
1000
0000
0000
0000
0130
0000
0010
,  // measure 132
0000
1000
0000
0000
0100
0000
0010
0000
0010
0000
0100
0000
0000
0000
2000
0000
,  // measure 133
0000
0100
0000
0000
0000
3001
0000
1001
,  // measure 134
0000
0001
1000
0000
1000
0001
0000
0101
,  // measure 135
0000
0001
1000
0000
1000
0010
0000
0110
,  // measure 136
0000
0100
0001
0000
0001
1000
0000
0010
,  // measure 137
0000
0000
0100
0000
0000
0000
0001
0100
0001
0000
1000
0000
0100
0000
0010
0000
,  // measure 138
0100
1000
0000
0001
0100
0010
0000
1000
,  // measure 139
0010
0100
0000
0001
0100
1000
0100
0001
,  // measure 140
0100
0001
0000
1000
0100
0001
0000
1000
,  // measure 141
0100
0000
1000
0000
0001
0000
1000
0100
1000
0000
0001
0000
0000
0000
0001
0000
,  // measure 142
0010
0100
1000
0010
0100
0001
0000
0010
,  // measure 143
0100
1000
0010
0100
0001
0010
0000
0100
,  // measure 144
1000
0010
0100
0001
0010
0100
0000
1000
,  // measure 145
0010
0000
0100
0000
0001
0100
0000
0100
0010
0000
1000
0000
0000
0000
1000
0000
,  // measure 146
0010
0100
0001
0010
0100
1000
0000
0010
,  // measure 147
0100
0001
0010
0100
1000
0010
0000
0100
,  // measure 148
0001
0010
0100
1000
0010
0100
0000
0001
,  // measure 149
0100
0000
0010
0000
1000
0010
0000
0010
1000
0000
0001
0000
0100
0000
0010
0000
,  // measure 150
1000
1010
0000
0001
0100
0101
0000
0001
,  // measure 151
1000
1001
0000
1000
0100
1100
0000
0100
,  // measure 152
0010
0110
0000
0001
0010
0011
0000
0010
,  // measure 153
0100
0000
1000
0000
0100
1000
0000
1000
0001
0000
0100
0000
0000
0000
0101
0000
,  // measure 154
0101
1001
0000
1100
1100
1010
0000
0110
,  // measure 155
0110
0101
0000
1001
1001
0110
0000
0110
,  // measure 156
0000
1000
0000
0001
1000
0000
0000
1001
,  // measure 157
0000
1000
0000
0010
0200
0000
0300
1010
,  // measure 158
0000
1001
0000
1100
0000
1001
0000
0100
,  // measure 159
0001
0000
0100
0000
0000
0001
0100
0000
0010
0000
1000
0000
0100
0000
1000
0000
,  // measure 160
0010
0000
1000
0000
0000
0010
1000
0000
0010
0000
0100
0000
0001
0000
0100
0000
,  // measure 161
0000
0000
0000
1001
0000
0101
0000
0001
,  // measure 162
0100
0001
0100
0000
0001
0100
0001
0000
0100
0000
0010
0100
0010
0000
1000
0000
,  // measure 163
0100
0000
1000
0000
0000
0100
1000
0000
0100
0000
0010
0000
0001
0000
0100
0000
,  // measure 164
1000
0000
0100
0000
0000
0001
0100
0000
0001
0000
1000
0000
0100
0000
2002
0000
,  // measure 165
0000
0000
0000
0000
0000
3003
0000
0010
,  // measure 166
0001
0000
0100
0000
0001
0100
0001
0000
1000
0000
0100
0000
1000
0000
0100
0000
,  // measure 167
0010
0000
0001
0000
0010
0001
0010
0000
0100
0000
0010
0000
0100
0000
1000
0000
,  // measure 168
0100
0000
0010
0001
0010
0000
0001
0010
,  // measure 169
0100
1000
0100
0001
0000
0000
0000
0100
,  // measure 170
0010
0000
0100
0000
1000
0100
1000
0000
0100
0000
0010
0000
0001
0000
0010
0000
,  // measure 171
0100
0000
0001
0000
0100
0001
0100
0000
0001
0000
0100
0000
1000
0000
0100
0000
,  // measure 172
0010
0000
0001
0100
0001
0000
0010
1000
,  // measure 173
0100
0010
1000
0020
0000
0000
0000
0000
,  // measure 174
0000
2030
0000
0000
3020
0000
0000
0000
,  // measure 175
0032
0000
0000
0023
0000
0000
0000
0000
,  // measure 176
0000
0032
0000
0000
1000
0000
0000
0203
,  // measure 177
0000
0000
0000
0000
1300
0000
0000
0200
,  // measure 178
0000
0010
0000
0000
0001
0300
2000
0000
,  // measure 179
0010
0000
0000
3002
0000
0000
0000
0010
,  // measure 180
0000
0203
0000
0000
1000
0000
0301
0000
,  // measure 181
0100
1100
0000
1000
0100
1000
0000
1001
,  // measure 182
0000
0100
1001
0000
0010
0000
0010
1001
,  // measure 183
0000
0010
0001
1000
0100
0001
0100
1000
,  // measure 184
0000
0100
1100
0000
0100
0010
0001
1000
,  // measure 185
0100
0010
0100
0010
0001
0100
1000
0100
,  // measure 186
0010
0100
0010
0001
1000
0100
0010
1000
,  // measure 187
0100
0010
0001
0010
0001
0010
1000
0010
,  // measure 188
0100
1000
0010
0100
1000
0100
0001
0100
,  // measure 189
0010
0100
0001
0010
0100
1000
0000
1010
,  // measure 190
0010
1000
0001
0010
0100
0001
0100
0010
,  // measure 191
0001
0100
0010
1000
0100
1000
0000
0011
,  // measure 192
0010
0001
1000
0010
0100
1000
0100
0010
,  // measure 193
1000
0100
0010
0001
0100
0001
0000
1001
,  // measure 194
0100
0001
0100
1000
0100
0001
0100
0010
,  // measure 195
0100
0001
1000
0100
0010
0100
0010
0001
,  // measure 196
1000
0010
0001
0010
0100
1000
0100
0001
,  // measure 197
0100
0001
0010
1000
0010
0001
0000
0010
,  // measure 198
0100
0000
1000
0000
0000
0100
1000
0000
0100
0000
0010
0000
0001
0000
1000
0000
,  // measure 199
0001
0000
1000
0000
0000
0100
0010
0000
0100
0000
0010
0000
0001
0000
2001
0000
,  // measure 200
0000
0000
0000
0000
0001
0000
0000
0001
3000
0000
0001
0000
1001
0000
0100
0000
,  // measure 201
0010
0000
0110
0010
0100
0000
1001
0100
,  // measure 202
0010
0000
2000
0000
3002
0000
1003
0100
,  // measure 203
0000
0020
0000
0000
0001
0000
0000
0032
0000
0000
1000
0000
1000
0000
1003
0000
,  // measure 204
0000
0020
0000
0000
0100
0000
0000
0100
0000
0000
0130
0000
0110
0000
0100
0000
,  // measure 205
0010
0000
1001
0010
0100
0000
0110
0100
,  // measure 206
0010
0000
2000
0000
3002
0000
1003
0100
,  // measure 207
1000
0100
1000
0100
1000
0001
2002
0000
,  // measure 208
0000
0000
0000
0000
0003
0000
0000
0000
3001
0000
0000
0000
0100
1000
0000
1000
,  // measure 209
0001
0000
0001
0100
0000
0100
0010
0000
0100
0000
0000
0000
0001
1000
0000
1000
,  // measure 210
0100
0000
0100
1000
0000
1000
0001
0000
0010
0000
0100
0000
1000
0010
0000
0010
,  // measure 211
0100
0000
0100
0001
0000
0001
1000
0000
1000
0000
0000
0000
0001
0010
0000
0010
,  // measure 212
0100
0000
0100
1000
0000
1000
0100
0000
0001
0000
0100
0000
1000
0001
0000
0001
,  // measure 213
1000
0000
1000
0100
0000
0100
0010
0000
0010
0000
0000
0000
0100
1000
0000
1000
,  // measure 214
0001
0000
0001
0010
0000
0010
1000
0000
1000
0000
0010
0000
0110
0000
0000
0000
,  // measure 215
0000
1010
0000
0011
,  // measure 216
1100
0000
0011
0000
0000
0000
1010
1000
,  // measure 217
0001
1000
0100
0010
1000
0100
0010
1000
,  // measure 218
1100
0000
1001
0000
1100
0000
0101
1000
,  // measure 219
0100
0010
0001
0100
1000
0100
0001
0100
,  // measure 220
1100
0000
0101
0000
1001
0000
1100
0001
,  // measure 221
0100
1000
0100
0001
0010
0100
0001
0100
,  // measure 222
1001
0000
0110
0000
1100
0000
0101
1000
,  // measure 223
0100
0010
0001
0100
0010
0100
0010
0100
,  // measure 224
0010
0100
2002
0000
3003
0000
0110
0001
,  // measure 225
0100
1000
0100
0001
0100
1000
0100
0001
,  // measure 226
1001
0000
0011
0000
1100
0000
0110
0100
,  // measure 227
0001
0010
0100
0001
0100
1000
0100
0001
,  // measure 228
1001
0000
0110
0000
1100
0000
0101
1000
,  // measure 229
0100
0010
0001
0100
1000
0100
0001
0100
,  // measure 230
1100
0000
0110
0000
0011
0000
1100
0100
,  // measure 231
0001
0100
1000
0100
0001
0100
1000
0100
,  // measure 232
1001
0000
0000
0000
0101
0000
0000
0100
0000
0000
0100
0000
0110
0000
1000
0000
,  // measure 233
0001
0000
0000
1000
0100
0000
0010
0000
0001
0000
0000
0001
0010
0000
0100
0000
,  // measure 234
1000
0000
0000
1000
0100
0000
0010
0000
0001
0000
0001
0000
0100
0000
1000
0000
,  // measure 235
0100
0000
0000
1000
0100
0000
0010
0000
0001
0000
0000
0001
0010
0000
0100
0000
,  // measure 236
1000
0000
0000
1000
0100
0000
0010
0000
0001
0000
0010
0000
1000
0000
0100
0000
,  // measure 237
0001
0000
0000
0001
0100
0000
1000
0000
0100
0000
0000
0001
0100
0000
1000
0000
,  // measure 238
0100
0000
0000
0001
0100
0000
1000
0000
0100
0000
0010
0000
0001
0000
0100
0000
,  // measure 239
1000
0000
0000
1000
0100
0000
0001
0000
0100
0000
0000
1000
0100
0000
0001
0000
,  // measure 240
0100
0000
0000
0010
0200
0000
0000
0000
0300
0000
0000
0000
0001
0000
0100
0000
,  // measure 241
0001
0000
1000
0001
0000
0001
1000
0000
0100
0000
0010
0000
0001
0000
0100
0000
,  // measure 242
0001
0000
1000
0001
0000
0001
1000
0000
0100
0000
1000
0000
0010
0000
0100
0000
,  // measure 243
0001
0000
0010
0100
0000
0100
0010
0000
0001
0000
1000
0000
0010
0000
0100
0000
,  // measure 244
0001
0000
0010
0100
0000
0100
0010
0000
0001
0000
1000
0000
0100
0000
0001
0000
,  // measure 245
0100
0000
1000
0100
0000
0100
1000
0000
0100
0000
0001
0000
0100
0000
1000
0000
,  // measure 246
0100
0000
1000
0100
0000
0100
1000
0000
0100
0000
0010
0000
0001
0000
0100
0000
,  // measure 247
0001
0000
0010
0001
0000
0001
0010
0000
0001
0000
1000
0000
0001
0100
0001
0100
,  // measure 248
0010
1000
0010
1000
0010
0000
0000
0100
0000
0000
0100
0000
1001
0000
0000
0000
;
