#TITLE:ELEMENTS Mix;
#SUBTITLE:(DDR SuperNOVA 2);
#ARTIST:Tony the TGR;
#TITLETRANSLIT:;
#SUBTITLETRANSLIT:;
#ARTISTTRANSLIT:;
#CREDIT:;
#BANNER:SuperNOVA2.png;
#BACKGROUND:;
#LYRICSPATH:;
#CDTITLE:./CDTITLES/Dance Dance Revolution SuperNOVA 2.png;
#MUSIC:SuperNOVA2.mp3;
#OFFSET:-0.074;
#SAMPLESTART:89.880;
#SAMPLELENGTH:15.000;
#SELECTABLE:YES;
#BPMS:0.000=155.000,232.000=150.000,313.000=300.000,377.000=75.000,393.000=150.000,425.000=279.999,457.000=260.000,489.000=239.999,801.000=180.999,867.000=179.999,1201.000=89.999,1217.000=179.999;
#STOPS:31.000=0.387
,61.500=0.387
,90.000=0.387
,121.000=1.548
,313.000=1.600
,393.000=1.600
;
#BGCHANGES:;

//---------------dance-single - ----------------
#NOTES:
     dance-single:
     :
     Hard:
     9:
     0.648,0.906,0.427,0.109,0.109: // measure 1
0000
0000
0000
0000
,  // measure 2
0000
0000
0000
0000
,  // measure 3
0000
0000
0000
0000
,  // measure 4
0000
0000
0000
0000
,  // measure 5
1000
0100
0001
0000
0100
0000
1000
0000
,  // measure 6
0010
1000
0100
0000
0010
0001
0100
0000
,  // measure 7
0001
0100
1000
0000
0100
0000
0001
0100
,  // measure 8
0020
0000
0000
0000
0000
0000
0130
0010
,  // measure 9
0010
0100
0010
1000
0100
0000
1000
0001
,  // measure 10
0100
0000
0001
1000
0100
0000
0010
0100
,  // measure 11
0100
0010
0001
1000
0010
0000
0100
0001
,  // measure 12
0010
0000
0100
1000
0010
0000
1000
0100
,  // measure 13
0100
1000
0010
1000
0001
0000
0010
0100
,  // measure 14
1000
0000
0010
0100
0001
0000
0010
0001
,  // measure 15
0001
0010
0001
1000
0010
0000
1000
0100
,  // measure 16
0001
0100
1000
0001
0100
0001
0001
0100
,  // measure 17
0001
1000
0100
0000
0110
0100
1000
0000
,  // measure 18
0110
0100
0001
0000
0010
1000
1000
0100
,  // measure 19
1000
0001
0100
0000
0011
0100
1000
0000
,  // measure 20
1010
0100
0001
0000
1000
0100
0100
0010
,  // measure 21
0100
1000
0010
0000
0101
1000
0100
0000
,  // measure 22
0110
1000
0010
0000
0001
0010
0010
0100
,  // measure 23
1000
0010
0100
0000
1001
0000
0010
0100
,  // measure 24
0010
0000
0010
1000
1000
0010
1000
0001
,  // measure 25
0010
0000
0110
0001
0100
0000
0110
1000
,  // measure 26
0100
0000
0010
0001
0001
0010
0001
1000
,  // measure 27
0010
0000
1100
0010
0001
0000
0101
0010
,  // measure 28
1000
0000
0001
0010
0010
0100
0010
0001
,  // measure 29
0100
0000
1010
0001
0010
0000
0110
0001
,  // measure 30
0100
0000
1000
0100
0100
0010
0001
0100
,  // measure 31
0010
0000
0001
1000
0100
0000
0110
0000
,  // measure 32
0001
1000
0100
1000
0001
0000
0110
0000
,  // measure 33
0010
1001
0000
0100
1000
0000
0101
0000
,  // measure 34
0010
0100
0001
0100
0010
0000
1000
0001
,  // measure 35
1000
0000
0010
1000
0100
0000
0011
0000
,  // measure 36
1000
0010
0100
0010
1000
0000
0101
0000
,  // measure 37
0001
1100
0000
0010
0100
0000
1001
0000
,  // measure 38
0001
0100
1000
0100
0001
0000
0010
0000
,  // measure 39
1100
0000
0000
0000
0010
0000
0001
0000
0200
0000
0000
0001
0000
0301
0000
0000
,  // measure 40
1000
0000
0100
0000
0010
0000
0100
0000
2000
0000
0000
0010
0000
3010
0000
0000
,  // measure 41
0100
0000
0001
0000
1000
0000
0001
0000
0020
0000
0000
0100
0000
0130
0000
0000
,  // measure 42
1000
0000
0001
0000
0100
0000
1000
0000
0200
0000
0000
0010
0000
0310
0000
0000
,  // measure 43
1000
0000
0100
0000
0010
0000
0001
0000
2000
0000
0000
0010
0000
3010
0000
0000
,  // measure 44
1000
0000
0001
0000
0100
0000
0010
0000
0200
0000
0000
0001
0000
0301
0000
0000
,  // measure 45
1000
0000
0100
0000
0001
0000
0100
0000
2000
0000
0000
0010
0000
3010
0000
0000
,  // measure 46
0100
0001
0010
0001
0100
1000
0100
0001
,  // measure 47
0010
0000
0000
0000
0100
0000
0001
0000
0020
0000
0000
0001
0000
0031
0000
0000
,  // measure 48
1000
0000
0010
0000
0100
0000
0010
0000
2000
0000
0000
0100
0000
3100
0000
0000
,  // measure 49
0010
0000
0001
0000
1000
0000
0001
0000
0200
0000
0000
0010
0000
0310
0000
0000
,  // measure 50
1000
0000
0001
0000
0010
0000
1000
0000
0020
0000
0000
0100
0000
0130
0000
0000
,  // measure 51
1000
0000
0010
0000
0100
0000
0001
0000
2000
0000
0000
0100
0000
3100
0000
0000
,  // measure 52
1000
0000
0001
0000
0010
0000
0100
0000
0020
0000
0000
0001
0000
0031
0000
0000
,  // measure 53
1000
0000
0010
0000
0001
0000
0010
0000
2000
0000
0000
0100
0000
3100
0000
0000
,  // measure 54
0010
0001
0100
0001
0010
0100
1000
0010
,  // measure 55
0100
0000
0010
0100
0100
0010
0100
0001
,  // measure 56
0010
0000
1100
0001
0010
0000
0101
1000
,  // measure 57
0010
0000
0100
0010
0010
0100
0001
1000
,  // measure 58
0100
0000
0011
0001
0100
0000
1010
1000
,  // measure 59
0100
0000
1000
0010
0010
1000
0100
1000
,  // measure 60
0001
0000
0110
0010
1000
0000
0110
0010
,  // measure 61
0001
0000
0100
0001
0001
0100
0001
1000
,  // measure 62
0100
0000
1000
0010
0010
1000
0100
1000
,  // measure 63
0001
0000
0001
0000
1000
0000
0000
0001
0000
0000
0100
0000
0001
0000
0000
1000
,  // measure 64
0000
0000
0001
0000
0010
0000
0000
0100
0000
0000
0010
0000
0001
0000
0000
0100
,  // measure 65
0000
0000
0000
0000
0001
0000
0000
1000
0000
0000
0100
0000
1000
0000
0000
0001
,  // measure 66
0000
0000
0100
0000
0010
0000
0000
0001
0000
0000
0010
0000
1000
0000
0000
0100
,  // measure 67
0000
0000
0000
0000
0010
0000
0000
0001
0000
0000
0100
0000
0001
0000
0000
0010
,  // measure 68
0000
0000
0001
0000
0010
0000
0000
1000
0000
0000
0010
0000
0001
0000
0000
0100
,  // measure 69
0000
0000
0000
0000
0010
0000
0000
1000
0000
0000
0100
0000
1000
0000
0000
0010
,  // measure 70
0000
0000
1000
0000
0010
0000
0000
0001
0000
0000
0010
0000
1000
0000
0000
0100
,  // measure 71
0000
0000
0000
0000
1000
0000
0000
0001
0000
0000
0100
0000
0010
0000
0000
0010
,  // measure 72
0000
0000
1000
0000
0001
0000
0000
0100
0000
0000
0010
0000
0100
0000
0000
0001
,  // measure 73
0000
0000
0010
0000
0001
0000
0000
1000
0000
0000
0100
0000
0010
0000
0000
0010
,  // measure 74
0000
0000
0001
0000
1000
0000
0000
0010
0000
0000
0100
0000
0001
0000
0000
0010
,  // measure 75
0000
0000
0000
0000
1000
0000
0000
1010
0000
0000
0000
0000
0001
0000
0000
0011
,  // measure 76
0000
0000
0000
0000
0100
0000
0000
1001
0000
0000
0000
0000
0010
0000
0000
0110
,  // measure 77
0000
0000
0000
0000
0001
0000
0000
1001
0000
0000
1000
0000
0100
0000
0000
0110
,  // measure 78
0000
0000
0010
0000
1000
0000
0000
1001
0000
0000
0001
0000
0010
0000
0000
0110
,  // measure 79
0000
0000
0000
0000
0000
0000
0000
0000
0100
0000
0000
0000
0000
0000
0000
0000
0000
0001
0000
0000
0000
0000
0000
0000
0000
0000
0000
0000
0000
0000
0000
0000
0000
0000
0000
0000
0000
0000
0000
0000
1000
0000
0000
0000
0000
0000
0000
0000
0000
0000
0000
0000
0000
0000
0000
0000
0000
0000
0000
0000
0000
0000
0000
0000
,  // measure 80
0010
0100
0010
0000
0000
0100
0000
0000
,  // measure 81
0001
0000
0010
0000
0000
0100
0000
0000
,  // measure 82
1000
0100
1000
0000
0000
0001
0000
0000
,  // measure 83
1000
0000
0010
0000
0000
0100
0000
0000
,  // measure 84
0001
0010
0001
0000
0000
1000
0000
0000
,  // measure 85
0001
0000
0010
0000
0000
0100
0000
0000
,  // measure 86
1000
0010
0000
0101
,  // measure 87
0000
0000
1000
0000
0000
0001
0000
0000
,  // measure 88
0100
0010
0100
0000
0000
0010
0000
0000
,  // measure 89
0001
0000
0010
0000
0000
1000
0000
0000
,  // measure 90
0100
1000
0100
0000
0000
0010
0000
0000
,  // measure 91
0001
0000
1001
0000
0000
0100
0000
0000
,  // measure 92
0001
0100
0001
0000
0000
0011
0000
0000
,  // measure 93
0010
0000
0100
0000
0000
1100
0000
0000
,  // measure 94
0010
0100
0000
0101
,  // measure 95
0000
0000
1000
0100
0001
0100
1000
0100
,  // measure 96
0001
0000
0100
0000
1000
0100
0001
0000
0001
0100
1000
0000
1000
0100
0001
0100
,  // measure 97
1000
0100
0001
0000
0001
0000
0010
0000
1000
0000
0010
0000
0001
0000
0010
0000
,  // measure 98
1000
0000
0010
0000
0001
0010
1000
0000
1000
0010
0001
0000
0001
0010
1000
0010
,  // measure 99
0001
0000
0000
0000
0010
0000
0000
0000
1000
0000
0000
0000
0000
0000
0000
0000
0000
0001
0000
0000
0000
0000
0000
0000
0000
0000
0000
0000
0010
0000
0000
0000
0000
0000
0000
0000
0000
0000
0000
0000
0100
0000
0000
0000
0000
0000
0000
0000
2000
0000
0000
0000
0000
0000
0000
0000
0000
0000
0000
0000
0000
0000
0000
0000
,  // measure 100
0010
3002
0010
0103
,  // measure 101
0010
0000
0000
0000
1000
0000
0000
0010
0000
0000
0100
0000
0002
0000
0000
0000
,  // measure 102
0010
2003
0010
3100
,  // measure 103
0000
0000
0000
0000
0001
0000
0000
1000
0000
0000
0100
0000
0010
0000
0000
1000
,  // measure 104
0000
0020
0001
0000
1000
0000
0001
0000
,  // measure 105
0130
0000
0000
0000
1000
0000
0000
0001
0000
0000
0100
0000
0010
0000
0000
0001
,  // measure 106
0000
0020
1000
0000
0001
0000
0130
0000
,  // measure 107
0000
0000
0001
0000
0000
1000
0000
0000
,  // measure 108
0010
0100
0010
0000
0000
0100
0000
0000
,  // measure 109
0001
0000
0010
0000
0000
0100
0000
0000
,  // measure 110
1000
0100
1000
0000
0000
0001
0000
0000
,  // measure 111
1000
0000
0010
0000
0000
0100
0000
0000
,  // measure 112
0001
0010
0001
0000
0000
1000
0000
0000
,  // measure 113
0001
0000
0010
0000
0000
0100
0000
0000
,  // measure 114
1000
0010
0000
0101
,  // measure 115
0000
0000
1000
0000
0000
0001
0000
0000
,  // measure 116
0100
0010
0100
0000
0000
0010
0000
0000
,  // measure 117
0001
0000
0010
0000
0000
1000
0000
0000
,  // measure 118
0100
1000
0100
0000
0000
0010
0000
0000
,  // measure 119
0001
0000
1001
0000
0000
0100
0000
0000
,  // measure 120
0001
0100
0001
0000
0000
0011
0000
0000
,  // measure 121
0010
0000
0100
0000
0000
1100
0000
0000
,  // measure 122
0010
0100
0000
0101
,  // measure 123
0000
0000
0001
0000
1000
0000
0010
0100
,  // measure 124
0000
0001
0000
0100
0010
1000
0001
0000
,  // measure 125
0001
1000
0010
0000
0100
0000
0001
1000
,  // measure 126
0000
0100
0000
1000
0001
0010
0100
0000
,  // measure 127
0100
0010
0001
0000
0100
0000
0010
1000
,  // measure 128
0000
0100
0000
1000
0010
0100
0001
0000
,  // measure 129
0001
0100
0010
0000
1000
0000
0001
0010
,  // measure 130
0000
0100
1000
0000
1001
0000
0001
0000
,  // measure 131
1001
0000
1000
0000
0001
0000
0100
0010
,  // measure 132
0000
1000
0000
0001
0100
0010
0100
0000
,  // measure 133
0001
1000
0001
0000
0010
0000
0100
1000
,  // measure 134
0000
0001
0000
0010
0100
1000
0100
0000
,  // measure 135
0010
0001
0010
0000
0001
0000
2000
0100
,  // measure 136
0000
0100
0000
0100
0000
3100
1000
0000
,  // measure 137
0001
0000
0200
0001
0000
0001
0000
0001
,  // measure 138
0000
0301
0100
0000
0010
0000
1000
0001
,  // measure 139
0000
0010
0000
0001
0100
0001
1000
0000
,  // measure 140
0001
1000
0010
0000
0100
0000
0001
1000
,  // measure 141
0000
0100
0000
1000
0001
0010
0100
0000
,  // measure 142
0010
0100
1000
0000
0010
0000
0020
0100
,  // measure 143
0000
0100
0000
0100
0000
0130
0010
0000
,  // measure 144
1000
0000
0200
0010
0000
0010
0000
0010
,  // measure 145
0000
0310
0110
0000
0110
0000
0000
0000
,  // measure 146
0000
0000
0000
1100
,  // measure 147
1100
1010
1010
0000
,  // measure 148
0000
0000
0000
0011
,  // measure 149
0011
0101
0101
0000
,  // measure 150
0000
0000
0000
0010
,  // measure 151
0100
0101
0101
0001
,  // measure 152
1000
1100
1100
0100
,  // measure 153
1000
0000
0001
0000
1000
0000
0010
0100
,  // measure 154
0000
0001
0000
1000
0010
0100
0010
0000
,  // measure 155
1000
0001
1000
0000
0100
0000
0010
0001
,  // measure 156
0000
1000
0000
0100
0010
0001
0010
0000
,  // measure 157
0100
1000
0100
0000
1000
0000
0002
0010
,  // measure 158
0000
0010
0000
0010
0000
0013
0001
0000
,  // measure 159
1000
0000
0020
1000
0000
1000
0000
1000
,  // measure 160
0000
1030
0010
0000
0100
0000
0001
1000
,  // measure 161
0000
0100
0000
1000
0010
1000
0001
0000
,  // measure 162
1000
0001
0100
0000
0010
0000
1000
0001
,  // measure 163
0000
0010
0000
0001
1000
0100
0010
0000
,  // measure 164
0100
0010
0001
0000
0100
0000
0020
0001
,  // measure 165
0000
0001
0000
0001
0000
0031
0010
0000
,  // measure 166
1000
0000
0200
0001
0000
0001
0000
0001
,  // measure 167
0000
0301
0100
0000
1000
0000
0010
0000
,  // measure 168
1000
0100
1000
0010
,  // measure 169
1000
0000
0100
0000
0100
0010
0000
0010
,  // measure 170
0001
0000
1000
0000
0100
0010
0000
0010
,  // measure 171
0001
0100
0001
0010
,  // measure 172
0001
0100
0001
0010
,  // measure 173
0001
0000
0100
0000
0100
0010
0000
0010
,  // measure 174
1000
0000
0002
0100
0000
0100
0000
0100
,  // measure 175
0000
0103
0001
1000
0000
0001
1000
0000
,  // measure 176
0001
2000
0000
0000
0000
0000
0000
0000
,  // measure 177
0000
0000
3100
0010
0000
0100
0010
0000
,  // measure 178
0100
0010
0000
0000
0110
0000
0000
1001
,  // measure 179
0000
0000
1000
0001
0000
1000
0001
0000
,  // measure 180
1000
0002
0000
0000
0000
0000
0000
0000
,  // measure 181
0103
2100
0000
3010
,  // measure 182
0000
0000
0102
0000
0000
0000
0013
0100
,  // measure 183
0010
0220
0000
0000
,  // measure 184
0000
0000
0000
0000
,  // measure 185
0000
0330
0000
0000
,  // measure 186
0000
0000
0000
0000
,  // measure 187
0000
0000
0010
0000
0001
0000
0100
0010
,  // measure 188
0000
1000
0000
0010
0100
0001
0010
0000
,  // measure 189
0010
0001
0100
0000
0100
0001
0000
0001
,  // measure 190
0010
0000
0100
0000
0100
1000
0000
1000
,  // measure 191
0010
0000
0100
0000
0001
0000
2000
0100
,  // measure 192
0000
0100
0000
0100
0000
3100
1000
0000
,  // measure 193
0010
0000
0200
0001
0000
0001
0000
0001
,  // measure 194
0000
0301
0100
0000
1000
0000
0010
0100
,  // measure 195
0000
0001
0000
0100
0010
1000
0100
0000
,  // measure 196
0100
1000
0010
0000
0010
1000
0000
1000
,  // measure 197
0100
0000
0010
0000
0010
0001
0000
0001
,  // measure 198
0100
0000
0010
0000
1000
0000
0001
0100
,  // measure 199
0001
0100
0010
1000
0000
1100
0000
0100
,  // measure 200
0010
0001
0000
1001
0000
0001
0100
0010
,  // measure 201
0000
0000
1000
0010
1000
0100
0010
0000
,  // measure 202
0001
1000
0001
0100
0010
0000
1000
0000
,  // measure 203
0100
0000
0001
0000
0010
0000
1000
0100
,  // measure 204
0010
0000
0001
0100
0010
1000
0100
0000
,  // measure 205
0010
0000
0001
0100
0010
1000
0001
0000
,  // measure 206
1000
0001
0100
1000
,  // measure 207
0010
0000
1000
0100
0010
0001
1000
0000
,  // measure 208
0010
0001
1000
0010
,  // measure 209
0100
0000
0001
0100
0010
0000
1000
0100
,  // measure 210
0000
0010
0001
0000
0100
0010
0000
0001
,  // measure 211
0000
1000
0010
1000
0100
0000
0010
0001
,  // measure 212
0000
1000
0100
0000
1000
0010
0000
0100
,  // measure 213
0000
0001
1000
0100
0010
0001
1000
0100
,  // measure 214
0010
0001
1000
0000
0010
0100
0000
0001
,  // measure 215
0000
1000
0001
0100
0010
1000
0001
0100
,  // measure 216
0010
1000
0001
0000
0000
0020
0000
0000
,  // measure 217
0030
0000
0100
1000
0100
0020
0000
0000
,  // measure 218
0001
0100
0031
0100
,  // measure 219
0010
0001
1000
0000
0001
0000
0100
0000
,  // measure 220
0010
0000
0001
0000
1000
0000
0100
0010
,  // measure 221
0001
0001
0100
0001
0100
0020
0000
0000
,  // measure 222
1000
0000
0100
0000
1030
0000
0001
0100
,  // measure 223
1000
0000
1000
0100
0001
0000
0001
0010
,  // measure 224
0100
0000
1000
0000
0001
0100
0001
0100
,  // measure 225
0001
0000
1000
0100
0010
0001
0100
0010
,  // measure 226
1000
0001
0010
0100
1000
0000
0001
0100
,  // measure 227
0010
1000
0001
0100
,  // measure 228
0010
0000
1000
0000
0100
0000
1000
0010
,  // measure 229
0100
0000
0001
0100
0010
1000
0100
0010
,  // measure 230
0001
1000
0010
0100
0001
0000
1000
0001
,  // measure 231
0100
0010
1000
0001
,  // measure 232
0010
0000
0100
0000
0001
0000
1000
0100
,  // measure 233
0010
0100
1100
0000
0000
0011
0000
0000
,  // measure 234
1001
0000
0001
0100
0010
1000
0001
0100
,  // measure 235
0010
0000
1010
0000
0000
0101
0000
0000
,  // measure 236
1001
0000
1000
0100
0010
0001
1000
0100
,  // measure 237
0010
0001
0100
0000
0010
0000
0100
0000
,  // measure 238
0001
0000
0101
0000
0000
1100
0000
0000
,  // measure 239
1010
0000
0011
0000
0000
0101
0000
0000
,  // measure 240
1001
0220
0000
0000
,  // measure 241
0330
1000
0010
0001
,  // measure 242
1000
0000
0001
0100
1000
0000
0001
1000
,  // measure 243
0100
0000
0010
1000
0100
0000
0020
0000
,  // measure 244
0000
0000
0031
0100
0010
0000
0100
0000
,  // measure 245
0001
1000
0100
0000
0010
0000
0001
0000
,  // measure 246
1000
0000
0001
0010
0100
0000
1000
0010
,  // measure 247
0100
0000
1000
0100
0010
0001
1000
0010
,  // measure 248
0100
0001
0020
0000
0000
0000
0030
0000
,  // measure 249
0001
1000
0010
0000
0100
0000
0001
0000
,  // measure 250
1000
0010
0001
0000
0100
0000
0010
0000
,  // measure 251
1000
0010
0100
0000
1000
0000
0001
0000
,  // measure 252
0100
1000
0001
0000
0010
0000
0001
0100
,  // measure 253
0010
1000
0100
1000
0100
0010
0100
0010
,  // measure 254
0110
0000
0010
0001
0010
0001
0011
0000
,  // measure 255
0000
0000
0000
0001
0000
0100
0000
1000
0000
0010
0000
0001
,  // measure 256
0000
0010
0000
2000
0000
0000
0000
0000
0000
0000
0000
0000
,  // measure 257
3000
0000
0001
0010
0100
0000
1000
0010
,  // measure 258
0000
0100
0001
0000
0010
0100
0000
1000
,  // measure 259
0000
0010
1000
0100
0010
0000
0001
0100
,  // measure 260
0000
1000
0100
0000
0010
0001
0000
0010
,  // measure 261
0000
1000
1000
1100
0000
0001
0101
0000
,  // measure 262
1000
0001
0001
1001
1000
0100
0010
1001
,  // measure 263
0000
0010
0110
0000
1000
1001
0000
0001
,  // measure 264
0110
0000
0100
1000
0010
0100
0001
0010
,  // measure 265
0100
1000
0100
0000
0010
0000
0001
0100
,  // measure 266
0001
0000
1100
0000
0010
0001
0000
1100
,  // measure 267
0000
1001
0100
0000
0010
0000
1000
0100
,  // measure 268
1000
0000
0101
0000
0010
1000
0000
1000
,  // measure 269
0001
1001
0100
0000
0010
0000
0001
0100
,  // measure 270
0010
0000
1100
0000
0010
0001
0000
0110
,  // measure 271
0000
1010
0100
0000
1010
0000
1000
0100
,  // measure 272
0010
0000
0101
0000
0010
1000
0000
0100
,  // measure 273
0010
1010
0100
0000
0010
0001
0000
0011
,  // measure 274
0000
0100
1000
0000
0001
0010
0000
1000
,  // measure 275
0100
1000
0010
0000
0100
1000
0000
1100
,  // measure 276
0000
0010
0001
0000
1000
0100
0000
0010
,  // measure 277
0100
1000
0001
0100
0110
0000
1000
0100
,  // measure 278
0110
0000
0001
0100
1010
0000
1000
0100
,  // measure 279
0011
0000
1000
0100
1010
0000
0001
0100
,  // measure 280
0011
0000
1000
0100
0010
0001
0010
0100
,  // measure 281
1001
0000
0010
1000
1010
0000
0010
0001
,  // measure 282
0011
0000
0100
1000
1100
0000
0100
0001
,  // measure 283
0101
0000
0010
1000
0101
0000
0010
0001
,  // measure 284
1010
0000
0100
0000
0010
0001
0000
1000
,  // measure 285
0100
1000
0001
0010
0110
0000
1000
0010
,  // measure 286
0110
0000
0001
0010
1100
0000
1000
0010
,  // measure 287
0101
0000
1000
0010
1100
0000
0001
0010
,  // measure 288
0101
0000
1000
0010
0100
0001
0100
0010
,  // measure 289
1001
0000
0100
1000
1100
0000
0100
0001
,  // measure 290
0101
0000
0010
1000
1010
0000
0010
0001
,  // measure 291
0011
0000
0100
1000
0011
0000
0100
0001
,  // measure 292
1100
0000
0010
0000
0100
0001
0000
1000
,  // measure 293
0000
0010
1000
1100
0000
0001
0101
0000
,  // measure 294
0010
1001
0000
1000
0100
0001
0100
0010
,  // measure 295
0001
1000
1010
0010
0001
0011
0010
1000
,  // measure 296
1010
0010
1000
0100
0001
0100
1000
0010
,  // measure 297
1001
0100
0010
0101
0100
0010
0100
1010
,  // measure 298
0010
1000
1100
0100
0010
0011
0001
0100
,  // measure 299
0110
0001
0110
0100
1000
0110
0100
0001
,  // measure 300
0110
0100
0010
1000
0100
0001
0100
1000
,  // measure 301
0010
0000
1001
0000
0100
0000
0100
0000
0011
0000
0100
0010
0100
1000
0100
0000
,  // measure 302
0011
0000
0100
0000
0100
0000
0100
0000
1010
0000
0100
0001
0100
0000
0010
1000
,  // measure 303
0000
0001
1000
0000
0010
0000
0010
0000
0101
0000
0010
0100
0010
1000
0010
0000
,  // measure 304
0101
0000
0010
0000
0010
0000
0010
0000
1100
0000
0010
0001
0010
0000
0100
1000
,  // measure 305
0000
0001
1000
0000
0001
0000
0100
0000
0110
0000
0000
0000
1000
0000
0100
0000
,  // measure 306
0110
0000
0001
0100
1010
0000
1000
0100
,  // measure 307
0011
0000
1000
0100
1010
0000
0001
0100
,  // measure 308
0011
0000
1000
0100
0010
0001
0010
0100
,  // measure 309
1001
0000
0010
1000
1010
0000
0010
0001
,  // measure 310
0011
0000
0100
1000
1100
0000
0100
0001
,  // measure 311
0101
0000
0010
1000
0101
0000
0010
0001
,  // measure 312
1010
0000
0100
0000
0010
0001
0000
1000
,  // measure 313
0000
0100
1000
1010
0000
0001
0011
0000
,  // measure 314
0100
1001
0000
1000
0010
0001
0010
0100
,  // measure 315
0001
1000
1100
0100
0001
0101
0100
1000
,  // measure 316
1100
0100
1000
0010
0001
0010
1000
0100
,  // measure 317
1001
0010
0100
0011
0010
0100
0010
1100
,  // measure 318
0100
1000
1010
0010
0100
0101
0001
0010
,  // measure 319
0110
0001
0110
0010
1000
0110
0010
0001
,  // measure 320
0110
0010
0100
1000
0010
0001
0010
1000
,  // measure 321
0100
1001
0000
0000
0000
0000
0000
0000
;

//---------------dance-single - ----------------
#NOTES:
     dance-single:
     :
     Easy:
     5:
     0.343,0.604,0.368,0.104,0.000:
0000
0000
0000
0000
,
0000
0000
0000
0000
,
0000
0000
0000
0000
,
0000
0000
0000
0000
,
1000
0010
0100
1000
,
0001
0001
1000
1000
,
0001
0010
0100
1000
,
0020
0000
0000
0130
,
1000
0010
0100
1000
,
1000
0001
0001
0010
,
0100
0001
0010
1000
,
1000
0001
0001
0010
,
0100
0010
0001
0100
,
0100
0010
0010
0001
,
0100
0001
0010
1000
,
0001
0010
0001
0001
,
0010
0100
0010
1001
,
0100
1001
0010
0100
,
0001
0100
1000
0110
,
0001
0110
1000
0010
,
0100
0001
0010
1100
,
0010
0101
0010
0100
,
1000
0100
0010
0100
,
0100
0010
1000
0001
,
0010
0001
1100
0001
,
1100
0010
0001
0100
,
0001
1000
0101
1000
,
0101
0010
0001
0100
,
1000
0010
1001
0100
,
1001
0010
0100
1000
,
0100
0001
1000
0010
,
0001
1010
0101
0010
,
1000
0100
1000
0001
,
0010
1001
0110
0001
,
1000
0010
0100
0001
,
0010
0011
1100
0010
,
0100
1000
0010
1000
,
0001
0110
1001
0010
,
0001
0100
0200
0001
,
0310
1000
2000
0010
,
3100
0010
0020
0100
,
0031
0100
0200
1000
,
0301
1000
2000
0010
,
3001
0100
0200
0010
,
0301
0010
0020
0001
,
0130
2000
0000
0002
,
3003
0010
0020
0100
,
0031
1000
2000
0100
,
3001
0100
0200
0010
,
0301
0010
0020
0100
,
0031
1000
2000
0010
,
3100
0010
0020
0001
,
0130
1000
2000
0010
,
3001
0100
0010
0100
,
1001
0010
0001
1000
,
0010
0100
1001
0010
,
1001
0100
0001
0010
,
0001
1000
0101
0010
,
1100
0010
0001
0100
,
1000
0001
0110
1000
,
0110
0001
1000
0010
,
0100
1000
0010
0100
,
0001
0001
0010
0000
0010
0000
0010
0000
,
0000
0000
0000
0000
,
0000
1000
1000
1000
,
0000
0000
0000
0000
,
0000
0100
0100
0100
,
0000
0000
0000
0000
,
0000
0001
0001
0001
,
0000
0000
0000
0000
,
0000
0010
0010
0010
,
0000
0001
0001
0001
,
0000
0100
0100
0100
,
0000
1000
1000
1000
,
0000
0010
0000
0110
,
0000
1000
0000
1001
,
0000
0100
0110
0010
,
0000
0001
1001
1000
,
0000
0000
0000
0000
,
0000
0010
0000
0000
,
0000
1001
0000
0000
,
0000
1001
0000
0000
,
0000
0000
0000
0000
,
0000
0100
0000
0000
,
0000
1001
0000
0000
,
0000
1001
0000
0000
,
0000
0001
0000
0000
,
0000
2000
0000
0000
,
0000
0010
0000
0100
,
0000
3010
0000
0000
,
0000
1000
0000
0000
,
0000
0002
0000
0000
,
0000
0010
0000
0100
,
0000
0013
0000
0000
,
0000
1000
0100
0001
,
0000
0001
0010
1000
,
0000
0001
0100
1000
,
0000
1000
0010
0001
,
0000
0000
0000
0010
,
0000
1001
1001
1001
,
0000
0100
0000
0100
,
0000
1001
1001
1001
,
0000
1000
0001
1000
,
0002
0010
0100
0013
,
0000
0001
1000
0001
,
2000
0010
0100
3010
,
0000
0010
0000
0100
,
0000
0110
0000
0000
,
0000
1001
0000
1001
,
0000
1001
0000
0000
,
0000
0100
0000
0010
,
0000
0110
0000
0000
,
0000
1001
0000
1001
,
0000
1001
0000
0000
,
0000
1001
0000
1001
,
0000
1001
0000
1000
,
0000
1000
0000
0100
,
0000
0001
0000
0000
,
0000
1001
0000
1001
,
0000
1001
0000
0001
,
0000
0001
0000
0100
,
0000
1000
0000
0000
,
0000
0010
0000
1000
,
0000
0100
0000
0000
,
0000
0001
0000
0010
,
0000
0001
0000
0000
,
0000
0100
0000
1000
,
0000
0010
0000
0000
,
0000
0100
0000
0100
,
0000
0010
0000
0010
,
0000
1000
0000
0100
,
0000
1000
0000
0000
,
0000
0010
0000
0100
,
0000
0001
0000
0000
,
0000
0010
0000
0001
,
0000
0001
0000
0001
,
0000
1000
0000
1000
,
0000
1000
0000
0010
,
0000
1000
0000
0000
,
0000
0001
0000
0010
,
0000
0100
0000
0000
,
0000
1000
0000
0001
,
0000
0001
0000
0001
,
0000
1000
0000
1000
,
0000
1001
0000
0002
,
0000
0103
0000
0000
,
0000
0000
0000
0001
,
0000
2000
0000
3100
,
0000
0000
0000
1000
,
0000
0002
0000
0103
,
0000
0100
0000
0010
,
0000
0100
0000
0010
,
0000
0001
0000
0010
,
0000
0001
0000
0000
,
0000
0100
0000
0010
,
0000
1000
0000
0000
,
0000
0100
0000
1000
,
0000
1000
0000
1000
,
0000
0001
0000
0001
,
0000
0001
0000
0100
,
0000
0001
0000
0000
,
0000
1000
0000
0100
,
0000
0010
0000
0000
,
0000
0001
0000
1000
,
0000
1000
0000
1000
,
0000
0001
0000
0001
,
0000
1001
0000
0000
,
0000
0100
0000
0000
,
0000
1000
0000
0010
,
0000
0001
0000
0010
,
0000
1000
0000
0000
,
0000
0001
0000
0000
,
0000
1000
0000
0100
,
0000
0001
0000
0100
,
0000
1000
0000
1000
,
0000
1000
0000
0000
,
0000
0001
0000
0001
,
0000
0001
0000
1000
,
0000
0100
0000
0100
,
0000
0100
0000
0000
,
0000
0010
0000
0010
,
0000
0010
0000
0001
,
0000
2000
0000
0000
,
0000
3000
0000
0000
,
0000
0000
0000
0000
,
0000
0000
0000
0000
,
0000
1000
0000
0100
,
0000
1000
0000
0000
,
0000
0010
0000
0100
,
0000
0001
0000
0000
,
0000
0010
0000
0001
,
0000
0001
0000
0001
,
0000
1000
0000
1000
,
0000
1000
0000
0010
,
0000
1000
0000
0000
,
0000
0001
0000
0010
,
0000
0100
0000
0000
,
0000
1000
0000
0010
,
0000
0110
0000
0000
,
0000
1001
0000
0000
,
0000
0001
1000
0100
,
0001
0000
0010
0000
,
0000
1000
0001
0010
,
1000
0000
0100
0000
,
0000
2000
3000
0002
,
0003
1000
0100
0010
,
0001
2000
3000
0002
,
0003
0010
0001
0100
,
0010
1000
0010
0000
,
0100
0000
1000
0000
,
0001
1000
0001
0000
,
0010
0000
0100
0000
,
1000
0001
0010
0000
,
0100
0000
0001
0000
,
1000
0010
0100
0000
,
0001
0000
2000
0000
,
3000
1000
0100
0001
,
1000
0020
0000
0130
,
0100
0002
0000
0003
,
0001
0020
0000
0030
,
0000
0001
0010
1000
,
0001
0100
0020
0000
,
0000
1030
0000
0000
,
1000
0100
0010
0001
,
0000
0010
1000
0001
,
0100
2000
0000
3100
,
0100
0000
0020
0000
0000
0000
0000
0030
,
0010
0002
0000
0003
,
0000
0001
1000
0001
,
0010
0100
2000
0000
,
3000
0020
0000
0030
,
0100
0001
0100
1000
,
0001
1001
0000
0000
,
0000
0110
0000
0000
,
0000
1001
0000
0000
,
0000
0110
0000
0000
,
0000
1000
0010
0001
,
0100
1000
0000
0001
,
0100
0010
0000
0100
,
0000
0002
0000
0003
,
0000
1000
0010
0100
,
0001
0010
0000
0100
,
0000
0010
0001
0100
,
0001
2000
0000
3010
,
0000
0010
1000
0001
,
0100
1000
0000
0001
,
0000
0010
0000
0100
,
0000
1000
1000
0100
,
0010
0001
1000
0010
,
0001
1000
0100
0010
,
1000
0020
0000
0030
,
0010
0200
0000
0300
,
0100
0001
1000
0001
,
0010
0000
0000
1000
,
0000
0010
0000
0100
,
0000
0110
0000
0000
,
0000
1000
0001
0000
,
0100
0000
0010
0000
,
0100
0001
0010
0000
,
1000
0000
0010
0000
,
0001
0000
1000
0000
1001
0000
0000
1000
,
0000
0000
0001
0000
0000
0100
0000
0100
,
0000
0020
0000
0000
,
0000
0000
0030
0000
0000
0010
0000
0000
,
0000
1000
0001
0000
,
0000
0000
0000
0000
,
0000
0001
0010
1001
,
0000
0000
0100
0000
0000
0100
0000
0011
,
0000
0100
1000
1010
,
0000
0000
0001
0000
0000
1000
0000
1001
,
0000
0100
0001
0011
,
0000
1000
0001
1001
,
0000
0000
0100
0000
0000
0010
0000
0000
,
1100
0000
0100
0000
0000
0010
0000
0000
,
0101
0000
0010
0000
0000
0100
0000
0000
,
1010
0000
0010
0000
0000
0100
0000
0000
,
0101
1000
1000
1010
,
0000
0001
0001
0011
,
0000
1000
0100
1010
,
0000
0001
0100
0011
,
0110
0001
0001
0101
,
0000
1000
1000
1100
,
0000
0001
0010
0101
,
0000
1000
0010
1100
,
0110
1000
1010
0001
,
1010
0001
0011
1000
,
0011
1000
1100
0001
,
1100
0001
0101
1000
,
0101
1000
1010
0100
,
0011
0001
0011
0100
,
1010
0100
1001
0010
,
1001
0000
0100
0000
0000
0110
0000
0010
,
0000
1000
0000
0100
0000
1010
0000
0000
,
0000
1100
0000
0000
1010
0000
1001
0000
,
0001
0100
0011
0000
,
0101
0000
0000
0011
0000
1001
0000
0100
,
0000
1000
0000
0100
0000
1010
0000
0000
,
0000
1100
0000
0000
1010
0000
1001
0000
,
0000
0110
0000
0000
0101
0000
0000
0110
,
0000
0000
1100
0000
0000
0110
0000
1001
,
0000
0000
0100
0000
0010
0010
0100
0001
,
1001
0000
0100
0000
0010
0010
0100
1000
,
1001
0000
0010
0000
0100
0100
0010
0001
,
1001
0000
0010
0000
0100
0100
0010
1000
,
1001
0001
0101
1000
,
0101
1000
1100
0001
,
1100
0001
0011
1000
,
0011
1000
1010
0001
,
1010
0001
0101
0010
,
1100
1000
1100
0010
,
0101
0010
1001
0100
,
1001
0000
0010
0000
0000
0110
0000
0100
,
0000
0001
0000
0010
0000
0101
0000
0000
,
0000
0011
0000
0000
0101
0000
1001
0000
,
1000
0010
1100
0000
,
1010
0000
0000
1100
0000
1001
0000
0010
,
0000
0001
0000
0010
0000
0101
0000
0000
,
0000
0011
0000
0000
0101
0000
1001
0000
,
0000
0110
0000
0000
1010
0000
0000
0110
,
0000
0000
0011
0000
0000
0110
0000
1001
,
0000
0110
0000
0000
0000
0000
0000
0000
;

//---------------dance-single - ----------------
#NOTES:
     dance-single:
     :
     Medium:
     7:
     0.503,0.793,0.538,0.087,0.045:
0000
0000
0000
0000
,
0000
0000
0000
0000
,
0000
0000
0000
0000
,
0000
0000
0000
0000
,
0001
1000
0100
0000
0010
0000
0001
0000
,
0100
1000
0010
0001
,
1000
0001
0100
0000
0010
0000
1000
0000
,
0200
0000
0000
0000
0000
0000
0310
0001
,
0010
0000
0100
0000
1000
0000
0001
0100
,
0001
0000
1000
0100
1000
0000
0010
0100
,
0001
0000
1000
0000
0100
0000
0010
1000
,
0100
0000
0010
0001
0100
0000
0001
0010
,
0001
0000
0100
0000
1000
0000
0100
0001
,
0010
0000
0100
1000
0001
0000
0100
0010
,
0100
1000
0100
0001
,
0010
0000
1001
0000
0100
0010
0100
0000
,
1000
0010
0110
0101
,
0110
0000
1010
0000
0100
0001
0010
0000
,
0001
0010
1100
0101
,
0011
0000
1100
0000
0001
0010
0100
0000
,
0010
0100
1010
0011
,
0110
0000
0101
0000
1000
0001
0010
0000
,
1000
0000
0010
0000
1001
0000
0100
0100
,
0100
0000
1000
0001
1000
0000
0001
0000
,
0100
0000
0010
1000
0010
0000
0001
0010
,
0001
0000
0100
1000
0001
0000
1000
0000
,
0100
0000
0010
0100
0010
0000
0001
1000
,
0010
0000
0100
0001
1000
0000
0100
0000
,
0010
0000
0001
1000
0001
0000
0100
0010
,
0100
0000
0001
1000
0010
0000
1000
0000
,
0010
0000
1000
0001
1000
0000
0100
0000
,
1000
0001
0000
0010
1000
0000
0010
0000
,
0100
0001
0000
0010
0001
0000
1000
0000
,
0100
0010
0000
0010
0100
0000
0001
0000
,
1001
0000
0100
0001
0010
0000
1000
0000
,
0001
0100
0000
0010
0001
0000
0010
0000
,
1000
0001
0000
0100
0010
0000
0001
0000
,
1000
0010
0000
1000
0001
0000
0100
0000
,
1001
0000
0100
1000
0020
0000
1030
0000
,
0001
0000
0100
0010
0002
0000
0103
0000
,
0010
0000
0001
1000
0200
0000
0310
0000
,
1000
0000
0010
0001
0020
0000
0130
0000
,
0001
0000
0100
1000
0002
0000
0103
0000
,
0001
0000
0010
0100
0020
0000
1030
0000
,
0001
0000
0100
1000
0002
0000
0103
0000
,
0010
0000
0100
0000
0001
1000
0100
0000
,
1001
0000
0010
0000
0101
0000
0010
0100
,
0002
0000
0013
0000
1100
0000
0001
1000
,
0020
0000
0130
0000
1001
0000
0100
0001
,
0200
0000
0310
0000
1100
0000
0010
1000
,
0002
0000
0013
0000
1001
0000
0100
0010
,
0200
0000
1300
0000
0110
0000
0010
0001
,
2000
0000
3010
0000
1100
0000
0010
1000
,
0100
1000
0010
0001
,
1000
0000
0100
0010
0010
0100
0010
0000
,
1000
0011
1100
1010
,
0101
0000
0010
0100
0100
0010
1000
0000
,
0001
1100
1001
0101
,
1001
0000
0001
0100
0100
0001
0010
0000
,
0001
0110
0101
0110
,
1100
0000
0010
1000
1000
0010
1000
0000
,
0010
0000
0001
0000
0100
0000
0010
0001
,
1000
0000
0010
0000
0010
0000
0000
0010
0000
0000
0000
0000
1000
0000
0000
1000
,
0000
0000
0000
0000
0100
0000
0000
0100
0000
0000
0000
0000
0001
0000
0000
0001
,
0000
0000
0000
0000
0010
0000
0000
0010
0000
0000
0000
0000
0001
0000
0000
0001
,
0000
0000
0000
0000
0100
0000
0000
0100
0000
0000
0000
0000
1000
0000
0000
1000
,
0000
0000
0000
0000
0010
0000
0000
0010
0000
0000
0100
0000
1000
0000
0000
1000
,
0000
0000
0001
0000
0100
0000
0000
0100
0000
0000
0010
0000
0001
0000
0000
0001
,
0000
0000
1000
0000
0010
0000
0000
0010
0000
0000
0100
0000
0001
0000
0000
0001
,
0000
0000
1000
0000
0100
0000
0000
0100
0000
0000
0010
0000
1000
0000
0000
1000
,
0000
0000
0001
0000
0010
0000
0000
0010
0000
0000
0000
0000
1000
0000
0000
1000
,
0000
0000
0000
0000
0100
0000
0000
0100
0000
0000
0000
0000
0001
0000
0000
0001
,
0000
0000
0000
0000
0010
0000
0000
0010
0000
0000
0000
0000
0001
0000
0000
0001
,
0000
0000
0000
0000
0100
0000
0000
0100
0000
0000
0000
0000
1000
0000
0000
1000
,
0000
0000
0000
0000
0010
0000
0000
0100
0000
0000
0010
0000
0001
0000
0000
1000
,
0000
0000
0001
0000
0100
0000
0000
0010
0000
0000
0100
0000
1000
0000
0000
0001
,
0000
0000
1000
0000
0110
0000
0000
0110
0000
0000
0000
0000
1001
0000
0000
1001
,
0000
0000
0000
0000
0110
0000
0000
0110
0000
0000
0000
0000
1001
0000
0000
1001
,
0000
0000
0000
0100
,
0000
1000
0000
0100
,
0000
0001
0000
1100
,
0000
0101
0000
0000
,
0000
1000
0000
0100
,
0000
0001
0000
0100
,
0000
1000
0000
0101
,
0000
1100
0000
0000
,
0000
0001
0000
0100
,
0000
1000
0000
0100
,
0000
0011
0000
0100
,
0000
0001
0000
0100
,
0000
1000
0000
0100
,
0000
0001
0000
0100
,
0000
1010
0000
0100
,
0000
1000
0000
0100
,
0000
0000
0001
0100
1000
0000
0001
0100
,
1000
0000
1000
0100
0001
0000
1000
0100
,
0001
0000
1000
0010
0001
0000
1000
0010
,
0001
0000
0001
0010
1000
0000
0001
0010
,
1000
0000
0100
0001
,
0100
1000
0101
0001
,
1100
0001
0100
1000
,
0100
0001
1100
1000
,
0101
0000
0000
0000
1000
0000
0000
0001
0000
0000
0100
0000
0010
0000
0000
0000
,
0100
1000
0101
0101
,
1100
0000
0000
0000
0001
0000
0000
1000
0000
0000
0100
0000
0010
0000
0000
0000
,
0100
0001
1100
0101
,
0101
0000
1000
0000
0000
0001
0000
0000
,
0100
0000
0010
0000
0000
0100
0000
0000
,
0000
0001
0000
1100
,
0000
1100
0000
0101
,
0000
0000
0001
0000
0000
1000
0000
0000
,
0100
0000
0010
0000
0000
0100
0000
0000
,
0000
1000
0000
0101
,
0000
0101
0000
1100
,
0000
0000
1000
0000
0000
0001
0000
0000
,
0100
0010
0100
0000
0000
0010
0000
0000
,
0010
0001
0000
1100
,
0000
1100
0000
0101
,
0000
0000
0001
0000
0000
1000
0000
0000
,
0100
0010
0100
0000
0000
0010
0000
0000
,
0010
1000
0000
0101
,
0000
1000
0000
0101
,
0000
0000
0000
0000
,
0000
0000
0000
0000
,
0000
0000
0000
0000
,
0000
0000
0000
0000
,
0000
0010
0000
0010
,
0000
1000
0000
0100
,
0010
0002
0000
0103
,
0000
2000
0000
3100
,
0000
0010
1000
0100
,
0000
0100
0000
0100
,
0000
0000
0010
0000
0000
0001
0000
0000
,
1000
0000
0001
0000
0000
1000
0000
0000
,
0010
0100
0000
0100
,
0001
0001
0001
0100
,
0000
0010
1000
1000
,
1000
0010
0000
0100
,
0000
0001
0000
0001
,
0000
0000
0010
0000
0000
0100
0000
0000
,
1000
0000
1000
0000
0000
0100
0000
0000
,
0010
0001
0000
1000
,
0100
0100
0100
1000
,
0000
0001
0100
0100
,
0100
0001
2000
0000
,
0000
0000
0000
3100
,
1000
0001
0200
0000
,
0000
0000
0000
0301
,
1000
0100
0020
0000
,
0000
0000
0000
0031
,
0100
0010
0010
0010
,
0000
1000
1000
1000
,
0000
0100
0001
0010
,
0000
0010
0000
0010
,
0000
0000
0100
0000
0000
1000
0000
0000
,
0001
0000
1000
0000
0000
0001
0000
0000
,
0100
0010
0000
0010
,
1000
1000
1000
0010
,
0000
0100
0001
0001
,
0001
0100
0000
0010
,
0000
1000
0000
1000
,
0000
0000
0100
0000
0000
0010
0000
0000
,
0001
0000
0001
0000
0000
0010
0000
0000
,
0100
1000
0000
0001
,
0010
0010
0010
0001
,
0000
1000
0010
0010
,
0010
2000
0000
0100
,
0000
0001
0000
3100
,
0000
0000
0001
0000
0000
1000
0000
0000
,
0010
0000
0010
0000
0000
0100
0000
0000
,
0001
0002
0000
0010
,
0000
1000
0000
0013
,
0000
0001
1000
0100
,
0000
1000
0001
0001
,
0001
0101
0000
0011
,
0000
0101
0000
0000
,
0000
1010
0000
1100
,
0000
0000
1010
0000
0000
1000
0000
0000
,
0001
0011
0000
0101
,
0000
0011
0000
0000
,
0000
0210
0000
2300
,
0000
3002
0000
0103
,
0000
0220
0000
0000
,
0000
0000
0000
0000
,
0000
0000
0000
0000
,
0000
0000
0000
0330
,
0000
0010
1000
0100
,
0000
0100
0000
0100
,
0000
0000
0010
0000
0000
0001
0000
0000
,
0100
0000
0001
0000
0000
1000
0000
0000
,
0100
0010
0000
0001
,
0100
0100
0100
0001
,
0000
1000
0100
0100
,
0100
1000
0000
0010
,
0000
0100
0000
0100
,
0000
0000
0001
0000
0000
0100
0000
0000
,
1000
0000
1000
0000
0000
0100
0000
0000
,
0001
1000
0000
0100
,
0001
0000
1001
0000
0000
0100
0000
0000
,
1001
0000
0000
0010
0000
0000
1000
0000
,
0001
0001
0100
0010
,
1000
0000
0001
0000
1000
0000
0010
0001
,
0100
0010
1000
0001
,
0100
0000
0010
0000
1000
0000
0100
0001
,
0010
0100
1000
0100
,
0010
0000
0001
0000
0100
0000
0010
1000
,
0001
0000
0010
0001
1000
0000
0100
1000
,
0010
0000
0100
0000
0001
0000
1000
0100
,
0010
0000
0001
0100
0001
0000
0000
1000
,
0000
0000
0100
0000
0000
0001
0000
0100
,
0000
1000
0000
0000
1010
0000
0000
1001
,
0000
0000
0011
0000
0000
1000
0000
0010
,
0000
0001
0000
0100
0010
0000
0000
1000
,
0000
0000
0001
0000
0000
0010
0000
0001
,
0000
0100
0000
0000
0110
0000
0000
1010
,
0000
0000
1001
0000
0000
0101
0000
0000
,
0000
0000
1000
0100
0001
0000
0100
0000
,
1000
0010
0100
0001
,
0100
0000
0010
0010
0010
0000
0000
0000
,
0100
0001
1000
0001
,
1000
0000
0100
0010
0001
0000
0100
0000
,
0010
1000
0001
0100
,
1000
0000
0100
0100
0100
0000
0000
0000
,
0010
0000
1000
0100
1000
0000
0001
0000
,
0010
0000
0001
0100
0010
0000
1000
0000
,
0001
0100
0010
0001
,
1000
0000
0010
0010
0010
0000
0000
0000
,
0100
0001
0010
1000
,
0001
0000
0100
0010
1000
0000
0001
0000
,
0100
0010
0001
0100
,
0010
0000
1000
0100
1000
0000
1000
0010
,
1000
0000
0001
0100
0010
0000
1000
0000
,
0001
0000
0020
0000
0000
0001
0000
0000
,
0130
0000
1000
0001
0100
0000
0010
0000
,
1000
0000
0002
0000
0000
0100
0000
0000
,
1003
0000
0010
1000
0001
0000
0100
0000
,
0010
1000
0100
0000
1000
0000
0010
0000
,
0001
0000
1000
0000
0000
0010
0000
0000
,
0100
0000
0001
0000
0000
0010
0000
0000
,
0100
0220
0000
0330
,
0000
0000
0001
0100
1000
0000
0100
0000
,
0010
0000
1000
0100
0010
0000
1000
0100
,
0010
0001
0001
0100
,
0010
1000
1000
0001
,
0010
0001
0100
0000
1000
0000
0010
0000
,
1000
0000
0001
0100
1000
0000
0001
0100
,
1000
0010
0100
0001
,
0010
0220
0000
0330
,
1000
0001
0200
0000
0000
0000
0300
0000
,
0001
1000
0020
0000
0000
0000
0030
0000
,
0100
0001
1000
0000
0100
0000
0100
0000
,
1000
0010
0100
0000
0001
0000
1000
0000
,
0100
0020
0000
0000
,
0032
0000
0000
0103
,
0000
0000
0001
0100
0010
1000
0100
0010
,
1000
0001
0200
0000
0000
0000
0300
0000
,
0000
0000
0010
0001
0010
0000
1000
0000
,
0000
0010
0000
0000
0100
0000
0001
0000
,
0100
0000
0000
0010
0000
0000
1000
0000
,
0000
0001
0000
0000
0010
0000
0100
0000
,
1000
0000
1000
1100
0000
0001
0101
0000
,
0010
0110
0000
0001
0000
0110
0000
1000
,
0000
0100
0011
0000
0100
1010
0000
0100
,
1010
0000
0100
0011
0000
1001
0000
1100
,
0000
0011
0100
0000
0001
0000
0101
0000
,
0001
0000
0100
0000
0010
0100
0000
1000
,
0000
1100
0100
0000
1000
0000
1010
0000
,
1000
0000
0010
0000
0100
0010
0000
0001
,
0101
0010
0001
0011
,
0001
0000
0010
0000
0100
0010
0000
1000
,
0000
1010
0010
0000
0001
0000
0101
0000
,
0001
0000
0100
0000
0010
0100
0000
1000
,
1010
0000
0100
0000
0010
0001
0000
0000
,
1100
0000
0100
0000
0010
1000
0000
0001
,
0101
0000
0010
0000
0100
1000
0000
0000
,
0011
0000
0010
0000
0100
0001
0000
1000
,
1010
0000
0101
0000
0110
0000
0001
0100
,
1001
0000
1100
0000
0110
0000
1000
0100
,
1001
0000
0110
0000
1001
0000
0010
0100
,
1001
0000
0010
1000
1010
0000
0001
0100
,
1001
0000
1010
0000
0110
0000
0001
0100
,
1010
0000
0101
0000
0110
0000
1000
0100
,
0011
0000
0110
0000
1001
0000
0010
0100
,
1001
0000
0100
0000
1000
1010
0000
0001
,
0101
0000
1010
0000
0110
0000
1000
0010
,
1001
0000
0011
0000
0110
0000
0001
0010
,
1001
0000
0110
0000
1001
0000
0100
0010
,
1001
0000
0100
0001
0101
0000
1000
0010
,
1001
0000
0101
0000
0110
0000
1000
0010
,
0101
0000
1010
0000
0110
0000
0001
0010
,
1100
0000
0110
0000
1001
0000
0100
0010
,
1001
0000
0010
0000
0001
0101
0000
1000
,
0000
1010
1000
1100
0000
0001
0101
0000
,
1000
1100
0000
0100
0010
0000
0001
0000
,
1000
0010
1010
0000
0010
0011
0000
0010
,
1010
0000
0100
0010
0000
1001
0000
0110
,
0000
1001
0000
1100
0000
0010
0100
0000
,
0010
0001
0000
0110
0000
1000
0000
1001
,
0000
1000
1100
0000
0001
0101
0000
1000
,
1010
0000
0001
0011
0000
0110
0000
0010
,
0000
0000
1001
0000
0100
0000
0000
0000
1010
0000
0100
0001
0100
0000
1100
0000
,
1001
0000
0000
0000
0100
0000
0000
0000
0011
0000
0100
1000
0100
0000
0101
0000
,
0001
0000
0100
0000
0010
0000
0000
0000
1100
0000
0010
0001
0010
0000
1010
0000
,
1001
0000
0000
0000
0010
0000
0000
0000
0101
0000
0010
1000
0010
0000
0011
0000
,
0001
0010
1100
0000
0110
0000
1000
0100
,
1001
0000
0101
0000
0110
0000
0001
0100
,
1001
0000
0110
0000
1001
0000
0010
0100
,
1001
0000
0010
0001
0011
0000
1000
0100
,
1001
0000
0011
0000
0110
0000
1000
0100
,
0011
0000
1100
0000
0110
0000
0001
0100
,
1010
0000
0110
0000
1001
0000
0010
0100
,
1001
0000
0100
0000
0001
0011
0000
1000
,
0000
1100
1000
1010
0000
0001
0011
0000
,
1000
1010
0000
0010
0100
0000
0001
0000
,
1000
0100
1100
0000
0100
0101
0000
0100
,
1100
0000
0010
0100
0000
1001
0000
0110
,
0000
1001
0000
1010
0000
0100
0010
0000
,
0100
0001
0000
0110
0000
1000
0000
1001
,
0000
1000
1010
0000
0001
0011
0000
1000
,
1100
0000
0001
0101
0000
0110
0000
0100
,
0000
1001
0000
0000
0000
0000
0000
0000
;
