#TITLE:Beatmachine Mix;
#SUBTITLE:(DDR ULTRAMIX 2);
#ARTIST:Nightime;
#TITLETRANSLIT:;
#SUBTITLETRANSLIT:;
#ARTISTTRANSLIT:;
#CREDIT:;
#BANNER:ULTRAMIX 2.png;
#BACKGROUND:ULTRAMIX2-bg.PNG;
#LYRICSPATH:;
#CDTITLE:./CDTITLES/DANCE DANCE REVOLUTION ULTRAMIX.PNG;
#MUSIC:ULTRAMIX2.mp3;
#OFFSET:-1.611;
#SAMPLESTART:184.290;
#SAMPLELENGTH:24.000;
#SELECTABLE:YES;
#BPMS:0.000=150.000,196.000=160.000,204.000=170.000,212.000=180.000,220.000=190.000,228.000=97.000,252.000=389.999,268.000=97.500,367.500=389.998,382.500=195.000,448.000=122.000,480.000=244.000,504.000=122.000,536.000=244.000,560.000=122.000,624.000=260.000,628.000=270.000,632.000=280.000,636.000=290.000,640.000=299.999,644.000=324.999,648.000=175.000,808.000=87.499,840.000=175.000,1144.000=350.000,1214.000=175.000;
#STOPS:504.000=1.840
,560.000=2.000
;
#BGCHANGES:;

//---------------dance-single - ----------------
#NOTES:
     dance-single:
     :
     Easy:
     5:
     0.363,0.580,0.280,0.187,0.001:
0000
0000
0000
0000
,
0000
0000
0000
0000
,
0000
0000
0000
0000
,
0000
0000
0000
0000
,
0001
0000
1000
0000
,
0001
0000
1000
0001
,
1000
0001
0010
0001
,
0010
0001
1000
0010
,
1000
0010
0100
0001
,
0001
1000
1000
0001
,
0100
1000
0100
0001
,
1000
0100
0001
0100
,
1000
0010
0001
0010
,
1000
0001
0001
1000
,
1000
0100
0100
0010
,
0001
0001
1000
1000
,
0001
0000
0000
0000
,
1000
1000
0000
0000
0000
0000
0000
0000
,
0001
0001
0000
0000
0000
0000
0000
0000
,
0010
0010
0000
0000
0000
0000
0000
0000
,
0100
0100
0000
0000
1000
1000
0000
0000
,
0001
0001
0000
0000
1000
1000
0000
0000
,
0001
0001
0000
0000
0010
0010
0000
0000
,
0100
0100
0000
0000
1000
1000
0000
0000
,
0001
1000
0010
0010
,
1000
0000
0100
0000
,
0001
0000
0100
0000
,
1000
0000
0100
0000
,
0001
0000
0100
0100
,
1000
0000
0100
0000
,
0001
0000
0100
0100
,
1000
0000
0100
0000
,
0001
0000
0100
0100
,
1000
1000
0000
0000
,
0001
0001
0100
0100
,
1001
1001
0100
0000
,
1000
0001
0100
0100
,
0001
1000
0100
0100
,
1000
0001
0100
0100
,
1001
1001
0100
0100
,
0010
1000
0100
0001
,
0010
1000
0100
0001
,
0010
1000
0100
0001
,
0010
1000
0100
0001
,
0010
1000
0100
0001
,
0010
0001
0100
1000
,
0010
0001
0100
1000
,
0010
0001
0100
1000
,
0010
0001
0100
1000
,
0010
1000
0100
0001
,
0010
1000
0100
0001
,
0010
1000
0100
0001
,
0010
1000
0100
0001
,
0010
1000
0100
0001
0100
1000
0010
0001
,
0010
1000
0100
0001
0100
1000
0010
0001
,
0010
1000
0100
0001
,
0010
1000
0100
0001
,
0010
0000
0001
0100
,
0001
0000
1000
0100
,
1000
0000
0001
0010
,
0001
0000
1000
0010
,
1000
0000
0001
0100
,
0001
0000
1000
0001
,
2002
0000
0000
0000
,
0000
0000
0000
0000
,
0000
0000
0000
0000
,
3003
0000
0000
0000
,
0010
0200
0300
1000
,
0010
0200
0300
0001
,
0100
0020
0030
1000
,
0100
0020
0030
0001
,
0010
0200
0300
1000
,
0010
0200
0300
0001
,
0100
0020
0030
1000
,
0100
0020
0030
0001
,
2000
0001
0001
3000
,
0002
1000
1000
0003
,
2000
0001
0001
3000
,
0002
1000
1000
0003
,
0020
0100
0100
0030
,
0200
0010
0010
0300
,
0020
0100
0100
0030
,
0010
0100
0010
0100
,
1000
0001
1000
0001
,
1000
0100
1000
0100
,
0010
0001
0010
0001
,
0100
0001
0100
0001
,
0100
0010
1000
0100
,
0010
0001
0100
0010
,
1000
0001
0100
0010
,
1000
0100
0010
0001
,
1000
0010
1000
0001
,
2000
0000
0000
0000
,
0000
0000
0000
0000
,
0000
0000
0000
3000
,
0000
0000
0100
0000
,
0200
0000
0300
0000
,
0001
0000
1000
0000
,
0020
0000
0030
0000
,
1000
0000
0100
0000
,
0020
0000
0030
0000
,
0001
0000
1000
0000
,
0200
0000
0300
0000
,
0001
0100
0001
0100
,
0020
0000
1030
0000
,
1000
0000
0100
0000
,
0020
0000
0031
0000
,
0001
0000
0010
0000
,
0200
0000
1300
0000
,
0001
0000
0100
0000
,
0020
0000
1000
0030
,
1000
0000
0110
0000
,
1001
0100
1001
0100
,
0001
0001
2000
3000
,
0001
1100
0001
1100
,
0001
0010
0200
0300
,
0001
0000
0001
0000
,
1000
0000
1000
0000
,
0020
0000
0000
0030
,
0200
0000
0000
0300
,
0010
1000
0100
0001
,
0010
1000
0100
0001
,
0100
1000
0010
0001
,
0100
1000
0010
0001
,
1001
0000
0110
0000
,
1001
0000
0110
0000
,
1001
0010
1000
0100
,
0010
0001
0200
0300
,
0010
0001
0100
1000
,
2000
0000
0000
3000
,
0002
0103
0002
0103
,
2200
0000
0000
3300
,
0002
0000
2003
3000
,
0001
0100
1000
0100
,
0010
0001
0100
1000
,
0100
0001
0100
1000
,
0100
0010
0100
0001
,
0100
0010
0100
1000
,
0100
0010
0100
0001
,
0100
0000
0000
0000
0000
0000
0000
0000
0000
0000
0000
0100
0000
0000
0000
0000
0000
0000
0000
0000
0100
0000
0000
0000
0000
0000
0000
0000
0000
0000
0000
0000
,
1001
0000
0100
0000
,
0002
0000
0000
1003
,
0000
1000
0000
0001
,
0200
0000
0000
0300
,
0010
0100
0010
0100
,
0002
0000
0000
0003
,
1000
0100
0001
0010
,
2100
0001
0100
3001
,
0110
0001
0110
1000
,
0110
0001
2000
3001
,
1000
0100
0001
0100
,
1001
1001
2002
3003
,
0010
0010
0100
0100
,
0010
0100
2002
3003
,
0010
1000
0001
1000
,
0101
1100
0202
0303
,
0010
0001
0100
1000
,
0010
0001
0100
1000
,
0100
0001
0010
1000
,
0100
0001
1000
0100
,
1000
0000
0001
0000
,
2002
0000
0000
3003
,
1001
0000
0001
0000
,
1000
0010
1000
0000
,
0001
0010
0001
0000
,
0010
0100
0001
0100
,
0001
1001
1000
0000
,
1000
0100
1000
0000
,
0010
0100
0010
0000
,
0100
0020
0000
0000
,
0030
1001
0100
0000
,
0010
0100
0010
0000
,
1000
0001
1000
0000
,
0010
0100
0001
0100
,
0001
1001
1000
0000
,
1000
0100
0010
0000
,
0001
0100
0010
0000
,
0010
0100
1000
0100
,
1000
1001
0001
0000
,
1000
0100
1000
0000
,
0010
0001
0010
0000
,
0010
0100
1000
0100
,
1000
1001
0001
0000
,
0001
0100
0010
0000
,
0010
1000
0001
0000
,
0001
1000
1000
0001
,
0001
1001
0000
1000
,
0000
1001
0000
0001
,
0000
1001
0000
0010
,
0000
1000
0010
1000
,
0010
0001
0000
1000
,
0000
0010
0000
0100
,
0000
1001
0000
0100
,
0000
0110
0000
0001
,
1000
0001
0100
0000
,
0001
0100
0001
0000
,
1000
0001
0100
0000
,
0010
0100
0001
1000
,
0001
1000
0001
0000
,
0100
0001
1000
0000
,
0001
0100
0010
0000
,
1000
1000
1000
0010
,
1000
1010
1000
1100
,
0000
2000
3010
0110
,
0100
1001
0001
1001
,
0000
0101
0100
0001
,
1000
0002
0010
0013
,
0100
0010
0100
1010
,
0000
1001
0000
0110
,
0000
1001
0000
1001
,
1010
0100
0001
0000
,
1000
0010
1000
0000
,
0001
0010
0001
0000
,
0010
0100
0001
0100
,
0001
1001
1000
0000
,
0001
0010
0001
0000
,
1000
0010
1000
0000
,
0010
0100
1000
0100
,
1000
1010
1000
1000
,
0010
1010
1000
1000
,
0001
1001
1000
0010
,
0010
1000
0100
0010
,
0001
0011
0001
0001
,
0010
0011
0001
0001
,
1000
1001
0001
0010
,
0010
0001
0100
0010
,
1000
2002
0000
0000
,
3003
0000
0000
0000
,
0000
0000
0000
0000
,
2002
0000
0000
3003
,
0010
0100
0010
0000
,
0100
0010
0100
0000
,
1000
0001
1000
0000
,
0001
1000
0001
0000
,
0010
0100
0010
0110
,
0100
0010
0100
0110
,
1000
0001
1000
1001
,
0001
1000
0001
1001
,
1000
1100
0001
0101
,
1000
0100
1100
1100
,
0001
0101
1000
1100
,
0001
0100
0101
0101
,
0010
1010
0100
1100
,
0010
1000
1010
1010
,
0001
1000
1001
1001
,
2002
0000
0000
3003
,
1000
0100
1000
0010
,
0001
0100
0001
0010
,
1100
0010
1000
0100
,
0011
0100
0001
0010
,
2001
0100
0001
3100
,
1002
0100
1000
0103
,
0120
1000
0001
1030
,
0210
0001
1000
0301
,
2100
3001
0201
0310
,
0012
1003
1020
0130
,
0012
1003
1020
0130
,
2100
3001
0201
0310
,
1000
0001
0100
0000
0001
1000
0100
0000
,
0010
0001
0100
0000
0010
1000
0100
0000
,
0100
1000
0010
0000
0100
0001
0010
0000
,
2000
3200
0320
0031
,
2010
0100
3010
1002
,
0100
0010
0103
1200
,
1000
0001
1300
0021
,
0001
1000
0031
1100
,
0012
0100
0013
0110
,
2100
0010
3100
0110
,
1200
0001
1300
1001
,
0021
1000
0031
1001
,
1000
0100
1100
0000
0001
0100
0101
0000
,
0010
1000
0001
0000
1100
0000
0101
0000
,
0001
0100
0101
0000
1000
0100
1100
0000
,
0010
0001
0100
0000
0101
0000
1100
0000
,
0010
1000
1010
0000
0100
1000
1100
0000
,
0010
0001
1000
0000
1010
0000
1010
0000
,
0001
0100
1000
0000
1000
0100
0001
0000
,
0001
0010
1000
0000
1000
0100
0001
0000
,
2200
3300
0101
0010
,
2200
3300
0000
0101
,
0010
1000
0010
0000
1000
0100
1000
0000
,
0100
0001
0100
0000
0001
0010
0001
0000
,
0010
0100
0010
0000
0100
0010
0100
0000
,
0010
0100
1000
0000
0100
0010
0001
0000
,
0100
0001
0010
0000
0100
1000
0010
0000
,
0001
0100
1000
0000
1000
0010
0001
0000
,
0001
0100
0101
0000
,
0100
1000
1100
0000
,
1000
0000
1010
0000
,
0010
0000
0011
0000
,
1000
0100
1100
0000
,
0100
0001
0101
0000
,
0001
0000
0011
0000
,
0010
0000
1010
0000
,
0001
0100
1000
0000
,
0001
0100
1000
0000
,
1000
0100
0001
0000
,
1000
0100
0001
0000
,
0010
1000
0001
0000
,
0010
0001
1000
0000
,
0001
0000
1001
0000
,
1000
0000
0001
2000
,
0000
0000
0000
0000
,
0000
0000
3000
0000
;

//---------------dance-single - ----------------
#NOTES:
     dance-single:
     :
     Medium:
     7:
     0.492,0.580,0.252,0.284,0.012:
0000
0000
0000
0000
,
0000
0000
0000
0000
,
0000
0000
0000
0000
,
0000
0000
0000
0000
,
0010
0010
0010
0000
1000
0000
0001
0000
,
0100
0100
0100
0000
0001
0000
1000
0000
,
0010
0010
0010
0000
0001
0000
1000
0000
,
0010
0010
0010
0000
1000
0000
0001
0000
,
0100
0100
1000
0000
0001
0000
1000
0000
,
0100
0100
0001
0000
1000
0000
0001
0000
,
1000
1000
0001
0000
0010
0000
0001
0000
,
0001
0001
1000
0000
0010
0000
1000
0000
,
1001
1001
0100
0000
0010
0000
0001
0000
,
1001
1001
0100
0000
0010
0000
1000
0000
,
0100
0100
1000
0000
0010
0000
0001
0000
,
0100
0100
0001
0000
0010
0000
1000
0000
,
0000
0000
0000
0000
,
0001
1000
0100
0001
,
1000
1000
0100
0000
0001
0000
0100
0000
,
1000
1000
0100
0000
0001
0000
0100
0000
,
0010
0010
0000
0000
1000
1000
0000
0000
,
0001
0001
0100
0000
1000
0000
0100
0000
,
0001
0001
0100
0000
1000
0000
0100
0000
,
0010
0010
0000
0000
0001
0001
0000
0000
,
1000
1000
0000
0000
0001
0000
0001
0000
,
1000
0000
0001
0000
1000
0100
0001
0000
,
1000
1000
0001
0000
0100
0001
0100
0000
,
0001
0000
1000
0000
0001
0100
1000
0000
,
0001
0001
1000
0000
0100
1000
0100
0000
,
1000
0000
0001
0000
0100
0100
0100
0000
,
0001
0000
1000
0000
0100
0100
0100
0000
,
1000
0001
1000
0001
,
0100
0001
0100
0001
0100
1000
0100
1000
,
0001
1000
0001
0100
,
0001
0001
1000
0101
,
1000
0001
1000
0100
,
1000
1000
0001
1100
,
1001
0100
1001
0100
,
0110
1000
0110
0001
,
1100
0101
1100
0101
,
0010
0001
0100
1000
,
0010
1000
0100
0001
,
1000
1000
0100
0000
0000
0010
0000
0001
,
1000
1000
0100
0000
0000
0010
0000
0001
,
1000
1000
0000
0000
0001
0001
0000
0000
,
0001
0001
0100
0000
0000
0010
0000
1000
,
0001
0001
0100
0000
0000
0010
0000
1000
,
0001
0001
0100
0000
0000
0001
0000
1000
,
0010
0010
0000
0000
0100
0100
0000
0000
,
0010
0010
1000
0001
0000
1000
0000
0001
,
0010
0010
0001
1000
0000
0001
0000
1000
,
0100
0100
0100
1000
0000
0001
0000
1000
,
0100
0100
0000
0000
0100
0100
0000
0000
,
0010
0010
0010
0010
0000
1000
0000
0001
,
0010
0010
0010
0010
0000
0001
0000
1000
,
0100
1000
0001
0100
0000
0001
0000
1000
,
0010
1000
0100
0001
0100
1000
0010
0001
,
0010
0000
0100
0001
0010
0000
0100
0000
,
2000
0000
3000
0000
0001
0000
0100
0001
,
0020
0000
0031
0000
0010
0000
0100
1000
,
0020
0000
1030
0000
0001
0000
0100
0010
,
2000
0000
3000
0000
0001
0010
0100
0000
,
1000
0010
0100
0000
0001
0000
1000
0000
,
2002
0000
0000
0000
,
0000
0000
0000
0000
,
0000
0000
0000
0000
,
3003
0000
0000
0000
,
0010
1000
0200
0000
1000
0000
1300
0000
,
0010
0001
0200
0000
0001
0000
0301
0000
,
0100
0001
2000
0000
0010
0000
3010
0000
,
0100
1000
0002
0000
0010
0000
0013
0000
,
1000
0001
0200
0000
1000
0000
0301
0000
,
0001
1000
0200
0000
0001
0000
1300
0000
,
0100
0010
0002
0000
1000
0000
0103
0000
,
0100
0010
2000
0000
0001
0000
3100
0000
,
2000
0000
0001
0001
0001
0000
3000
0000
,
0002
0000
1000
1000
1000
0000
0003
0000
,
0200
0000
0010
0010
0010
0000
0300
0000
,
0020
0000
0100
0100
0100
0000
0030
0000
,
0200
0000
0001
0001
0001
0000
0300
0000
,
0002
0000
0010
0010
0010
0000
0003
0000
,
2000
0000
0100
0100
0100
0000
3000
0000
,
0010
0000
0100
0000
0010
0100
0010
0000
,
1000
0000
0001
0000
1000
0001
1000
0000
,
0100
0000
1000
0000
0100
1000
0100
0000
,
0010
0000
0001
0000
0010
0001
0010
0000
,
0001
0000
0100
0000
0001
0100
0001
0000
,
0100
0000
0010
0000
1000
0001
0100
0000
,
0010
0000
1000
0000
0001
0100
0010
0000
,
1000
0000
0100
0000
0010
0001
0100
0000
,
1000
0000
0100
0000
0010
1000
0001
0000
,
1000
0001
0010
0000
0001
0100
1000
0000
,
2000
0000
0000
0000
,
0000
0000
0000
0000
,
0000
0000
0000
3000
,
0000
0000
0000
0000
1000
0100
0000
0000
,
0002
0000
0000
0000
0003
0000
0000
1000
,
0001
0000
0000
0000
1000
0010
0000
0000
,
0200
0000
0000
0000
0300
0000
0001
0100
,
0000
0000
0000
0000
0010
1000
0000
0000
,
0200
0000
0000
0000
0300
0000
0000
0010
,
0001
0000
0000
0000
1000
0100
0000
0000
,
0020
0000
0030
0000
,
0001
1000
0001
1000
,
0020
0000
0000
0000
1030
0000
0001
0200
,
0000
0000
0300
0000
0010
1000
0000
0000
,
0200
0000
0000
0000
0310
0000
0001
2000
,
0000
0000
0000
0000
3001
0100
0000
0000
,
0020
0000
0000
0000
1030
0000
0001
2000
,
0000
0000
0000
0000
3100
0010
0000
0000
,
0020
0000
0000
0000
0031
0000
0100
0001
,
0010
0000
0100
1000
0010
0000
0110
0000
,
0010
1000
0010
0000
0001
0000
0001
0000
,
0100
0010
0100
0000
1001
0000
1001
0000
,
1000
0000
0010
0000
1000
0010
0000
0000
,
0100
0001
1000
0001
,
0100
0000
1000
0001
1000
0001
0000
0000
,
0010
0000
0100
0001
0100
0001
0000
0000
,
1010
0100
0101
1000
,
2002
3003
0220
0330
,
0001
0100
0010
0100
,
0001
1000
0010
0100
,
0010
1000
0001
1000
,
0020
0030
0200
0300
,
0001
1000
0001
1000
,
0100
0000
0000
0000
0100
0000
0000
0000
0000
0000
0000
0100
0000
0000
0000
0000
0100
0000
0000
0000
0100
0000
0000
0000
0000
0000
0000
0100
0000
0000
0000
0000
,
0100
0000
1000
0100
0010
0001
0100
0001
,
0010
0100
1000
0100
1000
0100
0010
0001
,
1000
0001
1000
0001
0010
0001
0100
0001
,
2000
0000
0000
3001
,
0110
1000
0001
0000
1001
0100
0010
0000
,
0010
0010
0100
0100
0001
0001
1000
1000
,
1100
0001
0100
0000
0101
1000
0010
0000
,
0110
1001
0101
1100
,
0010
1000
0001
1000
,
0010
1000
0100
1000
,
0001
0100
0001
0100
,
0002
0003
2000
3000
,
0010
1000
0001
0100
,
0010
0000
0000
0000
0000
0000
0000
0000
0000
0000
0000
0010
0000
0000
0000
0000
0000
0000
0000
0000
0010
0000
0000
0000
0000
0000
0000
0000
0000
0000
0000
0000
,
1001
0100
0010
1000
0002
0000
0003
0000
,
0100
0100
0000
0101
0000
0010
1000
0000
,
0000
0010
0100
0010
2000
0000
3000
0001
,
0001
0000
0000
1001
0000
0010
0100
0000
,
0000
0001
1000
0010
0200
0000
0300
0010
,
0010
0000
0000
1010
0000
0001
0100
0000
,
0000
0010
0100
0010
0200
0000
0300
0000
,
0001
0100
0000
0000
0001
0100
0000
0000
0001
0100
0000
0000
0001
0100
0000
0000
,
0010
0100
0010
0000
0010
1000
0100
0000
,
0001
1000
0100
0000
0202
0000
0303
0000
,
1000
0001
1000
0000
1000
0001
0100
0000
,
0010
1000
0100
1000
0100
0000
0110
0000
,
0001
0100
0001
0000
0001
0100
1000
0000
,
0001
0100
0010
0000
0220
0000
0330
0000
,
1000
0001
1000
0000
1000
0010
0100
0000
,
1000
0010
0100
0001
0010
0100
1000
0000
,
0010
0100
0010
0100
0001
1000
0001
1000
,
0010
0100
0010
0100
0001
1000
0001
1000
,
0002
0000
0000
0003
,
1100
0000
0000
0101
0000
0000
1100
0000
,
0001
0100
0001
0100
0001
0100
0001
0000
,
0100
0000
0000
0000
0001
0000
0000
0000
0000
0000
0000
0100
0000
0000
0000
0000
0001
0000
0000
0000
0100
0000
0000
0000
0000
0000
0000
0001
0000
0000
0000
0000
,
1000
0000
0001
0100
0000
0001
0100
0000
,
0010
0000
1000
0010
0000
1000
0010
0000
,
0100
0000
0001
0100
0000
0001
0100
0000
,
0001
0001
1000
1000
,
0010
0000
0100
0010
0000
0100
0010
0000
,
1000
0000
0001
1000
0000
0001
1000
0000
,
0100
0000
1000
0100
0000
1000
0100
0000
,
2200
0000
0000
3300
,
0001
0000
1000
0010
0100
0001
0010
0000
,
0100
0000
1000
0010
0100
0010
1000
0000
,
0001
0000
0100
0010
0100
0001
1000
0000
,
0020
0130
0002
1003
,
0010
0000
1000
0001
1000
0010
0100
0000
,
0001
0000
1000
0010
1000
0010
1000
0000
,
0100
0000
1000
0001
0100
0010
0100
0000
,
0001
1000
0010
1000
,
0001
0000
0100
0010
1000
0001
0100
0000
,
0010
0000
1000
0010
0100
0010
0100
0000
,
0001
0000
0100
0010
1000
0001
0100
0000
,
0001
0100
0001
0000
1000
0100
1000
0000
,
0010
0000
1000
0001
0100
0010
1000
0000
,
0100
0000
1000
0001
0100
0001
1000
0000
,
0100
0000
0010
0100
1000
0001
0100
0000
,
0200
0000
0000
0300
,
1001
0000
0001
0100
0010
1000
0100
0000
,
1100
0000
0010
0100
0001
0100
0010
0000
,
0110
0000
1000
0001
0100
0010
1000
0000
,
1010
1010
0001
0100
,
0101
0000
0001
1000
0010
0100
0001
0000
,
0101
0000
0010
1000
0001
1000
0100
0000
,
2200
0000
0000
0000
,
0000
0000
0000
3300
,
1000
0010
0100
0001
0010
0100
1000
0000
,
0001
0100
0010
1000
0001
0100
0001
0000
,
1000
0010
0100
0010
1000
0100
1000
0000
,
0010
1000
0010
1000
,
0002
0000
0000
0000
0003
1000
0100
0000
,
2000
0000
0000
0000
3000
0001
0100
0000
,
0020
0000
0000
0000
0030
0100
0010
0000
,
2000
3001
2000
3010
,
0220
0330
2002
3003
,
0202
0303
2200
3300
,
0001
0010
0100
1000
0001
0010
0100
1000
,
0001
0100
0001
1000
0010
0010
0010
0100
,
0220
0330
2002
3003
,
2000
3000
0002
0003
,
0020
0030
0200
0300
,
2000
0000
3000
0010
0010
0010
0010
0000
,
1001
0000
0010
0100
0001
1000
0100
0000
,
1100
0000
0001
0100
0010
1000
0001
0000
,
0110
0000
1000
0001
0100
0010
0100
0000
,
1001
1001
1001
0110
,
1000
0010
0100
0001
0010
0100
1000
0000
,
0010
0100
0001
0010
0100
1000
0010
0000
,
0100
0001
0010
0100
1000
0010
0100
0000
,
0002
0000
1000
1003
,
1000
1000
0010
0010
0100
0100
0001
0000
,
0010
0010
0100
0100
1000
1000
0010
0000
,
0100
0100
0001
0001
1000
1000
0100
0000
,
1000
1100
0001
0101
,
0010
0000
1000
0000
0001
0100
0001
0000
,
0010
0000
0100
0000
1000
0100
1000
0000
,
0010
0000
0100
0000
0010
0100
0010
0000
,
0101
1100
0101
0110
,
2002
0000
0000
0000
,
0000
0000
0000
3003
,
0000
0000
0000
0000
,
0000
0000
0001
1000
0100
0010
1001
0000
,
0110
0010
2000
3010
,
0100
1000
2000
3002
,
0100
0003
0000
0000
0010
0000
0000
0000
0002
0000
0000
0000
0013
0000
0000
0000
,
0100
0001
0002
2003
,
3010
0000
0001
0000
0200
0000
0310
0100
,
1000
0001
0010
0000
0020
0000
0032
0000
,
0013
0000
1000
0000
0200
0000
0310
0001
,
0010
1000
0010
0000
0020
0000
0230
0000
,
0310
0000
1001
0000
1001
0000
0100
0001
,
0100
0000
1001
0000
1001
0000
0010
1000
,
0100
0000
0011
0000
0011
0000
0100
0010
,
0100
0000
0110
0000
0110
0000
0010
1000
,
0001
0000
1001
0000
1001
0000
0001
1000
,
0001
0000
1010
0000
1010
0000
1000
0100
,
1000
0011
0011
0001
,
1010
0000
1000
0001
0100
0010
1001
0000
,
0201
0001
0301
0110
,
2001
0001
3001
0011
,
2001
0000
0000
0000
0001
0000
0000
0000
3001
0000
0000
0000
0200
0000
0000
0300
,
0002
0013
0010
0200
,
0301
0100
0001
0000
0100
0001
0200
0000
,
1300
0001
0100
0010
0001
0000
2000
0000
,
3001
0010
0200
0000
0301
0100
2000
0000
,
3001
0100
0010
0100
1000
0000
0110
0000
,
0001
1000
0001
0100
1000
0001
1000
0010
,
0100
1000
0001
0010
0100
1000
0010
0001
,
0010
1000
0001
0010
1000
0001
0100
1000
,
0100
0000
1000
0010
0100
0001
1010
0000
,
1000
0010
2000
0000
3010
1000
0020
0000
,
0031
1000
0010
0100
1000
0000
0002
0000
,
1003
0100
0020
0000
1030
0010
0002
0000
,
1003
0000
0000
0100
0000
0000
0010
0000
0000
0001
0000
0000
0110
0000
0000
0000
,
0110
0010
2000
3010
,
0100
1000
2000
3002
,
0100
0003
0000
0000
0010
0000
0000
0000
0002
0000
0000
0000
0013
0000
0000
0000
,
0100
0001
0002
2003
,
3010
0000
0001
0000
0200
0000
0310
0100
,
1000
0001
0010
0000
0020
0000
0032
0000
,
0013
0000
1000
0000
0200
0000
0310
0001
,
0010
1000
0010
0000
0020
0000
0230
0000
,
0301
0000
1001
0000
1001
0000
0010
0001
,
0010
0000
1001
0000
1001
0000
0100
1000
,
0010
0000
0101
0000
0101
0000
0010
0100
,
0010
0000
0110
0000
0110
0000
0100
1000
,
0001
0000
1001
0000
1001
0000
0001
1000
,
0001
0000
1100
0000
1100
0000
1000
0010
,
1000
0101
0101
0001
,
1100
0000
1000
0001
0010
0100
1001
0000
,
1200
1000
1300
0110
,
1002
1000
1003
1010
,
1002
0000
0000
0000
1000
0000
0000
0000
1003
0000
0000
0000
0200
0000
0000
0300
,
2000
3010
0010
0200
,
1300
0100
1000
0000
0100
1000
0200
0000
,
0301
1000
0100
0010
1000
0000
0002
0000
,
1003
0010
0200
0000
1300
0100
0002
0000
,
1003
0100
0010
0100
0001
0000
0110
0000
,
1000
0001
1000
0100
,
0001
1000
0001
0010
,
0100
0001
1000
0010
,
0100
0001
0010
1000
,
0010
0001
1000
0010
,
0001
1000
0100
0001
,
0100
1000
0001
0010
,
0100
1000
0001
0000
,
1000
0010
1000
0001
,
0010
1000
0001
0100
,
0001
1000
0010
0100
,
1000
0100
0010
0001
,
1000
0001
0010
0100
,
1000
0010
0100
0001
,
1000
0010
0100
0010
,
0001
0100
1000
0202
,
0000
0000
0000
0000
,
0000
0000
0303
0000
;

//---------------dance-single - ----------------
#NOTES:
     dance-single:
     :
     Hard:
     9:
     0.612,0.837,0.202,0.115,0.328: // measure 1
0000
0000
0000
0000
,  // measure 2
0000
0000
0000
0000
,  // measure 3
0000
0000
0000
0000
,  // measure 4
0000
0000
0000
0000
,  // measure 5
1001
0100
0000
1000
0100
0000
0010
0100
,  // measure 6
0001
1000
0000
0001
1000
0100
0001
0000
,  // measure 7
1000
0100
0001
1000
0010
0001
1000
0010
,  // measure 8
0010
1000
0000
0010
1000
0100
0010
1000
,  // measure 9
0001
1000
0000
0001
0100
0000
0001
0100
,  // measure 10
0001
1000
0000
0100
1000
1000
0100
0010
,  // measure 11
0100
0010
0001
0000
1000
0000
0000
0000
0001
0000
1000
0000
0000
0000
0001
0000
,  // measure 12
1000
0010
0001
1000
0001
0010
1000
1000
,  // measure 13
0010
0010
1000
0100
0001
0100
0001
0001
,  // measure 14
0100
0010
0001
1000
0100
0010
0001
0000
,  // measure 15
0100
0010
1000
0000
0100
1000
0000
0010
,  // measure 16
0100
0010
0100
0000
0010
0100
0100
0010
,  // measure 17
0100
0000
0000
0000
0001
0000
0100
0000
0000
1000
0000
0000
0010
0001
0000
0000
,  // measure 18
1000
1000
0000
0000
0001
0001
0001
0100
,  // measure 19
1000
1000
0000
0000
0001
0001
0001
0100
,  // measure 20
1000
1000
0000
0000
0001
0001
0001
0100
,  // measure 21
1000
1000
0000
0000
0001
0001
0001
0100
,  // measure 22
1000
1000
0010
1000
0001
0001
0001
0010
,  // measure 23
1000
1000
0010
1000
0001
0001
0001
0010
,  // measure 24
0100
0100
0010
0001
0100
0100
1000
1000
,  // measure 25
0010
0000
0001
0000
1000
0010
0001
0000
1000
0000
0000
0000
0100
0000
0000
0000
,  // measure 26
1000
0000
0010
0000
0000
1000
0010
0000
,  // measure 27
1000
0100
0010
0000
0001
1000
0110
0000
,  // measure 28
1000
0000
0010
0000
0000
1000
0010
0000
,  // measure 29
1000
0100
0010
0000
0001
1000
0110
0000
,  // measure 30
1001
0000
0010
0000
0000
1000
0001
0010
,  // measure 31
1000
0100
0010
0000
0000
1000
0101
0010
,  // measure 32
1000
0000
0010
0010
0010
0000
0010
0100
,  // measure 33
1000
0100
0010
0010
0010
0010
0100
0001
,  // measure 34
1000
0000
0001
0000
0000
0100
0001
0000
,  // measure 35
0100
0000
0100
0000
1000
0000
1000
0100
0001
0010
0001
0000
1000
0000
0001
0100
,  // measure 36
1000
0000
0001
0000
0000
0100
0001
0000
,  // measure 37
0010
0000
0010
0000
1000
0000
0001
0100
0000
0010
0001
0000
0010
0000
0100
0010
,  // measure 38
1000
0000
0100
0000
1000
0000
0001
0100
0000
0010
0001
0000
1000
0000
0001
0010
,  // measure 39
1000
0000
0100
0000
1000
0000
0010
0100
0001
0010
0001
0000
0010
0000
0000
0010
,  // measure 40
0001
0000
1000
0000
1000
0000
0000
0100
0010
0000
0010
0000
0001
0000
0000
0100
,  // measure 41
0001
0000
0000
0000
1000
0000
1000
1000
,  // measure 42
0100
1000
0001
0000
1000
0000
0000
1000
0001
0000
0100
0000
0001
0000
0010
0000
,  // measure 43
0000
1000
0000
0001
1000
0000
0010
0100
,  // measure 44
1000
0001
0000
0100
0100
0000
0001
1000
,  // measure 45
0001
0100
0000
0010
1000
1000
0001
1000
,  // measure 46
0001
0100
0000
0001
0100
0000
0001
0100
,  // measure 47
0001
1000
0000
0001
1000
0100
0001
0000
,  // measure 48
1000
0010
0001
1000
0010
0001
1000
0010
,  // measure 49
0010
1000
0000
0001
1000
0100
0010
1000
,  // measure 50
0001
1000
0000
0001
0100
0000
0001
0100
,  // measure 51
0010
1000
0000
0100
1000
1000
0010
0001
,  // measure 52
0100
0001
1000
0000
0001
1000
0000
0000
,  // measure 53
1000
0010
0001
1000
0001
0010
1000
1000
,  // measure 54
0001
0010
1000
0100
0001
0100
0010
0001
,  // measure 55
0100
1000
0001
1000
0100
0010
0001
0000
,  // measure 56
0100
0001
1000
0000
0100
1000
0000
0010
,  // measure 57
0100
0001
0100
0000
0001
0100
0100
0010
,  // measure 58
1000
0100
1000
0000
0001
0100
0000
0000
0000
0000
1000
0000
0000
0100
0000
0000
,  // measure 59
0001
1000
0001
0100
0000
0000
0000
0000
1000
0100
0000
1000
0100
0000
0000
0000
,  // measure 60
1000
0010
1000
0001
0000
0000
0010
0100
0000
0000
0010
0100
0000
0000
1001
0000
,  // measure 61
1000
0001
0000
0100
0010
0000
1000
0010
0000
1010
0000
0001
0100
0001
0100
0000
,  // measure 62
1000
0100
0000
0001
0100
0000
0010
0100
0000
0110
0000
1000
0100
1000
0100
0000
,  // measure 63
0101
1001
0100
0110
0000
0110
1100
0101
,  // measure 64
2002
0000
0000
0000
,  // measure 65
0000
0000
0000
0000
,  // measure 66
0000
0000
0000
0000
,  // measure 67
0000
3003
0000
0000
,  // measure 68
0001
0000
1000
0000
0001
0000
1000
0010
0000
0000
0000
0000
1000
0010
0000
1001
,  // measure 69
0000
0000
0010
0000
0100
0000
0001
0100
0000
0000
0000
0000
1000
0100
0000
0110
,  // measure 70
0000
0000
0010
0000
1000
0000
0010
0100
0000
0000
0000
0000
0100
0010
0000
0000
,  // measure 71
1000
0010
0001
0010
1000
0100
0001
0100
1000
0010
0001
0010
1000
0000
0000
0000
,  // measure 72
0001
0000
1000
0000
0100
0000
0010
0100
0000
0000
0000
0000
1000
0100
0000
0101
,  // measure 73
0000
0000
0010
0000
1000
0000
0001
0100
0000
0000
0000
0000
1000
0100
0000
1100
,  // measure 74
0000
0000
0001
0000
0010
0000
0001
1000
0000
0000
0000
0000
0001
1000
0000
1010
,  // measure 75
0000
0000
0010
0000
0100
0000
0010
1000
0000
0010
0100
0000
0010
0001
0000
0000
,  // measure 76
0101
0000
0000
0000
0000
0110
0000
0110
0000
1100
0000
0000
0000
0000
0000
0000
,  // measure 77
0011
0000
0000
0000
0000
1010
0000
1010
0000
0110
0000
0100
0001
0100
0001
0100
,  // measure 78
1001
0000
0000
0000
0000
0101
0000
1100
0000
0101
0000
0000
0000
0000
0000
0000
,  // measure 79
1000
0010
0100
0001
,  // measure 80
1100
0000
0000
0000
0000
0110
0000
0110
0000
0101
0000
0000
0000
0000
0000
0000
,  // measure 81
0011
0000
0000
0000
0000
1001
0000
1001
0000
1100
0000
0000
0000
0000
0000
0000
,  // measure 82
0110
0000
0000
0000
0000
0101
0000
1100
0000
1100
0000
0000
0000
0000
0000
0000
,  // measure 83
0001
0100
0010
0000
0110
0000
1001
0000
0000
0001
0100
0001
0000
1000
0100
0000
,  // measure 84
0001
0010
1000
0000
0001
0100
0000
0000
0000
0000
0101
0000
0000
1100
0000
0000
,  // measure 85
1000
0100
0001
0000
0001
1000
0000
0000
0000
0000
0110
0000
0000
0101
0000
0000
,  // measure 86
0010
0100
0010
0100
0000
0000
0000
1000
0000
0001
0000
0010
0100
0000
0001
0000
,  // measure 87
1000
0100
1000
0100
0000
0000
0001
0100
0000
0001
0100
0000
0110
0000
0000
0000
,  // measure 88
1000
0010
0001
0100
1000
0100
0001
0010
,  // measure 89
1000
0101
0010
1100
0001
0110
1000
0000
,  // measure 90
0001
0100
0000
0100
0001
0000
0001
1000
0000
0010
0000
0001
0100
0001
0100
0000
,  // measure 91
1000
0010
0000
0010
1000
0000
1000
0001
0000
0100
0000
0010
1000
0010
1000
0000
,  // measure 92
1000
0001
1000
0000
0001
0100
0000
1000
0000
0001
0000
0010
1000
0001
0200
0000
,  // measure 93
0000
0000
0000
0000
,  // measure 94
0000
0000
0000
0000
,  // measure 95
0000
0000
0000
0000
,  // measure 96
0000
0000
0000
0000
0000
0300
0000
0000
,  // measure 97
0001
0000
1000
0000
0001
0000
1000
0020
,  // measure 98
0000
0000
0030
0000
1000
0001
0000
0100
,  // measure 99
0000
0000
0010
0000
1000
0000
1000
0020
,  // measure 100
0000
0000
0030
0000
1000
0100
0000
1000
,  // measure 101
0000
0000
0001
0000
1000
0000
0001
0200
,  // measure 102
0000
0000
0000
0300
,  // measure 103
0001
1000
0001
0000
1000
0001
0000
0100
,  // measure 104
0000
0100
0000
0000
0001
1000
0000
0100
,  // measure 105
0000
0000
1000
0000
0010
0000
1000
0002
,  // measure 106
0000
0000
0003
0000
1000
0010
0000
0100
,  // measure 107
0000
0000
0001
0000
0100
0000
0001
2000
,  // measure 108
0000
0000
3000
0000
0010
1000
0000
1000
,  // measure 109
0000
0000
0001
0000
1000
0000
0100
0020
,  // measure 110
0000
0000
0030
0000
0001
0100
0000
0001
,  // measure 111
0000
0000
1000
0000
0001
0000
1000
0100
,  // measure 112
0000
0000
0100
0000
1000
0000
0000
0000
0010
0000
0000
0010
0000
0000
0000
0000
,  // measure 113
1000
0000
0001
0000
0100
0000
0000
0001
0100
0000
0100
0000
0000
0000
0000
0000
,  // measure 114
1000
0000
0100
0000
0010
0000
0001
0000
0100
0001
0100
0000
0000
0000
0000
0000
,  // measure 115
0001
0000
1000
0000
0100
0000
0000
1000
0100
0000
0100
0000
0000
0000
0000
0000
,  // measure 116
0010
0000
0001
0000
0100
0000
0000
0001
0100
0000
0000
0000
0000
0100
0001
0000
,  // measure 117
0100
0000
0000
0000
1000
0000
0000
0100
1000
0000
0100
0000
0000
0000
0000
0000
,  // measure 118
1000
0000
0000
0000
0001
0000
0000
0100
0010
0000
0010
0000
0000
0000
0000
0000
,  // measure 119
0000
0001
0000
0100
0000
0001
0000
0010
,  // measure 120
0100
1000
0000
0000
0000
0000
0000
0000
1000
0001
0000
0001
1000
0000
0100
0000
,  // measure 121
0010
0001
0010
0000
0001
1000
0001
0000
,  // measure 122
0010
0100
0010
0000
0100
1000
0100
0000
,  // measure 123
1000
0001
1000
0000
0001
0100
0001
0000
,  // measure 124
0010
0100
0000
0100
0010
0000
1000
0000
,  // measure 125
0001
0100
0001
0000
0010
0100
0010
0100
,  // measure 126
1000
0000
0000
0000
0001
0000
0000
0000
0000
0000
0000
0100
0000
0000
0000
0000
0100
0000
0000
0000
0001
0000
0000
0000
0000
0000
0000
1000
0000
0000
0000
0000
,  // measure 127
0010
1000
0100
0100
1000
0100
0100
0001
,  // measure 128
0000
0000
0100
0000
1000
0000
0001
0000
0010
0100
0010
0000
0100
0000
1000
0000
,  // measure 129
0000
0010
0001
0010
1000
0100
0001
0100
,  // measure 130
0000
0000
0010
0000
0001
0000
1000
0000
0100
0010
0100
0000
0010
0000
0001
0000
,  // measure 131
0000
0010
1000
0010
0001
0100
1000
0100
,  // measure 132
0000
0000
0010
0000
0100
0000
0010
0000
1000
0001
1000
0000
0100
0000
0001
0000
,  // measure 133
0000
0001
0100
0000
0000
0010
0100
0000
,  // measure 134
1000
0001
0100
0000
,  // measure 135
0100
1000
0100
0000
0010
0001
0010
0001
,  // measure 136
0010
0000
0001
1000
0000
1000
0001
0000
,  // measure 137
1000
0100
1000
0000
0001
1000
0001
0000
,  // measure 138
0001
0100
0000
0100
0001
0000
1000
0100
,  // measure 139
1000
0100
1000
0000
0100
0010
0100
0010
,  // measure 140
1000
0000
0000
0000
0000
0000
0000
0000
0000
0000
0000
1000
0000
0000
0000
0000
0000
0000
0000
0000
0001
0000
0000
0000
0000
0000
0000
0000
0000
0000
0000
0000
,  // measure 141
0010
0000
0010
0000
0001
0000
0100
0000
1000
0000
0000
0000
0000
0000
0100
0001
,  // measure 142
0100
0000
0001
0000
0000
0000
1000
0000
0000
0000
0010
0100
0010
0000
0000
0000
,  // measure 143
0000
0000
0100
1000
0100
0000
1000
0000
0100
0000
0000
0000
0000
0000
1000
0001
,  // measure 144
1000
0000
0100
0000
0000
0000
1000
0000
0000
0000
0100
0010
0100
0000
0010
0000
,  // measure 145
0000
0000
0001
0100
0001
0000
0100
0000
0010
0000
0000
0000
0000
0000
1000
0001
,  // measure 146
1000
0000
0100
0000
0000
0000
0100
0000
0000
0000
1000
0100
1000
0000
0000
0000
,  // measure 147
0000
0000
0100
0010
0100
0000
1000
0000
0100
0000
0000
0000
1000
0000
0100
0000
,  // measure 148
0001
0100
0000
0000
0100
1000
0000
0000
1000
0010
0000
0000
0010
0001
0000
0000
,  // measure 149
0010
0100
1000
0100
1000
0100
0001
0100
,  // measure 150
0001
0000
1000
0000
0001
0000
1000
0000
0001
0100
0000
0000
0000
0000
0000
0000
,  // measure 151
0010
0001
0010
0001
1000
0100
1000
0100
,  // measure 152
0001
0000
0100
0000
0001
0000
0100
0000
1000
0001
0000
0000
0000
0000
0000
0000
,  // measure 153
0100
0010
0100
0010
0001
0100
0001
0100
,  // measure 154
0010
0000
1000
0000
0010
0000
1000
0000
0100
0010
0000
0000
0000
0000
0000
0000
,  // measure 155
1000
0001
1000
0001
0010
1000
0010
1000
,  // measure 156
0010
0000
0001
0000
0010
0000
0001
0000
1000
0001
0000
0000
0000
0000
0000
0000
,  // measure 157
0100
1000
0100
0000
0010
0001
0010
0000
,  // measure 158
0010
0100
0010
0000
0100
0001
0100
0000
,  // measure 159
0100
1000
0100
0000
1000
0001
1000
0000
,  // measure 160
0001
0100
0000
0100
0001
0000
0001
0000
,  // measure 161
1000
0100
1000
0100
0010
0100
0010
0100
,  // measure 162
1000
0000
0000
0000
,  // measure 163
0110
0000
0001
1000
0000
1000
0001
0000
,  // measure 164
0100
0000
1000
0001
0000
0001
1000
0000
,  // measure 165
0100
0000
0010
0100
0000
0100
0010
0000
,  // measure 166
0101
1100
0101
1100
,  // measure 167
1010
0000
0001
0100
0000
0100
0001
0000
,  // measure 168
0011
0000
0100
1000
0000
1000
0100
0000
,  // measure 169
0101
0000
0001
0010
0000
0010
0001
0000
,  // measure 170
2002
3003
0000
0000
,  // measure 171
1000
0100
0001
0010
0001
0100
1000
0000
,  // measure 172
0001
0100
1000
0010
1000
0100
0001
0000
,  // measure 173
0100
0001
1000
0100
1000
0001
0100
0000
,  // measure 174
1100
1000
0001
0000
0101
0001
1000
0000
,  // measure 175
0010
1000
0001
1000
0100
0001
1000
0000
,  // measure 176
0010
0001
1000
0001
0100
1000
0001
0000
,  // measure 177
1000
0001
0100
0001
1000
0100
1000
0001
,  // measure 178
0010
0001
1000
0010
1000
0001
1000
0001
,  // measure 179
0100
0000
0000
1000
0100
0000
1000
0000
0001
0000
1000
0000
0001
0000
0000
0000
,  // measure 180
0100
0000
0000
0001
0100
0000
0001
0000
1000
0000
0001
0000
1000
0000
0000
0000
,  // measure 181
0010
0000
0000
1000
0010
0000
1000
0000
0001
0000
1000
0000
0001
0000
0000
0000
,  // measure 182
0010
0000
0000
0001
0010
0000
0001
0000
0100
0000
1000
0000
0001
0000
0010
0000
,  // measure 183
1000
0000
0000
0010
1000
0000
1000
0000
0001
0000
0100
0000
0001
0000
0100
0000
,  // measure 184
0001
0000
0000
0010
0001
0000
0001
0000
1000
0000
0100
0000
1000
0000
0100
0000
,  // measure 185
1000
0000
0000
0100
1000
0000
1000
0000
0100
0000
0001
0000
0100
0000
0001
0000
,  // measure 186
1000
0000
0000
1000
0001
0000
0000
0001
1000
0000
0000
1000
0001
0000
0000
0001
,  // measure 187
1000
1000
0100
0100
0001
0001
0010
0010
,  // measure 188
0100
0100
1000
1000
0001
0001
0100
0000
,  // measure 189
1000
1000
0001
0001
0010
0010
0100
0100
,  // measure 190
1000
1000
0010
0010
0100
0100
1000
0000
,  // measure 191
0001
0001
0100
0100
1000
1000
0010
0010
,  // measure 192
0100
0100
0001
0001
1000
1000
0001
0000
,  // measure 193
1000
0000
0000
1001
0000
0000
0001
0000
0000
1001
0000
0000
0000
0000
0000
0000
,  // measure 194
1001
0000
0000
0001
0000
0000
1001
0000
0000
0000
0000
0000
1000
0100
1000
0000
,  // measure 195
0001
0010
0000
0001
0010
0000
0000
0000
0100
0000
1000
0000
0010
0000
0000
0000
,  // measure 196
1000
0010
0000
1000
0010
0000
0000
0000
1000
0000
0001
0000
0100
0000
0000
0000
,  // measure 197
0001
0010
0000
0001
0010
0000
0000
0000
0100
0000
1000
0000
0001
0000
0000
0000
,  // measure 198
1000
0001
0000
1000
0001
0000
0000
0000
0001
0000
0100
0000
1000
0000
0000
0000
,  // measure 199
0001
1000
0000
0001
1000
0000
0001
0000
0100
0000
0010
0000
1000
0000
0000
0000
,  // measure 200
0010
0100
0000
0010
0100
0000
0001
0000
0100
0000
0010
0000
1000
0000
0000
0000
,  // measure 201
0100
1000
0000
0100
1000
0000
0001
0000
0100
0000
0010
0000
1000
0000
0000
0000
,  // measure 202
1001
0000
1001
0000
,  // measure 203
0002
0000
0000
2003
0000
0000
3100
0000
0010
0000
0000
0000
0001
0000
0000
0000
,  // measure 204
0200
0000
0000
2300
0000
0000
3001
0000
0020
0000
0000
0000
0030
0000
0000
0000
,  // measure 205
2000
0000
0000
3002
0000
0000
0103
0000
0010
0000
0000
0000
1000
0000
0000
0000
,  // measure 206
2000
0000
0000
3200
0000
0000
0301
0000
0020
0000
0000
0000
0030
0000
0000
0000
,  // measure 207
0001
0000
1000
0100
0000
1000
0100
0000
0010
0000
0001
0100
0001
0000
0000
0000
,  // measure 208
1000
0000
0001
0100
0000
0100
0001
0000
0010
0000
0000
0000
0000
0000
0000
0000
,  // measure 209
1000
0000
0001
0100
0000
0001
0100
0000
0010
0000
1000
0100
1000
0000
0000
0000
,  // measure 210
1000
0000
0001
0100
0000
0000
0010
0000
1000
0000
0000
0000
0001
1000
0001
1000
,  // measure 211
0001
0000
0000
0000
1000
0000
0000
1000
0000
0001
0100
0000
0001
0000
0000
0000
,  // measure 212
0100
0000
0000
0000
0010
0000
0000
0010
0000
1000
0100
0000
1000
0000
0000
0000
,  // measure 213
0001
0000
0000
0000
0100
0000
0000
0100
0000
1000
0100
0000
1000
0000
0000
0000
,  // measure 214
0001
0000
0000
0000
0100
0000
0000
0100
0000
1000
0010
0000
1000
0000
0000
0000
,  // measure 215
0100
0000
0000
0000
0010
0000
0000
0010
0000
0001
0100
0000
0001
0000
0000
0000
,  // measure 216
1000
0000
0000
0000
0100
0000
0000
0100
0000
0001
1000
0000
0001
0000
0000
0000
,  // measure 217
0100
0000
0000
0000
0010
0000
0000
0010
0000
0001
0100
0000
0001
0000
0000
0000
,  // measure 218
0100
0000
0000
0000
0010
0000
0000
0010
0000
1000
0100
0000
1000
0000
0000
0000
,  // measure 219
0001
1000
0100
0001
1000
0010
0001
0000
,  // measure 220
1000
0001
0100
1000
0001
0010
1000
0000
,  // measure 221
0001
1000
0010
0001
1000
0100
0001
0000
,  // measure 222
1000
0001
0010
1000
0001
0100
1000
0000
,  // measure 223
0010
1000
0100
0001
0100
1000
0100
0000
,  // measure 224
0100
0010
0001
0010
0001
0100
1000
0000
,  // measure 225
0010
1000
0001
1000
0010
0001
1000
0001
,  // measure 226
0100
1000
0100
0001
1000
0010
0001
0010
,  // measure 227
0100
0000
0000
0001
0000
0000
2000
0000
0000
0002
0000
0000
0000
0000
0000
0000
,  // measure 228
0000
0000
0000
3003
,  // measure 229
0000
0000
0000
0000
,  // measure 230
0000
0000
1000
0100
0010
0001
0110
0000
,  // measure 231
1000
0000
1000
0000
0000
0000
0000
0001
0000
2000
0001
0000
0000
0000
3100
0000
,  // measure 232
0010
0000
0100
0000
0000
0000
0000
0100
0000
0020
0100
0000
0000
0000
0130
0000
,  // measure 233
1000
0000
0100
0000
0000
0000
0000
0100
0000
2000
0100
0000
0000
0000
3100
0000
,  // measure 234
0001
0000
0100
0000
0000
0000
0000
0100
0000
0002
0100
0000
0000
0000
0013
0000
,  // measure 235
0001
0000
0100
0000
0000
0000
0000
0010
0000
0002
0100
0000
0000
0000
0013
0000
,  // measure 236
1000
0000
0100
0000
0000
0000
0000
0010
0000
2000
0100
0000
0000
0000
3100
0000
,  // measure 237
1000
0000
0001
0000
0000
0000
0000
0010
0000
0002
1000
0000
0000
0000
0103
0000
,  // measure 238
0001
0000
1000
0000
0000
0000
0000
0010
0000
2000
0001
0000
0000
0000
3000
0000
,  // measure 239
0010
0000
0100
0000
0001
0000
0000
1000
0000
0001
0100
0000
0010
0000
0100
0000
,  // measure 240
1000
0000
0100
0000
0001
0000
0000
0001
0000
1000
0100
0000
0010
0000
0100
0000
,  // measure 241
0001
0000
0100
0000
1000
0000
0000
0100
0000
0010
0001
0000
1000
0000
0010
0000
,  // measure 242
1000
0000
0001
0000
0100
0000
0000
0100
0000
0010
1000
0000
0001
0000
0010
0000
,  // measure 243
0001
0000
1000
0000
0100
0000
0000
0010
0000
0100
1000
0000
0001
0000
1000
0000
,  // measure 244
0010
0000
1000
0000
0100
0000
0000
0010
0000
0001
1000
0000
0100
0000
0001
0000
,  // measure 245
1000
0000
0001
0000
0100
0000
0000
1000
0000
0001
0100
0000
0010
0000
0100
0000
,  // measure 246
1001
0000
1000
0100
0010
0001
0110
0000
,  // measure 247
1000
0000
0100
0000
0001
0100
0000
1000
0100
0000
0010
0100
0000
0000
1000
0000
,  // measure 248
0000
0000
0010
0000
0100
0001
0000
0000
1000
0000
0200
0000
0000
0000
1300
0000
,  // measure 249
0010
0000
0100
0000
0001
0100
0000
1000
0100
0000
0010
0100
0000
0001
0100
0000
,  // measure 250
1000
0000
0100
0000
0010
0000
0000
1010
0000
0000
0110
0000
0000
0000
0101
0000
,  // measure 251
0100
0001
0100
0000
0010
0000
0000
1000
0000
0100
0001
0000
0100
0000
0010
0000
,  // measure 252
0100
1000
0100
0000
0010
0000
0000
0001
0000
1000
0010
0000
1000
0000
0001
0000
,  // measure 253
0100
0010
0100
0000
0001
0000
0000
1000
0000
0001
0100
0000
1000
0000
0100
0000
,  // measure 254
0100
0001
0100
0000
0010
0000
0000
0110
0000
0000
0101
0000
0000
1001
0000
0000
,  // measure 255
0100
0001
1000
0001
0100
0010
0100
0001
,  // measure 256
0100
1000
0100
0010
1000
0100
0001
1000
,  // measure 257
0010
0001
0100
1000
0010
0100
0000
1001
,  // measure 258
0000
0000
0100
0000
0010
0100
0000
0000
0001
0000
0100
1000
0000
0000
0100
0000
,  // measure 259
0100
0001
0100
0000
0010
0000
0000
1000
0000
0010
0100
0000
0001
0000
0100
0000
,  // measure 260
0001
1000
0001
0000
0100
0000
0000
0010
0000
1000
0100
0000
0001
0000
0010
0000
,  // measure 261
0001
0100
0001
0000
1000
0000
0000
0001
0000
1000
0100
0000
0010
0000
0100
0000
,  // measure 262
0001
0100
0000
1000
0100
0000
0001
1000
0000
0100
0010
0000
0001
1000
0000
0000
,  // measure 263
0010
0000
0100
1000
0002
0000
0103
0000
,  // measure 264
0010
1000
0001
0100
0002
0000
2003
0000
,  // measure 265
0010
3000
0000
0000
0100
0000
0001
0000
2000
0000
0000
0000
3100
0000
0000
0000
,  // measure 266
0010
0001
1000
0100
2000
0000
3002
0000
,  // measure 267
0103
0000
1000
0100
0020
0000
0130
0000
,  // measure 268
0100
1000
0100
0001
0200
0000
2300
0000
,  // measure 269
3100
0000
0001
0100
0020
0000
0130
0000
,  // measure 270
0100
0001
0100
1000
0200
0000
0320
0000
,  // measure 271
0130
0001
1001
0000
1001
0001
0010
0000
,  // measure 272
0010
0100
1001
0000
1001
0010
0100
0000
,  // measure 273
0010
0001
1100
0000
1100
0001
0010
0000
,  // measure 274
0010
1000
0110
0000
0110
1000
0100
0000
,  // measure 275
0001
0100
1001
0000
1001
0100
1000
0000
,  // measure 276
1000
0010
0100
0001
0100
0010
1001
0000
,  // measure 277
0001
0010
0100
1000
0100
0010
1001
0000
,  // measure 278
1000
0100
0001
1000
0010
0001
1001
0000
,  // measure 279
2000
0000
0001
0000
3000
0000
0002
0000
1003
0000
0000
0000
0010
0100
0010
0000
,  // measure 280
1000
0002
1003
0000
2000
3001
0000
0001
,  // measure 281
0100
1000
0100
0000
1000
0000
0000
0100
0000
1000
0100
0000
0020
0000
0000
0000
,  // measure 282
0031
0100
0001
0000
0100
0000
0000
0001
0000
0100
0001
0000
0020
0000
0000
0000
,  // measure 283
0031
1000
0001
0000
1000
0000
0000
0100
0000
0010
0100
0000
0020
0000
0000
0000
,  // measure 284
0031
0100
0001
0000
0010
0000
0000
0100
0000
1000
0100
0000
0002
0000
0000
0000
,  // measure 285
1003
0100
1000
0000
0010
0000
0000
0100
0000
0001
0100
0000
0020
0000
0000
0000
,  // measure 286
1030
0001
1000
0000
0100
0000
0000
0010
0000
0001
0100
0000
0001
0000
0000
0000
,  // measure 287
1000
0000
0100
0000
1000
0000
0000
0100
,  // measure 288
0000
0001
0100
0000
0001
0000
0100
0000
,  // measure 289
0010
0000
0100
0000
1000
0000
0000
0100
,  // measure 290
0000
0010
1000
0000
0100
0000
0010
0000
,  // measure 291
0100
0000
0001
0000
0100
0000
0000
1000
,  // measure 292
0000
0001
0100
0000
1000
0000
0100
0000
,  // measure 293
0010
0000
0100
0000
0001
0000
0000
1000
,  // measure 294
0000
0010
0100
0000
0001
0000
0100
0000
,  // measure 295
0010
0100
0010
0000
1000
0000
0001
0000
,  // measure 296
1000
0100
1000
0000
0001
0000
0100
0000
,  // measure 297
0010
1000
0010
0000
0001
0000
0010
0000
,  // measure 298
1000
0100
1000
0000
0001
0000
0100
0000
,  // measure 299
0010
0100
0010
0000
0100
0000
0001
0000
,  // measure 300
1000
0010
1000
0000
0100
0000
0001
0000
,  // measure 301
1000
0100
1000
0000
0101
0000
1000
0010
,  // measure 302
1000
0010
0100
0001
0100
0002
0000
0000
,  // measure 303
0000
0000
0000
0000
,  // measure 304
0000
0000
0003
0000
;
