#TITLE:underground groove Mix;
#SUBTITLE:(DDR ULTRAMIX);
#ARTIST:Nightime;
#TITLETRANSLIT:;
#SUBTITLETRANSLIT:;
#ARTISTTRANSLIT:;
#CREDIT:;
#BANNER:ULTRAMIX1.png;
#BACKGROUND:ULTRAMIX1-bg.png;
#LYRICSPATH:;
#CDTITLE:./CDTITLES/DANCE DANCE REVOLUTION ULTRAMIX.PNG;
#MUSIC:ULTRAMIX1.mp3;
#OFFSET:-0.040;
#SAMPLESTART:71.150;
#SAMPLELENGTH:20.000;
#SELECTABLE:YES;
#BPMS:0.000=135.000,176.000=130.000,192.000=125.000,224.000=124.000,352.000=132.000,368.000=137.000,576.000=130.000,600.000=128.000,656.000=64.000,672.000=128.000,696.000=256.000,712.000=128.000,752.000=133.000,760.000=139.000,768.000=144.000,776.000=150.000;
#STOPS:;
#BGCHANGES:;

//---------------dance-single - ----------------
#NOTES:
     dance-single:
     :
     Easy:
     4:
     0.292,0.416,0.117,0.104,0.001:
0000
0000
0000
0000
,
0000
0000
0000
0000
,
0000
0000
0000
0000
,
0000
0000
0000
0000
,
1001
0100
1000
0001
,
0100
0010
0001
1000
,
0010
0100
0010
0010
,
0100
0010
0100
0100
,
1000
0010
0100
0110
,
0001
0010
0100
0110
,
0010
0100
0010
0010
,
0100
0010
0100
0100
,
0010
1000
0001
1001
,
0010
0001
1000
1001
,
0100
0001
1000
1001
,
0100
1000
0001
1001
,
0010
1000
0001
0000
0100
0000
0100
0000
,
0010
0000
0010
0000
0100
1000
0001
0000
,
0010
0100
0010
0010
,
0100
0010
0100
0100
,
1000
0010
0100
0000
0001
0000
0001
0000
,
1000
0000
1000
0000
0001
0010
0100
0000
,
0010
0100
0010
0010
,
0100
0010
0100
0100
,
0010
1000
0001
0000
0010
0000
0010
0000
,
0010
0001
1000
0000
0010
0000
0010
0000
,
0010
1000
0001
0000
0010
0000
0010
0000
,
0010
0001
1000
0000
0010
0000
0010
0000
,
1001
0010
0100
0010
,
1001
0110
0001
1000
,
1001
0010
0100
0010
,
1001
0110
0001
1000
,
1001
0010
0100
0010
,
1001
0110
0001
1000
,
1001
0010
0100
0010
,
1001
0110
0001
1000
,
0010
0000
0100
0000
0001
0100
1000
0000
,
0001
0001
0001
0000
,
1000
1000
1000
0000
,
0010
0010
0100
0100
,
0010
1000
0001
0100
,
0001
0001
0100
0000
,
1000
1000
0100
0000
,
0010
0001
1000
0100
,
2001
0001
0001
3000
,
1002
1000
1000
0003
,
0010
0001
0010
0001
,
1000
0100
1000
0100
,
0010
0010
0010
0000
,
0001
0010
0001
0010
,
0100
0100
0100
0000
,
1000
0100
1000
0100
,
1001
0100
0100
0000
,
1001
0010
0010
1000
,
0010
0100
0001
1000
,
0100
0010
0001
1000
,
0010
1000
0010
0010
,
0001
0100
0001
0001
,
1000
0100
0010
0001
,
1000
0100
0010
0001
,
0010
0010
0010
0000
,
1000
0001
1000
0001
,
0020
0100
0100
0130
,
0001
0100
0010
1000
,
0002
0103
2000
3100
,
0010
0001
1000
0100
,
2000
3100
0002
0103
,
0010
1000
0001
0100
,
0010
0010
0010
0000
,
0100
0100
0100
0000
,
0001
0010
0001
0010
,
1000
0100
1000
0100
,
0020
1030
0200
1300
,
0001
1000
0010
0000
,
0200
0301
0020
0031
,
1000
0001
0100
0100
,
0001
0001
0001
0000
,
1000
1000
1000
0000
,
0001
0010
0100
1000
,
0010
0100
0001
1000
,
0110
0000
0001
0001
,
1000
0001
0010
0100
,
1001
0000
0010
0010
,
0100
0100
0100
0100
,
1001
0000
0000
0000
,
0001
0000
0000
0000
,
1000
0000
0100
0000
,
0010
0000
0001
0000
,
0001
0000
0010
0000
,
0100
0000
1000
0000
,
0001
0000
0010
0000
,
0020
0000
0000
0030
,
0001
0100
0010
0100
,
0000
0010
0100
0010
,
0110
0001
0000
1000
,
0001
1000
0001
1000
,
0010
0000
1000
0010
,
1000
0010
1000
0010
,
0100
0000
0001
0200
,
0000
0000
0000
0300
,
0001
0100
0100
0100
,
0010
0010
0100
0010
,
1000
0100
0010
0100
,
0200
0000
0310
0000
,
1001
0100
0010
0100
,
0010
0100
0010
0100
,
1000
0001
0010
0002
,
0000
0000
0000
0003
,
0100
0100
0010
0010
,
0000
0100
0010
0010
,
0000
0100
0001
0001
,
0000
0100
0001
0001
,
0010
0100
1000
0100
,
0100
0000
0010
0000
,
0100
0000
0010
0000
,
0100
0000
0000
0000
0010
0000
0000
0000
0100
0000
0000
0100
0000
0000
0000
0000
,
0100
0000
0000
0000
,
0000
0000
0000
0000
,
0100
0000
0010
0100
,
0100
0000
0000
0000
,
0100
0000
0000
0000
,
0010
0000
0000
0000
,
0100
0000
0000
0000
,
0000
0000
0000
0000
,
1001
0000
0000
0000
0000
0000
0000
0100
,
0100
0000
0000
0000
0000
0000
0000
0010
,
0010
0000
0000
0000
,
0001
0010
0100
0010
,
0100
0000
1000
0010
,
1000
0010
1000
0010
,
1000
0000
0001
0200
,
0000
0000
0000
0300
,
0001
0100
0010
0100
,
0010
0000
0010
0100
,
0100
0001
1000
0001
,
1000
0001
1000
0001
,
0010
0000
0001
0010
,
0100
1000
0100
0010
,
0001
0000
1000
0100
,
0020
0000
0000
0000
,
2000
0000
0000
0030
,
0002
0000
0000
3000
,
0000
0000
0100
0103
,
0010
0100
0001
0100
,
0010
0200
0000
0000
,
0301
2000
0000
0000
,
3100
0020
0000
0000
,
0032
2000
0000
3003
,
2000
0010
0000
0100
,
0000
0001
0000
0100
,
3002
0100
0000
0010
,
0000
0100
0000
1000
,
0000
0100
0003
1000
,
0100
1000
0010
0100
,
1001
0000
0100
0010
,
0100
0010
0100
1001
,
0010
0000
0010
0000
0010
1000
0010
0000
,
1000
0000
1000
0000
1000
0010
1000
0000
,
0001
0000
0001
0000
0001
0100
0001
0000
,
0100
0000
0100
0000
0100
0001
0100
0000
,
0001
0010
0001
1000
,
1000
0000
0010
0000
1000
0100
1000
0000
,
0001
0000
0100
0000
0001
0100
0001
0000
,
0010
0100
0010
1001
,
0020
0000
2000
0000
,
3000
0000
0000
0000
,
0000
0000
2000
0000
,
3000
0000
0000
0000
0000
0100
1030
0100
,
1000
1000
1000
1000
,
0100
0100
0100
0100
,
0010
0010
0010
0010
,
0001
0001
0001
0001
,
1000
0100
0010
0001
,
0010
0100
1000
0100
,
1000
0000
0100
0000
,
0010
0000
0001
0000
,
0010
0000
0100
0000
,
1000
0000
0100
0000
,
0002
0000
0100
0000
0100
0100
0103
0000
,
2000
0000
0100
0000
0100
0100
3100
0000
,
0002
0103
2000
3100
,
0020
0230
2300
3002
,
1003
1000
1000
0000
0001
0001
0001
0000
,
1000
0100
0010
0001
0010
0100
1000
0000
,
0010
1000
0001
0000
1000
0001
0100
0000
,
0010
0100
0010
0000
0100
0010
0100
0000
,
0001
0002
0000
0103
,
1000
2000
0000
3010
,
0001
0020
0000
0130
,
1000
0200
0000
0310
,
1000
1000
0100
1000
,
0001
0001
0100
0001
,
1000
0000
0010
0000
,
1000
0001
0010
0100
,
2002
0000
0000
0000
,
0000
0000
0000
0000
0000
3003
0000
1000
,
0001
0220
0000
0000
,
0330
0000
0000
0000
0000
0000
0000
1000
,
0001
0000
0000
0000
,
0011
0000
0000
0000
,
1001
0000
1100
0000
,
1000
0010
0100
0001
,
1000
0000
0010
0100
,
0000
0001
0010
0001
,
0000
1000
0000
0100
,
0010
0100
0010
0100
,
0100
0010
0001
0100
,
0010
0000
1000
0000
,
1001
0000
1000
0000
,
0010
0000
0010
0000
,
1001
0000
0100
0000
,
0100
1001
0000
0100
,
0010
0100
0010
0100
,
0010
0100
0010
1000
,
0010
1000
0110
1000
,
0100
0010
0001
1000
,
0100
0010
0001
1000
,
0100
0010
0001
1001
,
0001
1000
0001
0100
,
0010
0100
0010
0100
,
0010
0100
0100
0100
,
0010
1000
0100
1000
,
0101
0011
1000
0100
,
0010
0001
0000
1000
,
0010
0100
0001
0010
,
0200
0000
0000
0300
,
1000
0100
0010
0100
,
0010
0001
0010
0001
,
0000
1000
0000
0100
,
0010
0100
0010
0100
,
0100
1000
0001
0100
,
0010
1000
0010
1000
,
1010
0101
1000
0100
,
0010
0001
0010
0100
,
1001
0000
0000
0000
,
0010
0000
0010
0000
0001
0100
1000
0000
,
0010
0000
0100
0000
0001
0100
1000
0000
,
0010
0000
0010
0000
0001
0100
1000
0000
,
0010
0100
0010
1001
,
0110
0001
1000
0100
,
0010
0010
0100
0010
,
0100
0100
0000
0000
,
0010
0100
0010
1001
,
0110
0001
1000
0100
,
0010
0010
0100
0010
,
0100
0100
0010
0100
,
1001
0000
0000
0000
;

//---------------dance-single - ----------------
#NOTES:
     dance-single:
     :
     Medium:
     6:
     0.406,0.472,0.217,0.210,0.024:
0000
0000
0000
0000
,
0000
0000
0000
0000
,
0000
0000
0000
0000
,
0000
0000
0000
0000
,
0010
0000
0100
0000
1000
0001
0100
0000
,
0010
0000
0100
0000
0001
1000
0100
0000
,
1000
0000
0010
0000
0001
0000
0100
0001
,
0010
0000
1100
0000
0010
1000
0100
0000
,
0010
0000
0100
0000
1000
0001
0100
0000
,
0010
0000
0100
0000
0001
1000
0100
0000
,
1000
0000
0010
0000
0001
0000
0100
0001
,
0010
1100
0010
0100
,
0011
0000
1000
0000
0001
0100
1000
0000
,
0110
0000
1000
0000
0001
0010
0100
0000
,
0110
0000
0001
0000
1000
0010
0100
0000
,
1010
0000
0001
0000
1000
0100
0001
0000
,
0010
0000
0100
0000
1000
0001
0100
0000
,
0010
0000
0100
0000
0001
1000
0100
0000
,
0011
0000
1000
0000
1100
0000
0001
1000
,
0100
0000
0011
0000
1000
0001
0100
0000
,
0010
0000
0100
0000
1000
0001
0100
0000
,
0010
0000
0100
0000
0001
1000
0100
0000
,
0011
0000
1000
0000
1100
0000
0001
1000
,
0100
0011
0100
0010
,
1000
0000
1100
0000
0001
0000
0010
0001
,
1000
0000
1100
0000
0010
0000
0100
0001
,
0010
0000
1100
0000
0001
0000
1000
0001
,
0010
1100
0010
0100
,
0100
0000
0100
0000
0100
1000
0001
0100
,
0010
0010
1000
0001
,
0100
0000
0100
0000
0100
0001
1000
0100
,
0010
0010
0001
1000
,
0001
0000
0101
0000
1000
0100
0001
0100
,
1000
0010
0100
0010
,
1000
0000
1100
0000
0001
0100
1000
0100
,
0001
0010
0100
0010
,
1001
0000
0010
0000
1000
0100
1000
0010
,
1000
0101
1000
1100
,
1001
0000
0010
0000
0001
0100
0001
0010
,
0001
1100
0001
0101
,
0010
0000
0100
0000
1000
0001
0100
0001
,
0010
0000
0100
0000
0001
1000
0100
1000
,
0010
0101
1000
1100
,
0000
0000
0000
0000
0000
0000
0000
0000
0000
0010
0000
1000
0000
0001
0000
0000
,
0010
0000
0100
0000
1000
0001
0100
0001
,
0010
0000
0100
0000
0001
1000
0100
1000
,
0010
0101
1000
1100
,
0001
1000
0100
0000
1000
0001
0100
0000
,
0001
0000
0001
0000
0001
0000
0001
1000
,
0010
0100
0001
0100
0010
0100
0001
0000
,
1000
1000
1000
1000
,
0100
0010
0001
0010
0001
0000
0100
0000
,
0020
0000
1000
0000
1000
1000
1030
0000
,
0200
0000
0001
0000
0001
0001
0301
0000
,
1000
0100
1000
0000
0001
0100
0001
0000
,
0010
0001
1000
0100
0011
0000
1100
0000
,
0010
0001
0010
0000
0100
1000
0100
0000
,
0001
0100
0001
0010
0100
1000
0100
0000
,
1000
0100
1000
0000
0001
0100
0001
0000
,
1000
0100
0010
0100
1000
0001
0010
0000
,
0100
0100
0100
0000
1000
1000
1000
0000
,
0001
0001
0001
0100
0010
0010
0010
0000
,
1000
0000
1000
0000
0010
1000
0010
0100
,
0001
0010
0100
1000
,
0010
1000
0010
0100
0010
0100
1001
0000
,
0002
0103
2000
3100
,
0010
0001
0010
0100
0010
0001
0011
0000
,
0002
0103
2000
3100
,
0010
0000
0010
0000
0010
1000
1010
0000
,
0100
0000
0100
0000
0100
0001
0100
0010
,
2002
0000
0000
3003
,
0010
1000
0001
0100
0001
0010
0100
1000
,
0002
0103
2000
3100
,
0010
1000
0010
0000
0001
0100
0001
0000
,
2000
3100
0002
0103
,
0001
0100
0001
0000
1010
0000
0101
0000
,
2000
0010
0010
3010
,
0002
0100
0100
0103
,
0002
1003
2000
3001
,
0002
0023
0230
2300
,
3002
0103
2000
3010
,
0100
0010
0100
0001
1000
0010
1000
0000
,
2000
3010
0002
0103
,
0010
1000
0001
0100
0001
0000
1000
0000
,
0002
0100
1000
0103
,
2000
0010
0001
3010
,
0002
0013
2000
3100
,
1000
0100
0010
0001
1000
0100
0010
0001
,
0220
0000
0330
1001
,
0010
0001
1000
0100
0010
0001
1000
0100
,
2002
0000
0000
3003
,
0010
1000
0010
0100
0001
1000
0010
0100
,
1000
0000
2000
0000
,
3100
0000
0002
0000
,
0103
0000
0200
0000
,
0310
0000
0020
0000
,
0130
0000
1000
0100
,
0010
0001
0010
0100
,
1000
0100
0010
0001
,
0020
0000
0000
0030
,
1001
0010
0100
0001
,
0100
0010
1000
0100
,
0110
1000
0010
0100
,
0011
0001
0100
0010
,
1010
0000
1000
0010
,
0100
0001
1000
0010
,
1010
0000
0002
0100
,
0000
0000
0000
0003
,
0101
0100
0010
1000
,
0010
0010
0100
0010
,
1100
0100
0010
0100
,
1000
0010
1000
0001
,
1001
2000
3100
0002
,
0103
2000
3100
0002
,
0103
1000
0010
2002
,
0000
0000
0000
3003
,
1000
0100
0010
0001
,
1000
0100
0010
0001
,
0001
0100
0010
1000
,
0001
0100
0010
1000
,
1010
0100
0012
0100
,
0100
0000
1000
0003
,
1000
0000
0001
0000
,
0010
0000
0000
0000
0100
0000
0000
0000
1000
0000
0000
0100
0000
0010
0000
0000
,
0002
0000
0003
2000
,
0002
3000
0203
0000
,
0302
0000
0023
0100
,
0100
0000
0000
0030
,
2000
3100
0002
0103
,
0020
1030
0200
0301
,
2000
3100
0002
0103
,
0020
1030
0200
0301
,
2002
0000
0000
0000
3003
0000
0000
0100
,
0100
0000
1000
0000
0001
0000
0000
0010
,
0010
0000
0001
0000
1000
0000
0000
0001
,
0001
0000
0010
0000
0100
0000
1000
0100
,
0100
0000
1000
0100
,
0010
0001
1000
0010
,
0201
0000
0301
1000
,
2002
0000
0000
3003
,
1000
0100
0010
0001
1000
0010
0100
0001
,
0010
0100
1000
0100
,
0010
0100
1000
0001
0010
0001
1000
0100
,
1000
0100
0010
0001
,
0001
0100
0010
1000
0001
0010
0100
1000
,
0010
0100
0001
0100
,
0010
0100
0001
1000
0100
0010
0001
0000
,
1200
0000
0000
0000
0001
0001
0301
0000
,
1000
0001
0100
0000
0001
1000
0100
0000
,
1000
0010
0100
0000
0010
0100
0001
0000
,
0100
0001
0010
0000
0100
1000
0001
0000
,
1000
0100
0010
0001
0100
0001
1000
0000
,
0001
1000
0100
0000
1000
0001
0100
0000
,
0001
1000
0010
0000
1000
0001
0010
0000
,
0001
0100
0010
0100
0001
0100
0010
0100
,
0010
0100
0010
1000
0010
0000
0110
0000
,
1001
0000
1000
0100
0000
0001
0100
0000
,
0101
0000
0000
0010
0001
0000
1000
0000
,
1100
0000
0000
0010
1000
0000
0001
0000
,
0110
0000
0000
0001
1000
0000
0001
0000
,
0110
0000
0001
0010
0000
1000
0010
0000
,
1010
0000
0000
0100
1000
0000
0001
0000
,
0011
0000
0000
0100
0001
0000
1000
0000
,
1001
0000
0000
0010
0100
0000
0010
0000
,
2002
0000
0000
0000
0000
0000
3000
0000
0100
0000
0000
0000
0000
0000
0000
1000
,
2000
0000
0000
3000
,
0010
0000
0000
0000
0000
0000
0000
0100
0200
0000
0000
0000
0000
0000
0300
1000
,
2000
0000
0000
0000
3000
0100
1003
1000
,
0001
0010
0100
1000
,
1000
0100
1000
0100
,
0010
0001
0100
0000
0010
1000
0100
0000
,
1000
0001
0010
0000
0001
1000
0100
0000
,
0001
0100
0001
0100
0001
0010
0001
0000
,
1000
0010
1000
0010
1000
0100
1000
0000
,
0010
1000
0010
1000
,
0001
0100
0001
0100
,
0001
1000
0001
1000
,
0100
1000
0100
1000
,
0020
0000
0000
0000
0000
0000
0100
0000
0000
0100
0000
0000
0130
0000
0000
0000
,
0200
0000
0000
0000
0000
0000
0010
0000
0000
0010
0000
0000
0310
0000
0000
0000
,
0002
0000
0000
0000
0000
0000
1000
0000
0000
1000
0000
0000
1003
0000
0000
0000
,
2000
0000
0000
0000
0000
0000
0001
0000
0000
0001
0000
0000
3001
0000
0000
0000
,
0010
0000
0010
0000
0010
0000
1000
0000
0000
0001
0000
0000
0100
0000
0000
0000
,
0001
0000
0001
0000
0001
0000
0010
0000
0000
0100
0000
0000
0010
0000
0000
0000
,
0100
0000
0100
0000
0100
0000
1000
0000
0000
0001
0000
0000
0010
0000
0000
0000
,
1001
0110
1001
0110
,
0010
1000
0010
0100
0000
0100
0001
0000
,
2000
0000
0000
0010
0010
0000
3001
0000
,
0002
0000
0000
0100
0100
0000
1003
0000
,
0010
0100
0001
1000
0010
0100
0001
1000
,
0001
0010
0001
1000
0000
1000
0100
0000
,
0002
0000
0000
0010
0010
0000
1003
0000
,
2000
0000
0000
0100
0100
0000
3001
0000
,
0000
0101
1010
0110
,
1002
0000
0000
2003
,
0000
3010
0100
0001
,
1000
0010
0100
0001
,
0202
0000
0000
0303
,
1000
0010
0101
1000
,
0010
0100
0001
1000
,
1100
0100
0010
0100
,
1000
0000
0000
0000
0001
0000
0000
0000
0100
0000
0000
0000
0001
0000
0000
0010
,
0001
0001
0010
0001
,
1100
0010
0101
1000
,
0001
1000
1010
0000
,
0100
1000
0100
1000
0001
0100
0001
0100
,
0202
0000
0000
0000
,
0000
0000
0000
0000
0000
0303
0000
1000
,
0001
2200
0000
0000
,
3300
0000
0000
0000
0000
0000
0000
1000
,
0001
0000
0000
0000
,
0011
0000
1001
0000
,
1010
0000
1100
0000
,
0100
1000
0100
1000
0001
0100
0001
0100
,
0001
0100
0010
0100
,
0010
1000
0010
1000
,
0001
1000
0000
0100
,
0010
0000
0000
0000
0100
0000
0000
0000
0010
0000
0000
0000
0100
0000
0000
0010
,
0100
1000
0001
1000
,
1000
0100
0010
0001
,
0011
0110
1000
0100
,
0010
0000
0000
0000
0001
0000
0000
0000
0010
0000
0000
0000
0100
0000
0000
1000
,
0100
1000
0001
0110
,
0001
0011
1100
0010
,
0100
0010
0100
0000
,
0001
0000
0000
0000
0100
0000
0000
0000
0001
0000
0000
0000
1000
0000
0000
0100
,
0010
0001
1100
1000
,
0100
0010
0001
0100
,
0010
1000
0001
0010
,
0100
1000
0001
1000
,
1001
0000
0000
0000
1000
0100
0010
0000
,
0001
0000
0100
0000
0001
0010
0100
0000
,
1001
0100
0100
0100
,
0010
1000
0100
1000
,
1100
0101
1000
0100
,
0010
0002
0023
0230
,
2300
0002
0000
3003
,
1000
0100
0010
0001
0100
0010
1000
0002
,
2000
0003
3010
0100
,
0010
1000
0010
1000
,
0001
1000
0010
0100
,
0001
0000
0000
0000
1000
0000
0000
0000
0001
0000
0000
0000
1000
0000
0000
0010
,
0100
0010
1000
0100
,
1000
0100
0010
0001
,
0011
1010
0001
0010
,
0100
0000
0000
0000
1000
0000
0000
0000
0010
0000
0000
0000
0000
0000
0000
0010
,
1000
0000
0000
0000
;

//---------------dance-single - ----------------
#NOTES:
     dance-single:
     :
     Hard:
     8:
     0.571,0.696,0.237,0.138,0.204: // measure 1
0000
0000
0000
0000
,  // measure 2
0000
0000
0000
0000
,  // measure 3
0000
0000
0000
0000
,  // measure 4
0000
0000
0000
0000
,  // measure 5
1000
0100
0000
0000
0001
0100
0000
0000
1000
0000
0010
0000
0100
0000
0001
0000
,  // measure 6
0100
0000
1001
0000
0010
0100
0001
1000
,  // measure 7
0000
0010
0000
0101
0000
0010
0000
1100
,  // measure 8
0000
0010
0000
0100
0000
1000
0001
0000
,  // measure 9
0010
0001
0000
0000
0010
1000
0000
0000
0100
0000
0010
0000
0001
0000
0100
0000
,  // measure 10
0010
0000
1001
0000
0010
0100
1000
0001
,  // measure 11
0000
0100
0000
1010
0000
0100
0000
0011
,  // measure 12
0000
1000
0000
0010
0000
0100
0001
0000
,  // measure 13
0010
0000
1000
0000
0001
0000
0100
0000
0000
0010
0000
0100
1000
0000
0000
0000
,  // measure 14
0001
0000
0010
0000
0100
0000
1000
0000
0000
0001
0000
0010
0100
0000
0000
0000
,  // measure 15
1000
0000
0100
0000
0001
0000
0100
0000
0000
0010
0000
0001
1000
0000
0000
0000
,  // measure 16
1000
0000
0010
0000
0001
0000
0010
0000
0000
0100
0000
0001
1000
0000
0000
0000
,  // measure 17
1000
0010
0000
0000
0001
0100
0000
0000
1000
0000
0010
0000
0100
0000
0001
0000
,  // measure 18
0010
0000
1100
0000
0010
0001
0100
1000
,  // measure 19
0000
0110
0000
0001
0000
0010
0000
1100
,  // measure 20
0000
0011
0000
0100
0000
1000
0001
0000
,  // measure 21
0010
0100
0000
0000
0010
1000
0000
0000
0100
0000
0001
0000
0010
0000
0100
0000
,  // measure 22
1000
0000
0011
0000
1000
0100
0001
0100
,  // measure 23
0000
1001
0000
0010
0000
0100
0000
0011
,  // measure 24
0000
0101
0000
1000
0000
0001
0010
0000
,  // measure 25
0010
0000
1000
0000
0100
0000
0001
0000
0000
0010
0000
0001
0100
0000
0000
0000
,  // measure 26
0010
0000
0001
0000
0100
0000
1000
0000
0000
0010
0000
1000
0100
0000
0000
0000
,  // measure 27
0100
0000
1000
0000
0010
0000
0001
0000
0000
0100
0000
0001
0010
0000
0000
0000
,  // measure 28
0100
0000
0001
0000
0010
0000
1000
0000
0000
0100
0000
1000
0010
0000
0000
0000
,  // measure 29
1000
0001
0000
0000
0010
0000
1000
0000
0001
0000
0010
0000
0100
0000
0000
0000
,  // measure 30
1000
0100
0000
0000
0001
0100
0000
0000
1000
0000
0010
0000
0001
0000
0000
0000
,  // measure 31
0010
0100
0000
0000
0001
0000
0010
0000
0100
0000
1000
0000
0010
0000
0000
0000
,  // measure 32
0001
0100
0000
0000
0100
1000
0000
0000
0100
0000
0001
0000
0010
0000
0000
0000
,  // measure 33
0001
1000
0000
0000
0010
0000
1000
0000
0100
0000
1000
0000
0010
0000
0000
0000
,  // measure 34
0001
0100
0000
0000
1000
0100
0000
0000
0010
0000
0001
0000
0100
0000
0000
0000
,  // measure 35
0100
0010
0000
0000
0001
0000
0010
0000
1000
0000
0010
0000
0001
0000
0000
0000
,  // measure 36
1000
0100
0000
0000
0100
0001
0000
0000
1000
0000
0100
0000
0001
0000
0000
0000
,  // measure 37
0001
0100
0000
0000
1000
0000
0010
0000
0100
0000
0010
0000
1000
0000
0000
0000
,  // measure 38
1000
0001
0000
0000
0010
0100
0000
0000
1000
0000
0001
0000
0100
0000
0000
0000
,  // measure 39
0010
1000
0000
0000
0001
0000
0010
0000
1000
0000
0010
0000
0100
0000
0000
0000
,  // measure 40
1000
0010
0000
0000
0010
0001
0000
0000
0001
0000
0010
0000
0100
0000
0000
0000
,  // measure 41
0010
1000
0100
1000
0010
0010
0010
0000
,  // measure 42
0100
0001
0010
0001
0100
0100
0100
0000
,  // measure 43
1000
0010
0100
0010
0001
0010
1000
0000
,  // measure 44
0101
0000
0000
0000
1100
0000
0000
0000
0000
0001
0000
0010
0000
1000
0000
0000
,  // measure 45
0010
0001
1000
0010
0100
0100
0100
0000
,  // measure 46
0100
0001
1000
0100
0010
0010
0010
0000
,  // measure 47
1000
0100
1000
0001
0100
0001
0010
0100
,  // measure 48
1000
0010
0001
0010
0100
0001
0010
0000
,  // measure 49
1000
0010
1000
0010
0000
0000
0100
0001
0100
0001
0000
0000
1000
0000
0010
0000
,  // measure 50
0100
0001
0010
0000
0100
1000
0001
0000
,  // measure 51
0010
0001
0010
0001
0000
0000
1000
0100
1000
0100
0000
0000
0010
0000
0001
0000
,  // measure 52
0010
0001
1000
0001
1000
0000
0001
0000
,  // measure 53
1000
0100
1000
0100
0000
0000
0010
0001
0010
0001
0000
0000
0010
0000
0100
0000
,  // measure 54
0010
0001
1000
0100
0010
0100
1000
0001
,  // measure 55
1000
0001
1000
0001
0000
0000
0010
0100
0010
0100
0000
0000
1000
0000
0001
0000
,  // measure 56
0010
0100
1000
0100
0010
0100
1001
0000
,  // measure 57
0010
1000
0010
1000
0010
0100
0010
0100
,  // measure 58
0001
1000
0001
1000
0002
0000
0103
0000
,  // measure 59
1000
0100
1000
0100
1000
0001
0010
0001
,  // measure 60
0010
0000
0100
0000
1000
0100
0000
0000
0010
0000
0001
0010
0000
0000
0000
0000
,  // measure 61
1000
0100
1000
0100
0010
0001
0010
0001
,  // measure 62
0010
0100
0010
0001
1000
0010
0100
0001
,  // measure 63
1000
0010
1000
0100
1000
0100
0010
0001
,  // measure 64
0010
0001
0100
0010
1000
0100
0010
0001
,  // measure 65
2000
0000
3002
0000
1003
0100
0010
0000
,  // measure 66
0002
0103
2000
3100
,  // measure 67
0020
0000
0230
0000
1300
0001
0100
0000
,  // measure 68
0020
2030
3002
0203
,  // measure 69
0301
0100
0001
0100
0010
0100
0010
0000
,  // measure 70
1000
0010
1000
0010
0100
0001
1000
0001
,  // measure 71
2000
0000
0020
3030
,  // measure 72
1000
0100
0010
0001
1000
0100
0010
0001
,  // measure 73
0010
0001
0010
0001
0000
0000
1000
0100
1000
0100
0000
0000
0010
0000
0100
0000
,  // measure 74
1000
0001
0100
0000
0001
1000
0100
0000
,  // measure 75
0010
1000
0010
1000
0000
0000
0001
0100
0001
0100
0000
0000
0001
0000
1000
0000
,  // measure 76
0010
0100
0001
0000
1001
0000
0110
0000
,  // measure 77
1000
0100
1000
0100
0000
0000
0010
0001
0010
0001
0000
0000
1000
0000
0100
0000
,  // measure 78
1000
0001
0010
0000
0001
1000
0010
0000
,  // measure 79
1000
0001
1000
0001
0000
0000
0010
0100
0010
0100
0000
0000
1001
0000
0000
0000
,  // measure 80
0110
0011
1001
1100
,  // measure 81
0010
0001
0010
0001
0000
0000
0010
0100
0010
0100
0000
0000
1001
0000
0000
0000
,  // measure 82
0002
0103
2000
3100
,  // measure 83
1000
0100
1000
0100
0000
0000
0010
0100
0010
0100
0000
0000
1001
0000
0000
0000
,  // measure 84
2000
3100
0002
0103
,  // measure 85
0001
0100
0010
1000
0001
0100
0010
1000
,  // measure 86
0001
1000
0100
0010
0001
1000
0010
0100
,  // measure 87
0001
0100
0100
0001
0010
0010
0001
1000
,  // measure 88
1000
0001
0100
0100
0100
0001
0010
0100
,  // measure 89
1000
0100
0010
0001
1000
0100
0010
0001
,  // measure 90
1000
0001
0100
0010
1000
0001
0010
0100
,  // measure 91
1000
0100
0100
0010
0100
0100
1000
0001
,  // measure 92
0001
0010
0100
0100
0010
0001
0010
1000
,  // measure 93
0001
0100
0010
1000
0001
0100
0010
1000
,  // measure 94
0001
1000
0100
0010
0001
1000
0010
0100
,  // measure 95
0001
0100
0100
0001
0010
0010
0001
1000
,  // measure 96
1000
0001
0100
0100
0100
0001
0010
0100
,  // measure 97
1000
0100
0010
0001
1000
0100
0010
0001
,  // measure 98
1000
0001
0100
0010
1000
0001
0010
0100
,  // measure 99
1000
0100
0100
0010
0100
0100
1000
0001
,  // measure 100
1001
0000
0000
1100
0000
0000
0101
0000
0000
0001
1000
0001
0100
0000
0010
0100
,  // measure 101
0001
0000
0000
0001
0100
0000
0000
0100
0010
0000
1000
0000
0001
0000
0100
0000
,  // measure 102
0010
0000
0000
0010
1000
0000
0000
1000
0001
0000
1000
0000
0100
0000
1000
0000
,  // measure 103
1000
0000
0000
1000
0010
0000
0000
0010
0100
0000
0001
0000
1000
0000
0010
0000
,  // measure 104
0100
0000
0000
0100
0001
0000
0000
0001
1000
0000
0001
0000
0010
0000
0001
0000
,  // measure 105
1000
0000
0000
1000
0100
0000
0000
0100
0010
0000
0001
0000
1000
0000
0100
0000
,  // measure 106
0010
0000
0000
0010
0001
0000
0000
0001
1000
0000
0001
0000
0100
0000
0001
0000
,  // measure 107
0001
0000
0000
0001
0010
0000
0000
0010
0100
0000
1000
0000
0001
0000
0000
0000
,  // measure 108
2200
0000
0000
3300
,  // measure 109
1100
0000
0000
1000
0100
0000
0000
0100
0010
0000
0001
0000
1000
0000
0100
0000
,  // measure 110
0010
0000
0000
0010
0001
0000
0000
0001
1000
0000
0001
0000
0100
0000
0001
0000
,  // measure 111
0001
0000
0000
0001
0010
0000
0000
0010
0100
0000
1000
0000
0001
0000
0010
0000
,  // measure 112
0100
0000
0000
0100
1000
0000
0000
1000
0001
0000
1000
0000
0010
0000
1000
0000
,  // measure 113
0101
0000
0000
0001
0100
0000
0000
0100
0010
0000
1000
0000
0001
0000
0100
0000
,  // measure 114
0010
0000
0000
0010
1000
0000
0000
1000
0001
0000
1000
0000
0100
0000
1000
0000
,  // measure 115
1010
0000
0000
1000
0010
0000
0000
0010
0100
0000
0010
0000
0110
0000
0000
0000
,  // measure 116
0000
0000
0000
0000
,  // measure 117
0010
0000
1100
0000
0010
0001
0100
0000
,  // measure 118
0001
1000
0100
0000
1000
0001
0100
0000
,  // measure 119
0100
0000
1010
0000
1000
0001
0100
0000
,  // measure 120
0001
1000
0001
0000
1000
0010
0100
0000
,  // measure 121
0010
0000
0101
0000
0010
1000
0100
0000
,  // measure 122
1000
0001
0100
0000
0001
1000
0100
0000
,  // measure 123
1100
0010
0101
0100
,  // measure 124
1100
0011
0110
1001
,  // measure 125
0001
0100
0010
1000
0001
0100
0010
1000
,  // measure 126
0001
1000
0100
0010
0001
1000
0010
0100
,  // measure 127
0002
0100
0103
0002
0010
0013
0002
1000
,  // measure 128
1003
0002
0100
0100
0103
0001
0010
0100
,  // measure 129
1000
0100
0010
0001
1000
0100
0010
0001
,  // measure 130
1000
0001
0100
0010
1000
0001
0010
0100
,  // measure 131
2000
0100
3100
0020
0100
0130
2000
0001
,  // measure 132
3001
0020
0100
0130
0010
1000
0010
1000
,  // measure 133
1000
0100
0010
0001
1000
0100
0010
0001
,  // measure 134
1000
0001
0100
0010
1000
0001
0010
0100
,  // measure 135
2000
0100
3100
2000
0010
3010
2000
0001
,  // measure 136
3001
2000
0100
0100
3100
1000
0010
0100
,  // measure 137
0001
0100
0010
1000
0001
0100
0010
1000
,  // measure 138
0001
1000
0100
0010
0001
1000
0010
0000
,  // measure 139
1001
0110
0101
1100
,  // measure 140
0202
0000
0000
0303
,  // measure 141
0001
0000
0000
0001
0100
0000
0000
0100
0010
0000
1000
0000
0001
0000
0100
0000
,  // measure 142
0010
0000
0000
0010
1000
0000
0000
1000
0001
0000
1000
0000
0100
0000
1000
0000
,  // measure 143
1000
0000
0000
1000
0010
0000
0000
0010
0100
0000
0001
0000
1000
0000
0010
0000
,  // measure 144
0100
0000
0000
0100
0001
0000
0000
0001
1000
0000
0001
0000
0010
0000
0001
0000
,  // measure 145
1100
0000
0000
1000
0100
0000
0000
0100
0010
0000
0001
0000
1000
0000
0100
0000
,  // measure 146
0110
0000
0000
0010
0001
0000
0000
0001
1000
0000
0001
0000
0100
0000
0001
0000
,  // measure 147
1001
0110
1100
0011
,  // measure 148
2200
3300
0110
1001
,  // measure 149
0010
0000
0010
0000
0001
0000
0000
0001
1000
0000
0001
0000
1000
0000
0000
1000
,  // measure 150
0001
0000
1000
0000
0001
0000
0000
0100
0010
0000
0100
0000
0010
0000
0000
0000
,  // measure 151
0100
0000
0100
0000
1000
0000
0000
0001
1000
0000
0001
0000
1000
0000
0000
1000
,  // measure 152
0001
0000
1000
0000
0001
0000
0000
0010
0100
0000
0010
0000
0100
0000
0000
0000
,  // measure 153
0010
0000
0010
0000
0010
0000
0000
0001
0100
0000
0100
0000
0100
0000
0000
0010
,  // measure 154
1000
0000
1000
0000
1000
0000
0000
0001
0100
0000
0100
0000
0100
0000
0000
0000
,  // measure 155
0010
0000
1000
0000
0010
0000
0000
0001
0100
0000
0001
0000
0100
0000
0000
0010
,  // measure 156
0001
0000
0010
0000
0001
0000
0000
0100
1000
0000
0100
0000
1000
0000
0000
0000
,  // measure 157
0010
0001
1000
0000
1000
0001
0100
0000
,  // measure 158
0010
1000
0010
0000
0100
1000
0100
0000
,  // measure 159
1000
1000
0100
0000
0001
0001
0100
0000
,  // measure 160
0010
0010
1000
0000
0100
0100
0001
0000
,  // measure 161
2000
0001
3001
0000
0002
1000
1003
0000
,  // measure 162
0200
1000
1300
0000
0020
0001
0031
0000
,  // measure 163
2000
0010
3010
0000
0002
1000
1003
0000
,  // measure 164
0020
0100
0130
0000
0200
0010
0310
0000
,  // measure 165
0020
0000
0000
0000
0000
0000
0000
0000
2000
0000
0000
0000
0030
0000
0000
0001
,  // measure 166
0002
0000
0000
3000
,  // measure 167
0200
0000
0000
0000
0003
0000
0000
0010
0020
0000
0000
0000
0300
0000
0000
1000
,  // measure 168
2000
0000
0000
0000
0030
0000
0000
0001
0002
0000
0000
0000
0000
0000
3003
0000
,  // measure 169
0010
1000
0010
1000
0010
1000
0010
1000
,  // measure 170
0001
1000
0001
1000
0001
1000
0001
1000
,  // measure 171
0100
0010
0100
0010
0100
0010
0100
0010
,  // measure 172
0100
1000
0100
1000
0100
1000
0100
0000
,  // measure 173
0010
0001
0010
0001
0010
0001
0010
0001
,  // measure 174
1000
0100
1000
0100
1000
0100
1000
0100
1000
0100
1000
0100
1000
0100
1000
0100
,  // measure 175
0010
0001
0010
0001
0010
0001
0010
0001
,  // measure 176
0010
0001
0010
0001
0010
0001
0010
0001
,  // measure 177
1000
0010
0100
0001
,  // measure 178
1000
0010
0100
0001
,  // measure 179
1000
0000
1000
0000
1000
0000
0010
0000
0000
1000
0000
0000
0001
0000
0000
0000
,  // measure 180
0001
0000
0001
0000
0001
0000
0010
0000
0000
0001
0000
0000
1000
0000
0000
0000
,  // measure 181
0010
0000
0010
0000
0010
0000
0100
0000
0000
0001
0000
0000
1000
0000
0000
0000
,  // measure 182
0100
0100
0100
0010
1000
0001
1000
0001
,  // measure 183
2000
0000
0010
0000
0010
0000
0010
0000
0000
0010
0000
0000
3010
0000
0000
0000
,  // measure 184
0002
0000
0100
0000
0100
0000
0100
0000
0000
0100
0000
0000
0103
0000
0000
0000
,  // measure 185
0020
0000
1000
0000
1000
0000
1000
0000
0000
1000
0000
0000
1030
0000
0000
0000
,  // measure 186
0101
1100
1010
0011
,  // measure 187
0010
0000
0010
0000
0001
0000
0000
0001
1000
0000
0001
0000
1000
0000
0000
1000
,  // measure 188
0001
0000
1000
0000
0001
0000
0000
0100
0010
0000
0100
0000
0010
0000
0000
0000
,  // measure 189
0100
0000
0100
0000
1000
0000
0000
0001
1000
0000
0001
0000
1000
0000
0000
1000
,  // measure 190
0001
0000
1000
0000
0001
0000
0000
0010
0100
0000
0010
0000
0100
0000
0000
0000
,  // measure 191
0010
1000
0010
0100
0000
0100
0001
0000
,  // measure 192
2010
0000
0000
0010
0010
0000
3001
0000
,  // measure 193
0102
0000
0000
0100
0100
0000
1003
0000
,  // measure 194
0101
1100
1010
0011
,  // measure 195
0010
0000
1000
0000
0100
0000
0000
0000
0001
0010
0001
0010
0000
0000
0100
0000
,  // measure 196
0010
0000
0001
0000
0100
0000
0000
0000
0001
0100
0001
0100
0000
0000
0001
0000
,  // measure 197
0010
0000
0001
0000
0100
0000
0000
0000
0100
0010
0100
0010
0000
0000
0100
0000
,  // measure 198
0002
1000
1000
1003
,  // measure 199
1010
0000
0101
0000
1000
0001
0100
0000
,  // measure 200
1000
0010
0100
0001
1000
0001
0100
0000
,  // measure 201
0011
0000
1100
0000
0001
1000
0100
0000
,  // measure 202
0001
0010
0100
1000
0001
1000
0100
0000
,  // measure 203
0101
0000
1010
0000
0001
1000
0010
0000
,  // measure 204
1001
0001
0100
0001
0010
0100
1000
0000
,  // measure 205
0120
0030
2001
3000
,  // measure 206
1010
0101
0011
0101
,  // measure 207
1100
0000
0000
0000
0000
0101
0000
0000
0000
0000
1100
0000
0000
0000
0000
0000
,  // measure 208
0000
0000
0000
0000
0000
0000
0000
0001
,  // measure 209
1000
0000
0110
0000
0000
1001
0000
0000
,  // measure 210
0000
0000
0000
0000
0000
0000
0000
1100
,  // measure 211
0101
0000
0000
0000
0000
1100
0000
0000
0000
0000
0101
0000
0000
0000
0000
0000
,  // measure 212
1010
0000
0000
0000
0000
0000
0100
0000
0000
0000
0000
1100
0000
0000
0000
0000
,  // measure 213
0011
0001
1100
1000
,  // measure 214
2000
0001
0001
3001
,  // measure 215
1000
0100
0010
0001
0100
0010
1000
0100
,  // measure 216
0010
0000
0000
1100
0000
0000
0000
1000
,  // measure 217
0001
1000
0000
1000
0010
0100
0000
1000
,  // measure 218
0001
0010
0001
1000
0001
0100
0000
0000
,  // measure 219
0001
0100
0010
1000
0100
0010
0001
0100
,  // measure 220
0010
0000
0000
0101
0000
0000
1001
0000
,  // measure 221
0100
0000
0000
0010
0100
0010
0000
0001
,  // measure 222
1000
0010
0100
0001
0010
0100
1000
0100
,  // measure 223
1000
0001
0100
0001
1000
0100
0010
0001
,  // measure 224
0010
0100
1000
0001
1000
0100
1000
0000
,  // measure 225
1000
0101
0000
0001
1100
0000
0001
0100
,  // measure 226
0001
0010
0100
1000
0001
1000
0100
0010
,  // measure 227
0001
0100
0010
1000
0010
1000
0001
0100
,  // measure 228
0001
1000
0010
1000
0001
0100
0001
1000
,  // measure 229
0010
1000
0001
0100
0001
1000
0010
1000
,  // measure 230
0001
0100
0001
1000
0010
1000
0001
0100
,  // measure 231
0001
0000
1100
0000
0001
1000
0100
0000
,  // measure 232
1000
0001
1000
0010
0000
0101
0000
1100
,  // measure 233
0000
0100
0000
0011
0000
0100
0000
1000
,  // measure 234
0001
1100
0000
1000
0101
0000
0001
1100
,  // measure 235
0000
0001
0100
0001
1000
0100
0010
0001
,  // measure 236
1000
0001
0100
0010
0100
0010
1000
0001
,  // measure 237
0100
0010
0100
0001
1000
0010
1000
0100
,  // measure 238
2000
0000
0000
0000
0001
0000
0000
0000
0001
0000
0000
0000
3001
0000
0001
0100
,  // measure 239
0001
1000
0010
1000
0010
0100
0001
1000
,  // measure 240
0001
0000
0010
0000
0001
0000
1000
0000
0001
0000
1000
0000
0100
0000
1000
0001
,  // measure 241
1000
0001
0010
0001
0010
0100
1000
0001
,  // measure 242
1000
0000
0010
0000
1000
0000
0001
0000
1000
0000
0001
0000
0100
0000
0001
0100
,  // measure 243
0001
1000
0100
1000
0010
0100
0001
1000
,  // measure 244
0001
0000
0010
0000
0001
0000
1000
0000
0001
0000
1000
0000
0100
0000
1000
0001
,  // measure 245
1000
0001
0010
0001
0010
0100
1000
0001
,  // measure 246
1000
0000
0010
0000
1000
0000
0001
0000
1000
0000
0001
0000
0100
0000
0001
0100
,  // measure 247
0002
0000
0000
0000
0000
0003
0000
0000
;
