#TITLE:sudden departure Mix;
#SUBTITLE:(DDR HOTTEST PARTY -Side B-);
#ARTIST:baconman;
#TITLETRANSLIT:;
#SUBTITLETRANSLIT:;
#ARTISTTRANSLIT:;
#CREDIT:;
#BANNER:HOT-B.png;
#BACKGROUND:HOT-B-bg.PNG;
#LYRICSPATH:;
#CDTITLE:./CDTITLES/Dance Dance Revolution HOTTEST PARTY.png;
#MUSIC:HOT-B.mp3;
#OFFSET:-0.020;
#SAMPLESTART:251.880;
#SAMPLELENGTH:15.000;
#SELECTABLE:YES;
#BPMS:0.000=195.000,277.000=190.000,533.000=185.000,548.000=180.000,1053.000=95.000,1073.000=100.000;
#STOPS:148.000=0.920
;
#BGCHANGES:;

//---------------dance-single - ----------------
#NOTES:
     dance-single:
     :
     Easy:
     3:
     0.263,0.314,0.039,0.157,0.000:
0000
0000
0000
0000
,
0000
0000
0000
0000
,
0000
0000
0000
0000
,
0000
0000
0000
0000
,
0001
0000
1000
0000
,
0010
0000
1000
0000
,
0010
0000
0100
0000
,
0001
0000
1000
0000
,
0001
0000
1000
0000
,
0100
0000
0001
0000
,
0010
0000
1000
0000
,
0100
1000
0100
0000
,
0010
0001
0010
0000
,
1000
0000
0001
0000
,
0100
0010
0100
0000
,
0010
0000
1000
0000
,
0010
0000
0000
0000
,
0001
0000
0010
0000
,
0100
0010
0100
0000
,
1000
0000
0010
0000
,
0100
0000
0000
0000
,
0010
0000
0001
1000
,
0020
0000
0000
0030
,
0000
0000
1000
0000
,
0002
0000
0000
0003
,
0000
0000
0100
0000
,
0020
0000
0000
0030
,
0000
0000
1000
0000
,
0002
0000
0000
0003
,
0000
0000
0010
0100
,
0020
0000
0000
0030
,
0000
0000
0100
0000
,
2000
0000
0000
3000
,
0000
0000
1000
0000
,
0010
0000
0000
0000
,
0000
0000
0100
0000
,
0001
0000
0000
0000
,
1000
0001
0000
1000
,
0000
0010
0100
0010
,
0000
0100
0000
0000
,
0000
0001
0000
1000
,
0000
0200
0000
0000
,
0300
0000
1000
0000
,
0010
0200
0000
0000
,
0300
0100
0000
0000
,
0000
0010
0000
0100
,
0000
0001
1000
0001
,
0000
2000
0000
0000
,
3000
0000
0100
0100
,
0100
0200
0000
0000
,
0300
0000
0010
0010
,
0010
0020
0000
0000
,
0030
0010
0000
0000
,
0000
1000
0000
0010
,
0000
0100
0001
0100
,
0000
0010
0000
0000
,
0000
1000
0000
0001
,
0000
0200
0000
0000
,
0300
0000
0001
0000
,
1000
0020
0000
0000
,
0030
0010
0000
0000
,
0000
1000
0000
0001
,
0000
0100
0010
0100
,
0000
0002
0000
0000
,
0003
0000
1000
1000
,
1000
2000
0000
0000
,
3000
0000
0010
0010
,
0100
0100
0000
0000
,
0000
0110
0000
0000
,
0000
0000
0010
0000
,
0100
0000
0001
1000
,
0001
1000
0001
0000
,
0100
0000
0010
0000
,
0100
0000
1000
0000
,
0001
0000
1000
0000
,
0001
0000
0100
0000
,
0010
0000
0100
0000
,
0010
1000
0001
1000
,
0001
0010
0100
2000
,
3000
0100
1000
0001
,
0000
1000
0001
0000
,
0010
1000
0001
1000
,
0001
0100
0010
2000
,
3000
0001
0100
0001
,
0000
1001
0000
0110
,
0000
0100
1000
0100
,
1000
0001
0010
0200
,
0300
1000
0001
0000
,
0100
0000
0010
0000
,
0100
0001
0010
0001
,
0010
0100
1000
0020
,
0030
2000
3000
0002
,
0003
1000
1000
0001
,
0001
0100
0000
0001
,
0000
1000
0100
0100
,
0000
1000
0000
0001
,
0000
0100
0100
0001
,
0000
1000
0000
0010
,
0000
0001
0010
0010
,
0000
1000
0000
0100
,
0000
0001
0001
0100
,
0000
1000
1000
0010
,
0000
0100
0100
0001
,
0000
0010
0010
0002
,
0003
2000
3000
0200
,
0300
1000
0010
0010
,
0000
0100
0001
0001
,
0000
1000
0000
0001
,
0000
1000
0001
1000
,
0001
2000
0000
3100
,
0000
0002
0000
0013
,
0000
1000
0100
1000
,
0100
0010
0001
0010
,
0001
0200
0000
0301
,
0000
0020
0000
1030
,
0000
0001
0000
1000
,
0000
0001
1000
0001
,
1000
0010
0000
1000
,
0000
0001
0010
0010
,
0000
0001
0000
1000
,
0000
0010
0010
1000
,
0000
0001
0000
0100
,
0000
1000
0100
0100
,
0000
0001
0000
0010
,
0000
1000
1000
0010
,
0000
0001
0001
0100
,
0000
0010
0010
1000
,
0000
0100
0100
1000
,
0000
0001
0001
0010
,
0000
0001
0100
0100
,
0000
0010
1000
1000
,
0000
0001
0000
1000
,
0000
0010
0100
0010
,
0100
0001
1000
0001
,
1000
0100
0010
0002
,
0003
0010
0001
1000
,
0000
0001
0000
1000
,
0000
0001
1000
0001
,
1000
0010
0100
0002
,
0003
1000
0001
1000
,
0000
1001
0000
0110
,
0000
1001
0000
1000
,
0000
0100
0010
0100
,
0010
0001
0000
0001
,
0000
0100
0010
0100
,
0010
2000
3000
0002
,
0003
0020
0030
0200
,
0300
1000
0010
1000
,
0010
0100
0001
0100
,
0000
0001
0000
0001
,
0000
0100
0010
0100
,
0010
1000
0000
1000
,
0000
0100
0010
0100
,
0010
0002
0003
2000
,
3000
0020
0030
0200
,
0300
0001
0010
0001
,
0010
0100
1000
0100
,
0000
1000
0000
1000
,
0000
0001
0000
0001
,
0000
1000
0000
0010
,
0000
0100
0000
0100
,
0000
0001
0000
0001
,
0000
1000
0000
1000
,
0000
0001
0000
0010
,
0000
0100
0000
0100
,
0000
1000
0010
1000
,
0010
0100
0001
0100
,
0000
0001
0010
0100
,
1000
0002
0003
2000
,
3000
0001
0010
0001
,
0010
0100
1000
0100
,
0000
1000
0010
0100
,
0001
2002
0000
3003
,
0000
1000
0100
0010
,
0000
0001
0100
0010
,
0000
1000
0001
1000
,
0000
0100
0010
0100
,
0010
0001
0100
0010
,
0000
1000
0100
0010
,
0000
0001
1000
0001
,
0000
0100
0000
1001
,
0000
0010
0000
1000
,
0000
0010
1000
0100
,
0000
0010
0000
0001
,
0000
0010
0001
0100
,
0000
0010
0000
0010
,
0000
0100
0100
0100
,
0000
0002
0003
0020
,
0030
0200
0300
2000
,
3000
0001
0000
0010
,
0000
0001
0100
0010
,
0000
1000
0000
0010
,
0000
1000
0100
0010
,
0000
0001
0000
1000
,
0000
0100
0100
0100
,
0000
2000
3000
0020
,
0030
0200
0300
0002
,
0003
1000
0000
0001
,
0000
1000
0100
0010
,
0001
0100
0000
0100
,
0000
0001
0100
0010
,
1000
0100
0000
0100
,
0000
0010
0000
0010
,
0000
0001
1000
0001
,
1000
0010
0100
0010
,
0000
1001
0000
0000
,
0000
0110
0000
0000
,
0000
0010
0000
1000
,
0000
0100
0000
0100
,
0000
0010
0000
0001
,
0000
0100
0000
0100
,
0000
0010
0000
0010
,
0000
1000
0000
0001
,
0000
0010
0000
0010
,
0000
0001
0000
1000
,
0000
0001
1000
0100
,
0000
1000
0001
0100
,
0000
0010
0100
0001
,
0000
0010
0100
1000
,
0000
0010
0000
1000
,
0000
0100
0000
0001
,
0000
0010
0000
0001
,
0000
0100
0000
1000
,
0000
1000
0001
1000
,
0000
0001
1000
0001
,
0000
0010
0100
0010
,
0000
0100
0010
0100
,
0000
2000
0000
3000
,
0000
0002
0000
0003
,
0000
1000
0000
0100
,
0000
0010
0000
0001
,
0000
1000
0001
1000
,
0000
0001
1000
0001
,
0000
0010
0100
0010
,
0000
0100
0010
0100
,
0000
2000
0000
3000
,
0000
0002
0000
0003
,
0000
1000
0000
0010
,
0000
0100
0000
0001
,
0000
2000
0000
3000
,
0000
0002
0000
0003
,
0000
0020
0000
0030
,
0000
0200
0000
0300
,
0000
0020
0000
0031
,
0000
0002
0000
0103
,
0000
0200
0000
0310
,
0000
0020
0000
1030
,
0000
0100
0010
0001
,
0000
0100
0010
1000
,
0000
0100
0010
0100
,
0000
1000
0001
1000
,
0000
0002
0000
0003
,
0000
2000
0000
3000
,
0000
0010
0000
1000
,
0000
0100
0000
0001
,
0000
0100
0010
1000
,
0000
0100
0010
0001
,
0000
1000
0001
1000
,
0000
0010
0100
0010
,
0000
2000
0000
3000
,
0000
0002
0000
0003
,
0000
0010
0000
0001
,
0000
0100
0000
1000
,
0000
0010
0000
0010
,
0000
0100
0000
0100
,
0000
0001
0000
1000
,
0000
0001
0000
1000
,
0000
1001
0000
0000
,
0000
1000
1000
0100
,
0000
0010
0000
0010
,
0000
0001
0001
0100
,
0000
1000
0000
0100
,
0000
0010
1000
0001
,
0000
0001
1000
0100
,
0000
2002
0000
0000
,
3003
1001
1001
0000
,
0000
0010
1000
0100
,
0000
0100
0000
0010
,
0001
0100
0000
0010
,
0000
1000
0001
0100
,
0000
0100
0001
0010
,
0000
0010
0000
0100
,
1000
0010
0000
1000
,
1000
0001
0001
0100
,
0000
0110
0000
1001
,
0000
0010
1000
0100
,
0000
1000
0001
0001
,
0000
0001
1000
1000
,
0000
0001
0010
0100
,
0000
0010
0001
0100
,
0000
0100
0000
0010
,
1000
0100
0000
0010
,
0000
0001
1000
0100
,
0000
1000
0001
0100
,
0010
1000
0001
0100
,
0000
0001
1000
0010
,
0100
0001
1000
0010
,
0000
1000
0100
0010
,
0001
1000
0100
0010
,
0000
0001
0100
0010
,
1000
0001
0100
0010
,
0000
0110
0000
0000
;

//---------------dance-single - ----------------
#NOTES:
     dance-single:
     :
     Medium:
     6:
     0.466,0.557,0.365,0.241,0.005:
0000
0000
0000
0000
,
0000
0000
0000
0000
,
0000
0000
0000
0000
,
0000
0000
0000
0000
,
0010
0100
0001
0010
,
0100
0001
1000
0001
,
0100
0000
0010
1000
,
0001
0000
0010
0001
,
1000
0001
1000
0100
,
0010
1000
0001
0100
,
0010
0000
0001
1000
,
0100
0000
1000
0010
,
0100
0000
0001
1000
,
1001
0000
1000
0010
,
0002
0003
0001
0010
,
2000
3000
0001
0100
,
0010
0010
0100
0001
,
1000
0000
1000
0100
,
0002
0003
0001
0100
,
2000
3000
0001
0010
,
0100
0100
1000
0010
,
0001
0000
0010
1000
,
0001
0010
0011
0000
,
0010
0100
0110
0000
,
1000
0010
1010
1000
,
1001
1000
1100
1000
,
0001
0100
0101
0000
,
1000
0100
1100
0000
,
1000
0100
0001
0100
,
0010
0001
0100
1000
,
0100
0010
0110
0000
,
0010
0001
0011
0000
,
1000
0001
1001
0001
,
0011
0001
0101
0001
,
1000
1000
0010
0100
,
0001
0000
0001
0001
,
0010
0100
1000
0020
,
0130
0001
0001
1000
,
1000
0010
0100
0010
,
1000
2002
0000
0000
,
3003
0000
0010
0100
,
0010
0000
1000
0100
1000
0000
0001
0100
,
0001
1001
0000
0010
,
0100
0010
1000
0100
,
0001
0020
0100
0100
,
0130
1000
1000
0001
,
0001
0100
0010
0100
,
0001
2002
0000
0000
,
3003
0000
1000
0001
,
0010
0011
0001
0001
,
0001
0001
0001
1000
,
0010
2020
0000
0000
,
3030
1001
0000
0000
,
0000
0010
0010
0100
,
0100
0001
1000
0001
,
0010
0022
0000
0000
,
0033
0000
0000
0000
1000
0100
0000
0000
,
1000
0000
0001
0100
0001
0000
1000
0100
,
1000
0010
0100
0010
,
1000
0000
0001
0010
0001
0000
1000
0010
,
1000
1001
1001
1001
,
0000
0100
0100
0010
,
0010
1000
0001
1000
,
0010
2020
0000
0000
,
3030
0000
1000
0001
,
0100
0110
0010
0010
,
0010
0010
0100
0001
,
0010
0110
0000
0000
,
1001
0110
0000
0000
,
0000
0100
0010
1000
,
0100
0000
0010
0000
1000
0000
0001
1000
,
0001
1001
0000
0100
,
0001
1001
0000
0100
,
1000
0001
1000
0001
,
0010
0000
0100
0000
0001
0000
1000
0010
,
1000
0100
0000
1000
,
0001
1001
0000
0100
,
0010
0000
1000
0000
0100
0020
0000
0000
,
0031
0000
1000
0000
0100
0020
0000
0000
,
0031
0100
0100
0001
,
1001
1000
1000
0100
,
0110
0000
0001
0000
0100
0020
0000
0000
,
1030
0000
0001
0000
0100
0020
0000
0000
,
1030
0100
0100
0010
,
0010
0001
1001
1000
,
1001
0000
0001
0000
0010
0200
0000
0000
,
1300
0000
0001
0000
0010
0200
0000
0000
,
1300
0010
0010
1000
,
1001
0001
0001
0010
,
0110
0000
1000
0000
0010
0200
0000
0000
,
0301
0000
1000
0000
0010
0200
0000
0000
,
0301
1001
0000
0110
,
0000
1000
1001
0001
,
1001
0100
1000
0001
,
0001
0100
0001
1000
,
1000
0020
0030
0200
,
0300
0002
0003
2000
,
3000
0010
1000
0001
,
0001
0010
0100
1000
,
1000
0002
0003
0020
,
0030
0200
0300
2000
,
3000
0000
0001
0000
0001
0200
0000
0000
,
0310
0000
1000
0000
1000
0200
0000
0000
,
0310
0002
0003
2000
,
3000
0010
0010
0100
,
0100
0000
0001
0000
0001
0020
0000
0000
,
0130
0000
1000
0000
1000
0020
0000
0000
,
0130
0220
0000
0330
,
0000
2000
3002
2003
,
3002
0000
0013
0000
0010
0100
0000
0000
,
0100
0000
1000
0000
1000
0001
0000
0000
,
0001
0000
0100
0000
0100
0010
0000
0000
,
0010
0000
1000
0000
1000
0100
0000
0000
,
0100
0000
0010
0000
0010
0002
0000
0003
,
0001
0000
0100
0000
0100
0020
0000
0030
,
0010
2002
0000
3003
,
0000
0200
0320
0230
,
0320
0000
2030
0000
0000
3100
0000
0000
,
1000
0000
0002
0000
0000
0103
0000
0000
,
0001
0000
0020
0000
0000
0130
0000
0000
,
1000
0000
0020
0000
0000
0130
0000
0000
,
0001
1000
0002
0000
0000
0023
0000
0000
,
0031
0000
2000
0000
0000
3020
0000
0000
,
1030
0000
0200
0000
0000
0320
0000
0030
,
0001
0000
0200
0000
0000
0320
0000
0000
,
1030
0000
0100
0000
1000
0001
0000
0100
,
0000
0000
0001
0000
0100
0010
0000
0000
,
1000
0000
0100
0010
0000
0001
0000
0010
,
0000
0001
1000
0000
1000
0001
0000
0000
,
1000
0100
0100
0100
,
0010
0001
0001
0001
,
1000
1100
0000
0101
,
0000
1001
0001
1001
,
1000
0000
0001
0000
0010
0200
0000
0000
,
1300
0000
0001
0000
0010
0200
0000
0000
,
1300
0010
0010
1000
,
1001
0001
0001
0010
,
0110
0000
1000
0000
0010
0200
0000
0000
,
0301
0000
1000
0000
0010
0200
0000
0000
,
0301
0010
0010
0100
,
0100
0000
1000
0000
0001
1000
0000
0010
,
0100
0002
0003
0000
0100
0000
1000
0000
,
0100
0000
0001
0000
0100
0000
0010
0010
,
1000
0001
1000
0000
0100
0000
0001
0000
,
0100
0000
1000
0000
0100
0000
0010
0010
,
0001
1000
0002
0000
0000
0100
0203
0000
,
0000
0000
0301
1000
,
0010
0000
1000
0001
,
1000
0000
0001
1000
0100
0020
0000
0000
,
0030
0001
0010
1000
,
0010
0000
0001
0000
0010
0000
0100
0100
,
1000
0001
1000
0000
0010
0000
0001
0000
,
0010
0000
1000
0000
0010
0000
0100
0100
,
0001
1000
0002
0000
0000
0100
0103
0000
,
0000
0000
0000
0001
0010
0001
0000
1000
,
0010
1000
0000
0001
1000
0001
0000
1000
,
0001
1000
0000
0100
0010
0100
0010
0000
,
0010
0000
0001
0000
0000
0001
0100
0000
,
0000
0100
0010
0000
0000
0010
1000
0000
,
0000
1000
0001
0000
0001
0000
0010
0000
,
0010
0000
0100
0000
0100
0000
1000
0001
,
1000
0001
1000
0000
0000
1000
0100
0000
,
0000
0100
0010
0000
0000
0001
1000
0000
,
0010
0100
0001
1000
0000
0100
0000
1000
,
0000
0100
0000
0001
0000
0100
0000
0001
,
0000
0100
0010
1000
0010
0000
1000
0000
,
0100
0000
0010
0001
0010
0000
0001
0000
,
1001
0000
0010
0001
0010
0000
0100
0000
,
1000
0001
0000
1000
0001
0000
0100
0000
,
0010
0000
1000
0100
1000
0000
0001
0000
,
0010
0000
0001
0100
0001
0100
0001
0000
,
0000
1000
0001
1000
,
0001
0000
0000
0010
0100
0010
0100
0000
,
1001
0010
1000
0100
,
0001
0010
1000
0100
,
0001
0010
1000
0100
,
0001
1001
1001
1001
,
1001
0010
0001
0100
,
1000
0010
0001
0100
,
1000
0000
0000
0010
0010
0010
0000
0100
,
0100
0100
0000
1001
0000
1001
0000
0000
,
0000
1000
0100
0000
0000
0100
0010
0000
,
0000
0010
0001
0000
1000
0000
1001
0000
,
0000
0001
0100
0000
0001
0000
0010
0000
,
0100
1000
0010
0110
,
0000
0100
0001
0000
0000
0001
1000
0000
,
0000
1000
0010
0000
1000
0000
0100
0000
,
0010
0001
0100
0001
0000
1000
0000
0001
,
0000
1000
0000
0001
0200
0000
0302
0000
,
2003
0000
3010
0000
0000
1000
0100
0000
,
0000
0001
0010
0000
0100
0000
1001
0000
,
0000
0100
1000
0000
0010
0000
0100
0000
,
0001
0010
0100
0110
,
0000
0010
0001
0000
0000
0100
1000
0000
,
0000
0010
0100
0000
0001
0000
0010
0000
,
0100
1100
0000
0101
,
0000
1001
0110
0110
,
1001
0010
1000
0100
,
0001
0010
0001
0100
,
1000
0000
0001
0010
0001
0000
1000
0010
,
1000
0000
0100
0010
0100
0000
1001
0000
,
0000
1000
1100
0001
,
0101
1000
1010
0001
,
0011
0000
1000
0000
0001
0000
1000
0100
,
0010
0000
0001
0010
0100
1000
0000
0100
,
0010
0000
0001
0000
0000
0011
0000
0000
,
0000
0000
1000
0000
0000
1010
0000
0000
,
0000
0200
0000
0300
,
0001
1000
0001
0000
0000
1000
0000
0000
,
0100
0020
0000
0030
,
0001
1000
0001
0000
0000
0100
0000
0000
,
0010
2000
0000
3000
,
0001
0000
0010
0000
0001
1000
0000
0101
,
0000
1100
0000
0000
0001
0000
0000
0010
,
0000
0000
0100
0000
0000
1000
0000
0000
,
1001
1001
0001
0100
,
0010
0000
1000
0000
0100
0000
1000
0010
,
0100
0001
0100
0000
0001
0000
1000
0000
,
0100
0000
0010
0000
0100
0000
1000
0001
,
0100
0010
0100
0000
0001
0000
1000
0000
,
0100
0000
0010
0000
0001
0000
0100
0001
,
0010
0100
1000
0000
0001
1000
0000
0110
,
0000
2002
0000
0000
0000
0000
0000
0000
,
3003
1100
1100
1100
,
0000
0101
0000
0001
1000
0000
1001
0000
,
0000
0101
0101
0101
,
0000
1100
0000
1000
0001
0000
1001
0000
,
0100
0000
0010
0000
0000
1000
0001
0000
,
0000
0100
0001
1000
,
0010
1000
0100
1000
,
0001
0010
0000
0001
1000
0000
0001
0000
,
0100
1010
1010
1010
,
0000
0011
0000
0001
1000
0000
1001
0000
,
0000
0011
0011
0011
,
0000
1010
0000
1000
0001
0000
1001
0000
,
0010
0000
0100
0000
0000
1000
0001
0000
,
0000
0010
0001
1000
,
0100
1000
0010
1000
,
0001
0100
0000
0001
1000
0000
0001
0000
,
0010
0200
0000
0300
,
1000
0000
0001
0000
1000
0100
0000
0000
,
1000
0000
0001
0000
1000
0100
0000
0000
,
0010
0001
0000
1000
0000
1001
0000
0000
,
0000
0001
0101
1000
,
1100
0001
0011
1000
,
1010
0000
0101
0000
0000
0011
0000
0000
,
1100
0000
0000
1010
0000
0000
0110
0000
,
1001
0011
0011
0011
,
0000
1010
0000
1000
0001
0000
1001
0000
,
0000
1010
1010
1010
,
0000
0011
0000
0001
1000
0000
1001
0000
,
0010
0000
0100
0000
0000
0001
1000
0000
,
0000
0010
1000
0001
,
0100
0001
0010
0001
,
1000
0100
0000
1000
0001
0000
1000
0000
,
0010
0101
0101
0101
,
0000
1100
0000
1000
0001
0000
1001
0000
,
0000
1100
1100
1100
,
0000
0101
0000
0001
1000
0000
1001
0000
,
0100
0000
0010
0000
0000
0001
1000
0000
,
0000
0100
1000
0001
,
0010
0001
0100
0001
,
1000
0010
0000
1000
0001
0000
1000
0000
,
0100
0000
0010
0001
0100
0000
0010
1000
,
0100
0000
0000
0000
0010
0000
0001
0000
0100
0000
0001
1000
0000
0001
1000
0000
,
0010
1000
0100
0000
0010
0000
0000
0001
,
1000
0000
0001
0000
0010
0000
0001
0000
1000
0000
0100
0010
0000
0100
0010
0000
,
0001
1000
2002
0000
0000
0000
3003
0000
,
0000
0001
0100
0001
,
0100
0010
1000
0010
,
1000
0100
0010
0100
,
0010
0100
1000
0001
,
1000
0100
0001
0000
0100
0000
0001
0000
,
0100
1000
0100
1000
,
0100
1000
0010
0000
0100
0000
0010
0000
,
0100
0002
0000
1003
,
1000
1001
0110
1001
,
1001
0000
0001
0001
0100
0000
1000
1000
,
0100
1001
0010
0100
,
0010
0000
1000
1000
0010
0000
0001
0001
,
0010
1001
0110
1001
,
1001
0000
1000
1000
0100
0000
0001
0001
,
0100
1001
0010
0100
,
0010
0000
0001
0001
0010
0000
1000
1000
,
0010
1010
1000
0101
,
0001
1001
0110
0110
,
0000
0110
1001
1001
,
1001
1001
0110
1001
,
1001
0220
0000
0000
,
0330
0001
0100
1000
,
0100
0000
0001
0100
0001
0000
1000
0100
,
1000
1001
0010
1000
,
0010
0000
0001
0010
0001
0000
1000
0010
,
1000
1020
0130
0020
,
0130
0002
1003
0002
,
1003
0020
0130
2000
,
3001
0020
0130
2000
,
3001
2000
3100
2000
,
3100
0002
0103
0002
,
0103
2000
3010
0002
,
0013
2000
3100
0002
,
0203
0310
0000
0000
;

//---------------dance-single - ----------------
#NOTES:
     dance-single:
     :
     Hard:
     8:
     0.628,0.766,0.389,0.245,0.032: // measure 1
0000
0000
0000
0000
,  // measure 2
0000
0000
0000
0000
,  // measure 3
0000
0000
0000
0000
,  // measure 4
0000
0000
0000
0000
,  // measure 5
0010
0000
0000
1010
0000
0000
1000
0000
,  // measure 6
0000
1001
0000
0000
0001
0000
0100
0000
,  // measure 7
0010
1000
0100
0010
,  // measure 8
0001
0000
0010
0100
,  // measure 9
0001
0000
0000
0011
0000
0000
0001
0000
,  // measure 10
0000
1001
0000
0000
1000
0000
0010
0000
,  // measure 11
0001
0010
0100
0001
,  // measure 12
0100
0010
1000
0001
,  // measure 13
0200
0000
0310
0100
,  // measure 14
1001
0000
1000
0100
,  // measure 15
0010
0000
0001
0000
1000
0010
0100
0000
,  // measure 16
0010
0000
0100
0010
,  // measure 17
0001
0100
1000
0100
,  // measure 18
0001
0000
0010
0100
,  // measure 19
0001
0000
0100
0000
0010
1000
0001
0000
,  // measure 20
1000
0100
0001
0100
,  // measure 21
1000
0010
0010
0010
,  // measure 22
0010
0000
0000
1001
0000
0000
0100
0000
,  // measure 23
0001
0100
1000
0000
0001
0100
1000
0000
,  // measure 24
0001
1000
0010
0100
,  // measure 25
0001
0100
1000
0000
0001
0100
1000
0000
,  // measure 26
0010
1000
0100
0000
1000
0000
0001
0000
,  // measure 27
1000
0100
0001
0000
1000
0100
0001
0000
,  // measure 28
1000
0000
0010
0100
0000
0000
0010
0000
,  // measure 29
2000
3100
0002
0103
,  // measure 30
0010
0000
1001
1001
,  // measure 31
1000
0001
0100
0000
0001
1000
0100
0000
,  // measure 32
0010
0001
0100
0000
0010
0000
0100
0000
,  // measure 33
0001
1000
0100
0000
1000
0001
0100
0000
,  // measure 34
0010
0000
1000
0100
0000
0000
1100
0000
,  // measure 35
0010
0001
0100
0001
,  // measure 36
0010
0000
0001
0100
0000
0000
1000
0000
,  // measure 37
0001
1000
0001
1000
,  // measure 38
1001
1000
0010
0100
,  // measure 39
0001
0000
1000
0100
1000
0100
0000
0000
,  // measure 40
0010
0110
0000
0001
,  // measure 41
1000
0000
0010
0000
0100
0010
0000
0000
,  // measure 42
0001
2000
0100
0001
,  // measure 43
0100
0000
3001
0000
0100
0010
0000
0000
,  // measure 44
1000
0002
1000
0100
,  // measure 45
1000
0103
0001
0011
,  // measure 46
1010
1000
0010
0001
,  // measure 47
0010
0000
0100
0000
1000
0001
0000
0000
,  // measure 48
0100
0010
0010
0010
,  // measure 49
0010
0010
1000
0001
,  // measure 50
0100
0010
0010
0010
,  // measure 51
0010
0010
1000
0001
,  // measure 52
0100
0000
1001
0000
0000
0000
0000
0010
,  // measure 53
0100
0220
0000
0330
,  // measure 54
0000
0001
0100
1000
,  // measure 55
0001
0000
0010
0001
0010
0001
0000
0000
,  // measure 56
1000
0002
0010
0100
,  // measure 57
0010
0000
0103
0000
0010
1000
0000
0000
,  // measure 58
0100
0020
0001
0100
,  // measure 59
0001
0000
0130
0000
0001
0100
0000
0000
,  // measure 60
0020
1000
0100
1000
,  // measure 61
0130
0010
1010
0011
,  // measure 62
0001
1000
0100
0010
,  // measure 63
0001
1000
0100
1000
,  // measure 64
0001
2002
0000
0000
,  // measure 65
3003
0000
1000
0010
,  // measure 66
0100
0000
0010
1000
0010
0000
0100
0001
,  // measure 67
0100
0001
1000
0100
,  // measure 68
0001
0000
0010
0001
0010
0000
0100
1000
,  // measure 69
0100
2002
0000
3003
,  // measure 70
0000
0000
0010
1000
0000
0001
0000
0000
,  // measure 71
0010
0000
0000
0100
0000
0010
0001
0010
,  // measure 72
0001
0000
1000
0000
0000
0010
0000
0000
,  // measure 73
1000
0100
0001
0100
,  // measure 74
1000
0000
0010
0100
0000
0001
0000
0000
,  // measure 75
0010
0000
0000
0001
0000
1000
0010
1000
,  // measure 76
0010
0100
0001
0100
,  // measure 77
1000
0000
0100
0010
0000
0100
0000
0010
,  // measure 78
0000
0110
2000
0000
3100
0020
0000
0031
,  // measure 79
2000
0000
3100
0000
1000
0001
0010
0000
,  // measure 80
1001
0000
0100
0000
2000
0001
0000
3001
,  // measure 81
1000
0000
0200
1000
0000
0010
0000
1300
,  // measure 82
0001
0010
0002
0000
0103
0020
0000
1030
,  // measure 83
0002
0000
0103
0000
0001
1000
0010
0000
,  // measure 84
1001
0000
0100
0000
0002
1000
0000
1003
,  // measure 85
0001
0000
0100
0001
1000
0001
0100
0010
,  // measure 86
1000
0001
2000
0000
3100
0020
0000
0031
,  // measure 87
2000
0000
3100
0000
1000
0001
0100
0000
,  // measure 88
1001
0000
0010
0000
2000
0100
0000
3100
,  // measure 89
1000
0000
0002
1000
0000
0100
0000
1003
,  // measure 90
0010
0100
0002
0000
0103
0020
0000
1030
,  // measure 91
0002
0000
0103
0000
0001
1000
0100
0000
,  // measure 92
1001
0000
0001
0002
0000
0003
1000
2000
,  // measure 93
0000
3000
0100
1000
0001
1000
0100
0010
,  // measure 94
0001
1000
0001
0000
1100
0000
0001
0000
,  // measure 95
1100
0000
0100
1000
0001
0010
0001
0000
,  // measure 96
1001
1000
0101
1000
,  // measure 97
0101
0000
1000
0010
0100
0001
0100
0000
,  // measure 98
1001
0001
1010
0001
,  // measure 99
1010
0000
0100
0001
1000
0010
1000
0000
,  // measure 100
1001
1000
0011
1000
,  // measure 101
0011
0000
1000
0100
1000
0001
0010
0001
,  // measure 102
1000
0000
0010
0100
0001
1000
0001
0100
,  // measure 103
0010
1000
1001
0100
,  // measure 104
0110
0000
0001
1000
0010
0100
0010
1000
,  // measure 105
0001
0010
1001
0100
,  // measure 106
0101
0000
0010
1000
0100
0010
0100
1000
,  // measure 107
0010
0100
1001
0100
,  // measure 108
1100
0000
0001
1000
0100
0010
0100
1000
,  // measure 109
0001
1001
0110
1001
,  // measure 110
0110
0000
1001
0000
0001
0100
0000
0100
,  // measure 111
0010
0000
1000
0000
1000
0001
0000
0001
,  // measure 112
0100
0000
0001
1000
0100
0000
0010
0100
,  // measure 113
1000
0000
0010
1000
0001
0000
0100
0010
,  // measure 114
1000
0000
0001
0000
0001
0010
0000
0010
,  // measure 115
0100
0000
1000
0000
1000
0001
0000
0001
,  // measure 116
0010
0000
0100
1000
0001
0000
0010
0001
,  // measure 117
0100
0000
0010
1000
0001
0000
0100
0001
,  // measure 118
0010
0000
0011
0000
0001
1000
0000
0010
,  // measure 119
0100
0000
0001
0100
1000
0000
0001
0100
,  // measure 120
1000
0000
0010
0000
1000
0001
0000
0010
,  // measure 121
0100
0000
1000
0100
0001
0000
1000
0100
,  // measure 122
0001
0100
1000
0000
0001
0100
0000
0010
,  // measure 123
1000
0000
0001
0010
1000
0000
0001
0010
,  // measure 124
1000
0000
0001
0000
1000
0100
0000
0010
,  // measure 125
0001
0000
1000
0010
0001
0000
1000
0010
,  // measure 126
0001
2100
0100
0001
,  // measure 127
3001
1002
1000
0100
,  // measure 128
0103
2010
0010
0001
,  // measure 129
3001
0012
0010
1000
,  // measure 130
1003
1200
0010
1000
,  // measure 131
0310
0021
0100
0001
,  // measure 132
0130
0210
1300
1002
,  // measure 133
0103
0120
0031
2001
,  // measure 134
3010
0000
2000
0000
3100
0020
0000
0031
,  // measure 135
2000
0000
3100
0000
1000
0001
0010
0000
,  // measure 136
1001
0000
0100
0000
2000
0001
0000
3001
,  // measure 137
1000
0010
1001
0100
,  // measure 138
1001
0000
1000
0100
0010
0001
0000
0010
,  // measure 139
0100
1000
0000
0010
0100
0001
0010
0001
,  // measure 140
0100
0010
0000
1000
0001
1000
0010
0000
,  // measure 141
1000
0100
0010
0001
0100
0100
0100
0000
,  // measure 142
0000
0000
0002
0000
1003
0001
0100
0000
,  // measure 143
1010
0000
1000
0001
1000
0010
0100
0001
,  // measure 144
0100
0010
2000
0000
3001
1000
0100
0000
,  // measure 145
0011
0000
0001
0100
0010
1000
0100
1000
,  // measure 146
0001
1000
0020
0000
0000
0100
0130
0000
,  // measure 147
1001
0100
1100
1001
,  // measure 148
0011
0000
0010
0001
0100
1000
0100
0001
,  // measure 149
0010
0100
1000
0010
0100
0001
1000
0100
,  // measure 150
0001
0100
2000
0000
3010
1000
0001
0000
,  // measure 151
1100
0000
0001
0100
0001
1000
0100
1000
,  // measure 152
0010
0100
0002
0000
0013
0001
1000
0000
,  // measure 153
0101
0000
1000
0001
0010
0001
1000
0001
,  // measure 154
0100
0010
2000
0000
0000
0001
3001
0000
,  // measure 155
0110
0000
1000
0100
1000
0010
0100
0001
,  // measure 156
0010
0100
1000
0010
0100
0001
0010
0100
,  // measure 157
1000
0010
0100
0001
1000
0001
1000
0000
,  // measure 158
1001
0000
0010
0000
1000
0001
0010
0000
,  // measure 159
0001
1000
0010
0000
1000
0001
0100
0000
,  // measure 160
0001
0010
0100
1000
0010
0100
0001
0100
,  // measure 161
0010
1000
0100
1000
0001
0010
0001
0100
,  // measure 162
0010
1000
0001
0000
0100
0001
0010
0000
,  // measure 163
0100
1000
0010
0000
0100
0001
1000
0000
,  // measure 164
0001
1000
0001
0200
0000
1000
0000
0001
,  // measure 165
0000
1000
0000
0301
0010
1000
0010
0001
,  // measure 166
1000
0010
0100
0001
0010
0100
0000
1000
,  // measure 167
0010
1000
0000
0001
0010
0001
0100
0000
,  // measure 168
1001
0000
0010
1000
0001
1000
0000
0001
,  // measure 169
0100
0010
0000
1000
0001
1000
0100
0000
,  // measure 170
0010
0000
0001
1000
0100
0010
0000
0100
,  // measure 171
1000
0010
0000
0100
0001
0010
0001
0000
,  // measure 172
1000
0000
0010
0100
0010
0100
0001
1000
,  // measure 173
0001
1000
0000
0001
0010
0100
1000
0000
,  // measure 174
1001
0000
0000
1100
0000
0010
0001
0100
,  // measure 175
1000
0100
0000
0101
0000
0010
1000
0100
,  // measure 176
0001
0100
0000
1100
0000
0010
0001
0100
,  // measure 177
1000
0100
0101
0000
1100
0000
0101
0000
,  // measure 178
1100
0000
0001
1000
0010
0100
0000
0001
,  // measure 179
1000
0100
1000
0001
1000
0001
0010
0000
,  // measure 180
0100
0000
1000
0100
0010
0001
1000
0100
,  // measure 181
0010
0100
0010
0100
0010
0001
0000
0000
,  // measure 182
0000
0000
1001
0000
1000
0100
0010
0000
,  // measure 183
0001
0000
1000
0000
0010
0000
0000
0100
0000
0000
0100
0000
0001
0000
0000
0000
,  // measure 184
1000
0100
0010
0100
1000
0001
0100
0010
,  // measure 185
0100
0000
0001
0000
0010
0000
0000
0100
0000
0000
0100
0000
1000
0000
0000
0000
,  // measure 186
0100
0010
0110
0000
0010
0001
1000
0000
,  // measure 187
0010
1000
0001
0000
1000
0001
0100
0000
,  // measure 188
0010
1000
0001
0200
0000
1000
0000
0001
,  // measure 189
0000
1000
0000
0301
0010
0100
0010
0001
,  // measure 190
1000
0010
0110
0000
0100
0001
1000
0000
,  // measure 191
0100
0000
1000
0000
0010
0000
0000
0100
0000
0000
0100
0000
0001
0000
0000
0000
,  // measure 192
0010
0100
1000
0001
1000
0001
0100
0010
,  // measure 193
0100
0001
0010
0100
1000
0010
0000
0100
,  // measure 194
0001
1000
1001
0000
0010
0100
0001
0000
,  // measure 195
0010
0100
1000
0000
0010
0100
0001
0000
,  // measure 196
1000
0100
0010
0011
0000
1100
0000
1010
,  // measure 197
0000
0101
0000
0010
1000
0100
0001
0100
,  // measure 198
1000
0010
0100
0000
0001
0001
0100
0000
,  // measure 199
1000
1000
0100
0000
0010
0001
1000
0001
,  // measure 200
1000
0000
1001
0001
0100
0000
1001
1000
,  // measure 201
0100
0000
1000
0001
0100
0000
1001
0000
,  // measure 202
0000
0000
0011
0000
1100
0000
1010
1000
,  // measure 203
0000
0100
0000
0010
0000
0001
0101
0000
,  // measure 204
1001
0001
0100
0000
0110
0000
1000
0001
,  // measure 205
1000
0000
0001
0010
0100
1000
0000
0001
,  // measure 206
1001
0000
0100
1000
0010
0100
0000
0001
,  // measure 207
0010
0100
1000
0001
1000
0100
1000
0010
,  // measure 208
0100
0001
0110
0000
1000
0001
0000
1000
,  // measure 209
0100
1000
0010
0000
0100
0001
0000
1000
,  // measure 210
0100
0000
1001
0000
0010
0001
0000
0100
,  // measure 211
0001
1000
0100
0000
0010
0100
0000
1000
,  // measure 212
0010
0100
0102
0000
0000
0000
0000
0000
,  // measure 213
0013
0100
1000
0000
0001
1000
0000
0101
,  // measure 214
0000
1100
0000
0000
0001
0000
0000
1000
,  // measure 215
0000
0000
0001
0000
0000
1000
0000
0000
,  // measure 216
0110
0000
1001
0001
0010
0100
0001
0100
,  // measure 217
1000
0010
0100
1000
0100
0010
1000
0001
,  // measure 218
0010
0000
1100
0100
0001
0100
1000
0001
,  // measure 219
0010
0001
0100
0010
1000
0001
0010
1000
,  // measure 220
0010
0000
0101
0001
1000
0010
0100
0001
,  // measure 221
0100
0010
0001
0010
1000
0100
0010
0100
,  // measure 222
1000
0000
1001
0001
1000
0100
0000
0011
,  // measure 223
0000
1100
0000
0001
0001
1000
1000
0001
,  // measure 224
0100
2010
3200
0302
,  // measure 225
0103
0201
0300
0100
1000
0000
1010
0000
,  // measure 226
0000
0012
0203
2300
,  // measure 227
3100
1200
0300
0100
0001
0000
0011
0000
,  // measure 228
1001
0000
0200
0000
0000
0001
0302
0000
,  // measure 229
0000
0000
0100
0103
0001
0000
0100
0000
,  // measure 230
0010
0000
0001
1000
0001
1000
0100
0000
,  // measure 231
0010
0001
0000
1000
0010
0100
0001
0010
,  // measure 232
0100
0012
0203
2300
,  // measure 233
3100
1200
0300
0100
0001
0000
0011
0000
,  // measure 234
0000
2010
3200
0302
,  // measure 235
0103
0201
0300
0100
1000
0000
1010
0000
,  // measure 236
1001
0000
0201
0000
0000
1000
2300
0000
,  // measure 237
0000
0000
0100
3100
1000
0000
0100
0000
,  // measure 238
0010
0000
1000
0001
1000
0001
0100
0000
,  // measure 239
0010
1000
0000
0001
0010
0100
1000
0010
,  // measure 240
0100
0000
0001
0100
1000
0100
0000
0001
,  // measure 241
0010
1000
0010
0100
1000
0100
0000
0001
,  // measure 242
0100
1000
0010
0001
0010
1000
0000
0001
,  // measure 243
0100
1000
0100
0001
0010
0100
0000
1000
,  // measure 244
0001
0000
1000
0100
0110
0000
0001
0100
,  // measure 245
0110
0000
1000
0001
1100
0000
0001
1000
,  // measure 246
0101
0000
1001
1000
0100
0110
0010
0001
,  // measure 247
0101
0100
0010
1010
1000
0001
1001
0000
,  // measure 248
1001
0210
2300
3020
,  // measure 249
0031
0012
0000
0013
1000
0100
0001
0000
,  // measure 250
0100
1000
1020
0000
0230
0000
2300
0000
,  // measure 251
3100
1200
0000
1300
0100
0001
0010
0000
,  // measure 252
0100
1000
0001
0000
1000
0001
0100
0000
,  // measure 253
0010
1000
0100
0000
0010
0001
0100
0000
,  // measure 254
0001
0010
0100
1000
0010
0100
0001
0010
,  // measure 255
0100
1000
0010
0100
0001
0010
0100
1000
,  // measure 256
0001
0210
0302
0023
,  // measure 257
1030
2010
0000
3010
0001
0100
1000
0000
,  // measure 258
0100
0001
0021
0000
0230
0000
0302
0000
,  // measure 259
0103
0201
0000
0301
0100
1000
0010
0000
,  // measure 260
0100
0001
1000
0000
0001
1000
0100
0000
,  // measure 261
0010
0001
0100
0000
0010
1000
0100
0000
,  // measure 262
1000
0010
0100
0001
0010
0100
1000
0010
,  // measure 263
0100
0001
0010
0100
1000
0010
0100
0001
,  // measure 264
1000
0000
0100
0000
2000
0000
3200
0000
0302
0000
0103
0001
0000
0100
1000
0001
,  // measure 265
0100
0000
0000
0000
0002
0000
0203
0000
2300
0000
3100
1000
0000
0100
0001
1000
,  // measure 266
0100
0000
0010
0000
0002
0000
0000
1000
2003
0000
0000
0000
0000
0000
3010
0000
,  // measure 267
0100
0000
0001
0000
0010
0000
0100
0000
1000
0000
0001
1000
0000
0001
0100
0010
,  // measure 268
0100
0001
2002
0000
0000
0000
3003
0000
,  // measure 269
0000
0000
0110
0000
0100
0001
0100
1000
,  // measure 270
0000
0001
0010
1000
0010
0001
1000
0001
,  // measure 271
0100
1000
0010
0000
0100
0001
1000
0100
,  // measure 272
1000
0000
0001
0010
0100
1000
0010
0100
,  // measure 273
0001
1000
0001
0000
1001
0001
0100
0010
,  // measure 274
0100
0001
0100
0010
1000
0100
0001
0100
,  // measure 275
1000
0010
0100
0001
1000
0100
0020
0000
,  // measure 276
0100
0000
0000
0000
0001
0000
0000
0000
0130
0000
1000
0001
1000
0000
0010
0000
,  // measure 277
1000
0100
0010
0001
1000
0100
0010
0001
,  // measure 278
1000
0001
0100
0010
1000
0001
0100
0010
,  // measure 279
1000
0100
0010
0000
0001
0010
0100
1000
,  // measure 280
1100
0000
1000
0010
0100
0001
0101
0100
,  // measure 281
0101
0000
0010
1000
0001
0100
0010
1000
,  // measure 282
0001
1000
0100
0010
0001
1000
0100
0010
,  // measure 283
0001
0100
0010
0000
1000
0010
0100
0001
,  // measure 284
0101
0000
0001
0010
0100
1000
0100
1100
,  // measure 285
0100
1100
2000
0000
3002
0000
2003
0000
,  // measure 286
3010
0000
0001
0100
0011
0100
0001
0000
,  // measure 287
0110
0000
1000
0010
1100
0010
1000
0000
,  // measure 288
0110
0000
0001
0100
1001
0100
0001
0000
,  // measure 289
1001
0000
1000
0100
1001
0100
1000
0001
,  // measure 290
1001
0001
0100
1000
0001
0010
0100
1000
,  // measure 291
0001
1000
0010
0100
0001
1000
0010
0100
,  // measure 292
0001
0010
0100
0000
1000
0100
0010
0001
,  // measure 293
0011
0000
0001
0100
0010
1000
1010
0010
,  // measure 294
1010
0000
1000
0000
1010
0000
0000
0000
0010
0000
0000
0100
0010
0000
0000
0000
,  // measure 295
0110
0000
0000
0100
0001
0000
0000
0001
0100
0000
0000
0100
0001
0000
0000
0000
,  // measure 296
0011
0000
0000
0000
1100
0000
0000
0000
0010
0000
0000
0100
1000
0000
0000
0000
,  // measure 297
0010
0000
0000
1000
0010
0000
0000
0010
1000
0000
0000
1000
0001
0000
0000
0000
,  // measure 298
0110
0000
0000
0000
1001
0000
0000
0000
0010
0000
0000
0100
0001
0000
0000
0010
,  // measure 299
0100
0000
0000
1000
0010
0000
0000
0100
0001
0000
0000
1000
0100
0000
0010
0000
,  // measure 300
0100
1000
0001
0010
1000
0001
0100
0010
,  // measure 301
0001
1000
0001
0010
1000
0100
0010
0001
,  // measure 302
0100
0000
0010
0100
0000
0000
0000
0000
0000
0000
0000
0000
0000
0000
0000
0000
;
