#TITLE:Twilight Sky Mix;
#SUBTITLE:(DDRMAX-PSX Stages);
#ARTIST:Nightime;
#TITLETRANSLIT:;
#SUBTITLETRANSLIT:;
#ARTISTTRANSLIT:;
#CREDIT:;
#BANNER:DDRMAX0.png;
#BACKGROUND:DDRMAX0-bg.png;
#LYRICSPATH:;
#CDTITLE:./CDTITLES/DANCE DANCE REVOLUTION MAX.PNG;
#MUSIC:DDRMAX0.mp3;
#OFFSET:-0.077;
#SAMPLESTART:140.000;
#SAMPLELENGTH:24.000;
#SELECTABLE:YES;
#BPMS:0.000=135.000,192.000=140.000,496.000=145.000,528.000=150.000,717.000=196.000,1004.000=49.000;
#STOPS:640.500=0.400
,641.500=0.400
,650.000=0.400
,939.000=0.300
;
#BGCHANGES:;

//---------------dance-single - ----------------
#NOTES:
     dance-single:
     :
     Easy:
     4:
     0.370,0.471,0.168,0.263,0.001:
0000
0000
0000
0000
,
0000
0000
0000
0000
,
0001
0000
0001
0000
,
1000
0000
1000
0000
,
0001
0000
1000
0000
,
0010
0000
0001
0000
,
0100
0000
1000
0000
,
0010
0000
0100
0000
,
0010
1000
0001
0100
,
0001
0010
0100
1001
,
0010
1000
0001
0100
,
0010
1001
0100
0010
,
0001
0000
0002
0000
,
1003
0000
2000
0000
,
3010
1000
0100
0001
,
0020
0030
0020
0030
,
0010
0001
0100
1001
,
0100
0010
1000
0100
,
0010
0001
0100
1000
,
0010
0100
1000
0001
,
0200
0300
0200
0300
,
1000
0100
0001
0100
,
1000
0010
0001
0100
,
2000
3000
2000
3000
,
0010
0100
0001
1000
,
0010
1000
0200
0000
,
0001
0001
1000
1000
,
0010
0000
0310
1001
,
0010
0100
0001
1000
,
0010
1000
0100
0001
,
0100
0100
0010
0010
,
1000
0010
0100
0001
,
2000
3000
0100
0001
,
0100
1000
0010
0200
,
0001
0001
1000
1000
,
0310
1000
0100
1001
,
0020
0030
0020
0030
,
0010
1000
0100
0001
,
0001
0001
1000
1000
,
0001
1000
0100
1001
,
1000
0100
0001
0100
,
1000
0010
0001
0110
,
1000
0100
0001
0100
,
1000
0010
0001
0100
,
2000
3000
2000
3000
,
0010
0001
0100
1000
,
0020
0030
0020
0030
,
1000
1000
0001
0001
,
1001
0000
0000
0000
,
0000
0000
0000
0000
,
0020
0000
0000
0030
,
0001
0100
1000
0100
,
0020
0000
0000
0030
,
1000
0010
0001
0010
,
0200
0000
0000
0300
,
0010
1000
0100
0001
,
0010
1001
0010
1001
,
0100
0002
1000
0100
,
0013
1001
0010
1001
,
0100
2000
0001
0100
,
3010
1001
0010
1001
,
0020
0001
1000
0130
,
0010
1001
0010
1001
,
0020
1000
0100
0031
,
0020
0000
0000
0000
,
0000
0000
0000
0000
,
0100
0000
0000
0000
,
1000
0000
0130
0002
,
0010
0010
0003
0200
,
1000
1000
0300
0002
,
0100
0100
0003
2000
,
0001
0001
3000
0020
,
1000
1000
0030
0002
,
0010
0010
0003
0200
,
0001
0001
0300
1000
,
0010
0001
0100
2000
,
0010
0010
3000
0002
,
1000
1000
0003
0200
,
0010
0010
0300
0001
,
1000
0100
1000
0001
0100
0000
0001
0000
,
0010
1001
0100
1001
,
0020
1000
0001
0130
,
0010
1001
0100
1001
,
0100
0000
1000
0000
0001
1000
0100
0000
,
0010
1001
0100
1001
,
0100
0001
1000
0100
,
0010
1001
0100
1001
,
0010
1000
0001
0200
0000
0000
0300
0000
,
0001
1100
0001
1100
,
0020
2030
3002
0203
,
1300
0101
1000
0101
,
0020
0000
0230
0000
0301
1000
0200
0000
,
0301
1100
0001
1100
,
0020
0032
0203
0302
,
1003
0101
1000
0101
,
0010
1000
0020
0000
0030
0000
0000
0000
,
0001
0100
0002
0000
0003
0000
0000
0000
,
1000
0100
2000
0000
3000
0000
0000
0000
,
0002
0000
0000
0003
,
0020
0030
0020
0030
,
0010
1000
0100
1000
,
0001
0001
0100
0010
,
1000
0100
1000
0001
,
0100
0000
1000
0100
,
0010
0001
0100
0001
,
1000
1000
0100
0010
,
0001
0100
0001
1000
,
0100
0000
0110
1001
,
0010
1000
0100
1000
,
0001
0001
0100
0010
,
1000
0100
1000
0001
,
0100
0000
1000
0100
,
0010
0001
0100
0001
,
1000
1000
0100
0010
,
0001
0100
0001
1000
,
0100
0000
1001
1001
,
0020
0000
1030
0100
,
0001
0000
2000
0000
,
3020
0000
0130
0001
,
0010
0010
0100
0100
,
2000
0000
3001
0100
,
1000
0000
0002
0000
,
0023
0000
0100
0230
,
0000
0300
1000
0100
,
0001
0100
1000
0100
,
0001
0100
1000
0100
,
0020
0000
0130
2000
,
0010
3020
0100
0130
,
0001
0100
1000
0100
,
0001
0010
1000
0010
,
0200
0000
0010
0310
,
1001
0110
1001
0110
,
1002
0000
2003
0000
,
3020
0000
0230
0000
,
0310
0010
1000
1000
,
0001
0001
0100
0100
,
0010
1000
0100
0001
,
0010
0001
0100
1001
,
0010
1000
0100
1000
,
0220
0000
0330
0000
,
0010
0001
0200
0300
,
0010
0001
1000
0100
,
0010
0001
0010
1000
,
0110
1001
0110
1001
,
1000
1000
0200
0300
,
0001
0001
0200
0300
,
1000
1000
0001
0001
,
0010
0010
0110
1001
,
0020
0030
0020
0030
,
0010
0001
1000
0100
,
2000
3000
2000
3000
,
0010
1000
0100
0001
,
0020
0030
0020
0030
,
0010
1000
0010
0001
,
0200
0300
0200
0300
,
0010
0010
0010
0100
,
0010
0001
0100
1001
,
0010
0001
1000
0000
,
1000
1000
0100
0100
,
0001
0001
1000
0001
,
1000
0001
0000
0000
0010
0000
1000
0000
,
0001
0100
0010
1000
,
0100
0001
0110
0000
,
0000
0010
0001
0200
,
0300
0010
0001
1000
,
0100
0010
0001
0010
,
1000
0110
1001
0110
,
1001
0000
0001
0000
0001
0000
0100
0100
,
0000
1000
1000
0200
,
0300
1000
1000
0001
,
0001
0010
0010
0110
,
1001
0020
0030
0020
,
0030
0010
0001
1000
,
0100
2000
3000
2000
,
3000
0010
0001
0100
,
1000
0020
0030
0020
,
0030
0010
1000
0100
,
0001
0200
0300
0200
,
0000
0001
1000
0001
,
1300
0012
1000
1000
,
1000
1003
0100
0001
,
0010
0010
1000
0001
,
1000
0010
0001
1000
,
0001
2010
0001
0001
,
0001
3001
0100
1000
,
0010
0010
0001
1000
,
0001
0010
1000
0001
,
1000
0001
0100
1000
,
0100
0001
0100
1000
,
0010
0001
0100
1000
,
0100
0001
0100
1000
,
0010
0010
0001
0010
,
1000
0010
0001
0010
,
1000
0010
0001
0100
,
0100
0010
1000
0100
,
0100
2000
3001
0002
,
1003
0010
1000
0001
,
1000
0002
1003
2000
,
3001
0010
0001
1000
,
0001
0000
0010
0000
0000
0020
0000
0000
,
0030
0000
0010
0000
0000
2002
0000
0000
,
3003
0000
1001
0000
0000
0220
0000
0000
,
0330
0010
0001
0100
,
1000
0010
0010
0010
,
0010
0001
0001
1000
,
0001
0001
0010
0001
,
0100
0010
0001
0001
,
0100
0100
0100
0100
,
0100
1000
1000
0001
,
1000
1000
0100
1000
,
0010
0100
1000
1000
,
0000
0010
0010
0010
,
0010
1000
1000
0001
,
1000
1000
0010
1000
,
0100
0010
1000
1000
,
0100
0100
0100
0100
,
0100
0001
0001
1000
,
0001
0001
0100
0001
,
0010
0100
0001
0001
,
0010
0010
1001
0100
,
0001
0010
1000
0100
,
0001
0001
1000
0100
,
0001
0010
1000
0100
,
0001
0010
1001
0100
,
1000
0010
0001
0100
,
1000
1000
0001
0100
,
1000
0000
1001
0000
1001
0000
1000
0001
,
1000
0002
2000
0000
0000
0000
0000
0000
,
0000
0000
0000
0000
,
0000
0000
0000
0000
,
0000
0000
3000
0000
0000
0003
0000
0000
,
0000
0001
0001
0100
,
0001
0010
0001
0100
,
1000
1000
1000
0100
,
1000
1000
0100
0001
,
0001
0100
1000
0000
0100
0000
0001
0000
,
0100
1000
0100
0001
,
0001
0100
1000
0000
0100
0000
0001
0000
,
0010
1000
0100
0001
,
1000
0100
0001
0000
0100
0000
1000
0000
,
0100
0001
0100
1000
,
1000
0100
0001
0000
0100
0000
1000
0000
,
0100
0001
0100
1000
,
1001
0001
0010
1000
,
0010
0001
0100
0100
,
0010
1000
0010
0001
,
0010
1000
0100
0100
,
1000
0100
0001
0100
,
1000
0100
0001
0001
,
1000
0001
0010
1000
,
0100
1000
0100
0100
,
0001
0001
0000
0000
0000
0000
0000
0000
0000
0000
0000
0000
0000
0000
0000
0000
;

//---------------dance-single - ----------------
#NOTES:
     dance-single:
     :
     Medium:
     5:
     0.481,0.473,0.333,0.238,0.006:
0000
0000
0000
0000
,
0000
0000
0000
0000
,
2000
0100
3002
0100
,
2003
0010
3002
0103
,
0001
0000
0001
0000
1000
0001
0100
0000
,
0010
1000
0100
0101
,
0010
0000
0010
0000
1000
0001
0100
0000
,
0001
1100
1001
0010
,
0100
0001
0010
0100
,
1000
0001
0100
0110
,
0010
0100
0001
0100
,
0010
0100
0001
0000
1000
0001
0100
0000
,
0010
0100
0001
1000
,
0100
0001
0010
1000
,
0010
0100
0001
0000
0010
1000
0020
0000
,
0100
0000
0230
0000
,
0010
0301
1000
1001
,
0010
0100
0110
0001
,
0010
1000
0100
0000
0001
0000
1000
0000
,
0010
0000
0100
0000
0001
0100
0010
0000
,
1002
0010
0010
0010
,
1003
0200
0301
0200
,
1300
1001
0001
1001
,
0100
0000
0010
0000
1000
0001
0100
0010
,
1001
0010
0100
0001
,
1000
0000
0010
0000
0100
0010
0100
0000
,
1001
0010
0110
1000
,
0011
0000
0100
0000
0010
0001
0100
0000
,
1100
0010
0101
1000
,
0010
0000
1000
0000
0001
0100
1000
0000
,
0010
0020
0100
0230
,
1000
0000
0301
0000
1000
0001
0100
0010
,
0100
0001
0100
1000
,
0010
0000
0001
0000
1000
0001
1000
0000
,
0101
0010
1100
0010
,
0200
0001
0010
1000
,
0010
0000
0010
0000
,
0001
0000
0301
0000
1000
0001
0100
0000
,
0010
0011
0100
1100
,
0011
0100
1010
0110
,
0100
0001
0100
0011
,
1000
0010
0100
0110
,
0100
0010
1000
0001
,
0100
0000
1000
0000
0010
0100
0001
0000
,
0100
0011
0100
1000
,
0001
0000
1000
0000
0010
1000
0100
0000
,
1001
0010
1000
0001
,
0100
0101
1100
0110
,
0200
0000
0000
0000
,
0000
0000
0000
1000
,
0020
0000
0000
0330
,
2000
0010
0001
0010
,
0200
0000
0000
3300
,
0002
0100
1000
0100
,
0020
0000
0000
0033
,
0020
0031
0200
1300
,
0010
2001
3010
1002
,
0013
0000
0001
0000
1000
0001
0100
0000
,
0010
1002
0013
2001
,
3010
0000
1000
0000
0001
1000
0100
0000
,
0010
1002
0103
1002
,
0103
0000
1000
0000
0010
1000
0100
0000
,
0010
2001
3100
1001
,
1000
0000
0100
0000
1000
0000
0001
1000
0000
0000
0000
0000
0000
0000
0000
0000
,
0020
0000
0000
0000
,
0000
0000
0000
0000
,
0230
0000
0000
0000
,
0302
0000
0000
0103
,
0010
1000
0010
0000
0000
0001
0100
0000
,
1000
0100
1000
0000
0000
0010
0100
0000
,
0001
1000
0001
0000
0000
1000
0100
0000
,
0001
0100
0001
0000
1000
0000
0100
0000
,
0010
0001
0010
0000
0000
1000
0100
0000
,
0010
0100
0010
0000
0000
0001
0100
0000
,
1000
0001
1000
0000
0000
0100
0001
0000
,
2000
3100
0002
0013
,
1000
0100
0001
0000
0000
0100
1000
0000
,
0001
1000
0100
0000
0010
0001
0000
1000
,
0001
0100
1000
0000
0000
0100
0001
0000
,
1000
0100
1000
0001
0100
0001
1000
0000
,
0010
2001
3100
1002
,
0013
0000
0100
0000
0010
0001
0100
0000
,
0010
1002
0103
1001
,
0010
1000
0001
0010
0100
1000
0100
0000
,
1000
2000
0000
0000
3001
0002
0000
0000
,
0103
0001
1000
0100
0010
0001
0200
0000
,
0001
0301
0000
1000
0001
0100
0000
0010
,
1000
0001
1000
0200
0000
0000
0300
0000
,
0001
1100
0001
1100
,
0010
0001
0100
0010
1000
0001
0100
0000
,
1000
0101
1000
0101
,
0010
0001
1000
0010
0100
0001
0100
0000
,
0001
0002
0000
0003
1000
2000
0000
3000
,
0010
1000
0100
0001
0100
1000
0010
0000
,
0001
0100
0010
0000
1000
0001
0100
0000
,
0001
0000
0100
0000
0001
0000
1000
0200
0000
0000
0000
0000
0300
0000
0000
0000
,
1000
0000
0100
0000
1000
0000
0001
0200
0000
0000
0000
0000
0300
0000
0000
0000
,
0001
0000
1000
0000
0001
0000
0010
0200
0000
0000
0000
0000
0300
0000
0000
0000
,
0002
0000
0000
0000
,
0010
0010
0010
0013
,
0011
0000
0100
0000
1000
0001
0100
0000
,
1000
0101
0010
1000
,
0001
0010
0100
1000
,
0001
1000
0002
0000
0100
0000
0013
0000
,
1000
0101
1000
0010
,
1100
0001
0010
0100
,
1000
0010
0100
0001
,
1000
0001
2000
0000
0100
0000
3100
0000
,
1010
0000
0001
0000
0010
0001
0100
0000
,
0010
1100
0001
0100
,
1000
0010
0100
0001
,
1000
0001
2000
0000
0010
0000
3100
0000
,
0001
1100
0001
0010
,
0101
1000
0010
0100
,
0001
0010
0100
1000
,
0001
1000
0002
1000
0100
0000
0103
0000
,
1001
0000
0100
0000
0010
0100
0001
0000
,
1010
0000
0100
0000
0001
1000
0100
0000
,
0101
1100
0010
1000
,
0101
0000
0010
0000
1000
0001
0100
0000
,
1001
0000
0100
0000
0010
0100
0001
0000
,
1010
0000
0100
0000
1000
0001
0100
0000
,
0020
1030
0200
0301
,
0010
0000
0001
0000
1000
0100
0001
0000
,
0100
1000
0001
0000
0010
0100
1000
0000
,
0001
1000
0100
0000
1000
0100
0001
0000
,
0100
1100
0001
0101
,
0010
0000
0010
0000
0100
1000
0001
0000
,
1000
0010
0100
0000
0001
1000
0100
0000
,
0010
0001
0100
0010
1000
0000
0110
0000
,
1001
0100
1001
0010
,
2000
3100
0002
0013
,
0010
1000
0100
1100
,
0010
0001
0100
0101
,
1000
1000
0100
0100
,
0001
0000
0001
0000
1000
0001
0100
0000
,
0010
1000
0100
0101
,
0010
0001
0100
1100
,
0010
0010
0100
1000
,
0220
0000
0000
0330
,
0010
0101
2200
3300
,
0010
0000
0001
0000
0100
0010
1000
0000
,
0010
0001
0100
0000
0021
0000
1000
0000
,
0100
0001
1000
0031
,
0010
0100
0002
0000
1000
2000
0000
3003
,
0010
0010
0100
0000
,
0010
1100
0010
0101
,
0110
1001
0110
0200
,
0010
0000
0010
0000
,
0310
0001
1000
0200
,
1000
0000
1000
0300
,
0010
1000
0100
0002
,
0010
0000
0010
0003
,
0010
1000
0100
0002
,
0100
0000
0100
0003
,
0010
0100
0010
0000
0002
0000
1003
0000
,
0010
0001
0100
1100
,
0010
0001
0100
0101
,
1000
1000
0100
0100
,
0001
0000
0001
0000
1000
0001
0100
0000
,
1000
0001
0000
1001
0000
0110
0000
1010
,
0000
1001
0000
0000
0020
0000
0031
0000
,
0200
1300
0220
0000
,
0330
0010
1100
0202
,
0303
0000
0020
0000
1030
0000
0100
0010
,
0001
0020
0130
1001
,
0200
0310
0002
0103
,
1000
0000
0010
1000
0200
0000
0001
0001
,
0000
0000
0301
0000
1000
0000
0010
0100
,
0002
1000
2003
0001
,
3001
0110
1001
0110
,
0200
0010
0000
0010
,
0300
0010
1000
0100
,
0002
0010
0000
0010
,
0003
0010
0001
0100
,
1000
0020
1030
0200
,
0301
0020
0031
0100
,
1100
0100
0000
0100
,
0000
0000
0100
0000
0000
1000
0000
0100
,
1000
0001
0012
0000
1000
0000
1000
0000
,
1000
1003
0201
0001
,
0010
0000
0310
0000
1000
0001
0100
0000
,
1000
0010
0101
1000
,
0001
2010
0001
0001
,
0001
3001
1200
1000
,
0010
0000
0310
0000
0001
1000
0100
0000
,
0001
0010
1100
0002
,
1003
0000
1000
0001
0100
0010
1000
0000
,
0100
0010
0001
0000
0100
0001
1000
0000
,
0010
0001
1000
0000
0100
1000
0001
0000
,
0100
0001
0010
0000
0001
0000
1100
0000
,
0101
0000
1000
0001
0100
0010
1000
0000
,
0100
1000
0001
0000
0100
0010
1000
0000
,
0100
1000
0001
0000
0100
0001
1000
0000
,
0100
0001
0010
0000
0100
1000
0010
0000
,
0100
0000
0001
0100
0001
1000
0010
0000
,
0100
0010
0001
0000
0100
0010
0100
0000
,
0010
1000
0001
0000
0100
0010
1000
0000
,
0100
0010
0001
0000
0100
0000
1100
0000
,
0101
0000
1000
0100
0001
0200
0000
0000
,
0300
0000
0001
0100
1000
0200
0000
0000
,
0300
0000
0001
1000
0001
0200
0000
0000
,
0300
0000
1000
0001
1000
0100
1000
0010
,
0100
0010
0010
1010
,
0010
0000
0001
1000
0001
0000
0010
1000
,
0001
0001
0110
1001
,
0100
0000
0010
0000
0001
0000
0001
1000
,
0100
0010
0010
0011
,
0010
0000
1000
0001
1000
0000
0010
0001
,
1000
1000
0110
1001
,
0100
0000
0010
0000
1000
0000
1000
0001
,
0100
0010
0010
0011
,
0010
0000
1000
0001
1000
0000
0010
0001
,
1000
1000
0110
1001
,
0100
0000
0010
0000
1000
0000
1000
0001
,
0100
0010
0010
1010
,
0010
0000
0001
1000
0001
0000
0010
1000
,
0001
0001
0110
1001
,
0110
0011
0101
1100
,
1010
0000
0010
0000
1000
0100
0010
0000
,
0001
0100
0010
0000
1000
0001
0100
0000
,
0002
1003
1100
0100
,
0001
1000
0010
0000
1000
0001
0100
0010
,
0001
0010
0101
0010
,
1000
0100
0010
0000
0001
1000
0100
0000
,
1000
0001
1000
0000
0001
1000
0100
0000
,
1000
0001
0010
0001
1000
0000
1000
0001
,
1000
0001
1000
0000
0001
1100
0000
0000
,
0000
0000
0011
0000
1000
0100
0000
0000
,
0000
0000
1010
0000
0001
0100
0000
0000
,
0000
0000
0110
0000
1000
0001
0000
0000
,
0000
0000
0011
0000
0001
1000
0100
0000
,
0001
0000
1010
0000
1000
0001
0100
0000
,
1000
0000
1001
0000
1000
0001
0100
0000
,
1000
0000
0110
0000
1000
0001
0100
0000
,
0001
1000
0001
0000
0010
0100
1000
0001
,
0100
0010
2000
0000
0100
0000
3001
0000
,
0001
0100
0010
0000
0100
0001
1000
0100
,
0010
0001
2000
0000
0100
0000
3001
0000
,
1000
0001
1000
0000
0010
0100
0001
1000
,
0100
0010
0001
0000
0101
0000
1100
0000
,
1000
0100
0010
0000
0100
1000
0001
0100
,
0010
1000
0001
0000
1100
0000
0101
0000
,
0010
0000
0100
0010
0100
0000
0010
0100
,
0001
0000
0001
1000
0100
0000
0100
0010
,
0100
0000
1000
0001
0010
0000
1000
0001
,
0010
0000
1000
0001
0100
0001
0100
0001
,
1000
0000
0100
1000
0001
0000
0100
0001
,
1000
0000
0100
1000
0001
0000
0001
1000
,
0001
0000
0001
1000
0010
0000
1000
0001
,
0100
0000
1000
0001
0100
1000
0010
1000
,
0001
0002
0000
0000
0000
0000
0000
0000
0000
0000
0000
0000
0000
0000
0000
0000
,
0003
0000
0000
0000
;

//---------------dance-single - ----------------
#NOTES:
     dance-single:
     :
     Hard:
     8:
     0.601,0.567,0.275,0.125,0.081: // measure 1
0000
0000
0000
0000
,  // measure 2
0000
0000
0000
0000
,  // measure 3
1000
0100
0010
0001
0100
0001
0200
0000
,  // measure 4
1000
0000
0310
0000
0001
1000
1100
0000
,  // measure 5
0010
1000
0001
0000
1000
0100
0001
0000
,  // measure 6
0001
1000
0010
0100
1000
0001
0100
0000
,  // measure 7
1100
0000
1001
0000
0001
0100
0010
0000
,  // measure 8
0010
0100
0001
1000
0010
0100
0001
0000
,  // measure 9
1001
0000
0000
0000
0010
0000
0100
0000
0001
0000
0000
0101
0000
0000
0000
0000
,  // measure 10
0010
0001
1000
0100
0010
0100
0001
0000
,  // measure 11
0010
1000
0001
0000
1000
0010
1000
0000
,  // measure 12
0010
0000
0100
0000
0010
0000
0100
0000
0010
0000
0000
1010
0000
0000
1001
0000
,  // measure 13
0000
0100
0001
0000
0100
1000
0001
0000
,  // measure 14
0010
0100
0001
0000
1000
0001
1000
0000
,  // measure 15
0010
1000
1100
0000
0010
0100
0101
0000
,  // measure 16
0010
0000
1000
0000
0010
0000
0100
0000
0001
0000
0000
1000
0000
0000
2200
0000
,  // measure 17
0000
0000
3300
0000
0010
0000
1000
0000
0001
0000
0000
1001
0000
0000
0000
0000
,  // measure 18
0010
1000
0100
0010
0001
0100
0010
0000
,  // measure 19
0010
0100
0001
1000
0010
0100
0010
1000
,  // measure 20
0010
0000
0100
0000
0010
0000
0100
0000
0001
0000
0000
1001
0000
0000
0220
0000
,  // measure 21
0000
0330
0010
0000
1000
0001
0100
0000
,  // measure 22
0010
1000
1001
0000
0010
0001
0100
0000
,  // measure 23
0010
0100
0001
0100
0010
1000
0100
0000
,  // measure 24
0010
0010
0010
0000
0010
1000
0001
0100
,  // measure 25
0110
0000
0001
0000
1000
0010
0100
0000
,  // measure 26
0010
0000
1000
0000
0100
0000
1000
0001
0000
0000
0000
0000
0010
0000
0000
0000
,  // measure 27
1001
0000
0000
0000
0100
0000
0000
1100
0000
0000
0000
0000
0001
0000
1000
0000
,  // measure 28
0010
0000
0000
1010
0000
0000
1001
0000
0000
0000
0100
0000
0010
0000
0000
0000
,  // measure 29
1010
0000
0100
0000
0101
0000
0010
0001
,  // measure 30
0100
0010
1000
0010
0100
0001
2000
0000
,  // measure 31
3010
0000
1002
0000
0013
0000
1001
0010
,  // measure 32
0000
0001
0100
0010
1000
0001
0100
0010
,  // measure 33
0100
0000
0010
0000
1000
0001
1000
0001
,  // measure 34
0100
1000
0010
0001
0100
0010
0100
0000
,  // measure 35
1002
0000
0013
0000
2001
0000
3010
1000
,  // measure 36
0001
0100
0010
0100
0001
1000
0010
0100
,  // measure 37
0001
1000
0001
0010
0000
1000
0100
0000
,  // measure 38
1001
1001
1001
0000
0010
1000
0100
0000
,  // measure 39
0001
0001
0100
0010
1000
1000
0100
0010
,  // measure 40
1000
0000
0001
1000
0001
0100
0010
0100
,  // measure 41
0000
0000
0010
0000
0100
0000
0001
0000
1000
0000
0010
0100
0000
0000
0000
0000
,  // measure 42
0001
0000
1000
0000
0010
0000
0100
0000
0000
0010
0000
0000
1000
0000
0100
0000
,  // measure 43
0010
0001
1000
0000
1000
0001
0100
0000
,  // measure 44
0010
0100
0010
0100
0010
1000
0001
0000
,  // measure 45
0100
0000
0011
0000
0100
0000
1000
1000
,  // measure 46
0001
1000
0001
1000
0010
1000
0100
0000
,  // measure 47
0001
0000
0100
0000
0010
0000
1000
0000
0001
0000
0000
0100
0000
0000
0000
0000
,  // measure 48
0010
0100
0001
1000
0010
0000
0101
0000
,  // measure 49
0220
0000
0000
0330
,  // measure 50
0000
0000
0000
0000
0000
0000
0000
0100
,  // measure 51
0010
0000
0000
0000
,  // measure 52
2000
0000
0010
0000
3100
0000
0010
1000
,  // measure 53
0200
0000
0000
0300
,  // measure 54
0002
0100
2003
0100
,  // measure 55
3020
0000
0000
0030
,  // measure 56
0200
0320
2030
3002
,  // measure 57
0013
1001
0100
1001
,  // measure 58
0010
1000
0001
0000
1000
0001
0100
0001
,  // measure 59
0010
1001
0100
1001
,  // measure 60
0010
0001
1000
0000
0001
1000
0100
1000
,  // measure 61
0010
1001
0100
1001
,  // measure 62
0100
0001
1000
0000
0010
1000
0100
1000
,  // measure 63
0010
1001
0100
1001
,  // measure 64
1000
0000
0100
0000
1000
0000
0001
1000
0000
0010
0000
0100
0000
0001
0000
0000
,  // measure 65
0020
0000
0000
0000
,  // measure 66
0000
0000
0000
0000
,  // measure 67
0200
0000
0000
0030
,  // measure 68
2000
0000
3300
0100
,  // measure 69
0010
1000
0100
0000
0000
0001
0100
0000
,  // measure 70
1000
0100
0010
0000
0000
1000
0100
0000
,  // measure 71
1000
0010
1000
0000
0000
0001
0100
0000
,  // measure 72
0010
0100
0010
0000
0100
0000
1001
0000
,  // measure 73
0100
1000
0100
0000
0000
1000
0001
0000
,  // measure 74
0010
0100
1000
0000
0000
0001
0100
0000
,  // measure 75
0001
0100
0001
0000
0000
0010
0100
0000
,  // measure 76
0001
0000
1000
0000
0100
0000
1000
0001
0000
1000
0000
0100
0000
1000
0000
0000
,  // measure 77
0010
0100
0001
0000
0000
0010
0100
1000
,  // measure 78
0001
0100
1000
0000
0000
0100
0001
0100
,  // measure 79
0010
1000
0001
0000
0000
0010
0100
0000
,  // measure 80
1000
0000
0100
0000
1000
0000
0010
0000
1000
0000
0000
0000
0001
1000
0001
1000
,  // measure 81
0001
1100
0001
1100
,  // measure 82
0010
1000
0001
0100
0001
1000
0010
0000
,  // measure 83
1000
0101
1000
0101
,  // measure 84
0010
0001
1000
0100
0010
0001
1000
0000
,  // measure 85
0001
0100
1000
0000
0001
0100
1000
0000
,  // measure 86
0010
0100
1000
0010
0100
0001
0100
0000
,  // measure 87
1000
0100
0001
0000
1000
0100
0001
0100
,  // measure 88
1000
0000
0100
0000
1000
0000
0001
1000
0000
0001
0000
0100
0000
0001
0000
0000
,  // measure 89
0001
0010
0100
0000
0001
0010
0100
0000
,  // measure 90
0010
1000
0001
0100
0010
1000
0001
0000
,  // measure 91
1000
0001
0100
0000
1000
0001
0100
0000
,  // measure 92
0010
0001
1000
0100
0010
0001
1000
0000
,  // measure 93
1000
0100
0001
0000
1000
0100
0001
0000
,  // measure 94
0010
0100
1000
0001
0100
0010
1000
0000
,  // measure 95
1000
0100
0001
0000
1000
0100
0001
0100
,  // measure 96
1000
0000
0100
0000
1000
0000
0001
1000
0000
0001
0000
0100
0000
0001
0000
1000
,  // measure 97
0001
0000
0100
0000
0001
0000
1000
0001
0000
0100
0000
0001
0000
1000
0000
0000
,  // measure 98
0010
0000
0100
0000
0010
0000
0100
1000
0000
0001
0000
1000
0000
0100
0000
0000
,  // measure 99
0010
0000
0100
0000
0010
0000
0100
1000
0000
0010
0000
0100
0000
0000
0000
0000
,  // measure 100
0101
0011
1100
1010
,  // measure 101
0101
1000
0001
0000
0100
0001
0010
0100
,  // measure 102
1000
0010
0100
0000
0001
1000
0100
1000
,  // measure 103
0010
0100
0001
0000
1000
0010
1000
0100
,  // measure 104
0001
0100
1000
0010
0100
0000
1001
0000
,  // measure 105
0101
1000
0001
0000
0010
0100
1000
0010
,  // measure 106
1000
0001
0100
0000
0001
1000
0100
1000
,  // measure 107
0001
1000
0100
0000
1000
0010
1000
0100
,  // measure 108
1000
0010
0100
0001
0010
0000
1001
0000
,  // measure 109
1100
0001
1000
0000
0100
1000
0010
0100
,  // measure 110
0001
0010
0100
0000
1000
0001
0100
0001
,  // measure 111
0010
0100
1000
0000
0001
0010
0001
0100
,  // measure 112
1000
0100
0001
0010
0100
1000
0001
0000
,  // measure 113
0101
1000
0001
0000
0010
0100
1000
0010
,  // measure 114
1000
0001
0100
0000
0001
1000
0100
1000
,  // measure 115
0001
1000
0100
0000
1000
0010
1000
0100
,  // measure 116
1000
0010
0100
0001
0010
0100
1000
0000
,  // measure 117
1001
0000
0100
0010
0100
0000
0001
1000
,  // measure 118
1001
0000
0100
1000
0100
0000
1000
0001
,  // measure 119
0100
1100
0110
1001
,  // measure 120
0101
0000
1000
0001
0000
0100
0001
1000
,  // measure 121
0001
0000
0100
0010
0100
0000
0001
1000
,  // measure 122
1001
0000
0100
1000
0100
0000
1000
0001
,  // measure 123
0100
1100
0110
1001
,  // measure 124
0100
0000
1000
0100
0000
0001
1100
0000
,  // measure 125
0001
0100
1000
0100
0001
0100
1000
0100
,  // measure 126
1000
0001
0100
0000
1000
0100
0001
1000
,  // measure 127
0100
1200
0301
0102
,  // measure 128
0013
0000
0010
0001
0000
1000
0001
1000
,  // measure 129
0010
0100
0001
0100
1000
0001
0100
1000
,  // measure 130
0010
0001
0100
0010
1000
0001
0100
0000
,  // measure 131
2002
0000
3003
0000
1000
0010
0100
0001
,  // measure 132
1000
0010
0100
0000
1001
0000
0110
0000
,  // measure 133
0010
0100
0001
0000
0010
1000
0100
0000
,  // measure 134
0010
0001
0100
0010
1000
0100
1000
0000
,  // measure 135
0010
0001
0100
0000
0010
1000
0200
0010
,  // measure 136
0000
0010
0300
0010
0100
0010
0001
1000
,  // measure 137
0001
0100
0001
0100
0010
0100
0001
1000
,  // measure 138
0010
1000
0001
0000
0100
0001
0010
0000
,  // measure 139
0100
1000
0010
0100
0001
0010
0002
1000
,  // measure 140
0000
1000
0003
1000
0010
0100
0001
1000
,  // measure 141
0010
0000
0101
0000
1100
0000
0000
0010
,  // measure 142
0000
1000
0001
0100
0010
1000
1000
0000
,  // measure 143
1000
0010
0100
0000
1100
0000
0101
0000
,  // measure 144
0010
0100
0001
1000
0010
1000
0100
0001
,  // measure 145
1000
0001
1000
0002
0100
0103
0000
0010
,  // measure 146
0000
1000
0001
0100
2000
0001
3001
0000
,  // measure 147
0010
0100
0001
0100
0010
1000
0001
1000
,  // measure 148
0010
0000
0001
0100
0000
1000
0001
1000
,  // measure 149
0010
0000
1000
0000
0010
1000
0000
0010
1000
0000
0010
0000
0000
0000
0100
0000
,  // measure 150
0000
0001
0000
0000
0010
0000
0000
0100
0000
0000
0001
0000
1000
0000
0010
0000
,  // measure 151
0100
0000
0001
0000
0100
0000
0000
0000
0010
0000
0000
0100
0000
0000
0001
0000
,  // measure 152
1000
0100
1000
0001
0100
0010
1000
0100
,  // measure 153
0001
0000
0010
0000
0001
0010
0000
0001
0010
0000
0000
0100
0000
0000
0010
0000
,  // measure 154
0000
1000
0000
0000
0010
0000
0000
0100
0000
0000
1000
0000
0001
0000
0100
0000
,  // measure 155
0010
0000
1000
0000
0010
0000
0000
0000
1000
0000
0000
0100
0000
0000
1000
0000
,  // measure 156
0001
0100
0001
1000
0010
0100
0001
0100
,  // measure 157
0010
1000
0001
0000
1000
0100
1000
0000
,  // measure 158
0010
1000
0001
0100
0001
1000
0200
0000
,  // measure 159
1000
2300
0100
3200
,  // measure 160
0001
0000
0301
0000
0001
0001
1000
1000
,  // measure 161
0101
1100
0000
1001
0000
0110
0000
1010
,  // measure 162
0000
2002
0000
3003
0010
0000
0001
0000
,  // measure 163
0100
0000
1000
0000
0110
0000
0010
0100
,  // measure 164
0001
1000
0010
0000
0101
0000
1100
0000
,  // measure 165
0000
0010
0000
0001
1000
0001
0010
0001
,  // measure 166
1000
1100
0101
0011
,  // measure 167
1010
0000
0010
0100
0001
1000
0010
1000
,  // measure 168
0100
0001
1000
0001
1000
0002
0100
0103
,  // measure 169
0000
0010
0000
1000
0001
0100
2000
0010
,  // measure 170
3010
0000
1000
1000
0010
0100
0001
0001
,  // measure 171
0100
0010
0200
0000
0000
0310
0000
0001
,  // measure 172
1000
0000
0100
0000
1000
0000
0010
0000
1000
0010
0000
1000
0010
0000
0000
0100
,  // measure 173
0000
0000
0010
0000
0000
0001
0000
0000
0010
0000
0000
0100
0000
0000
0001
0000
,  // measure 174
1000
0000
0001
0000
1000
0000
0010
0000
0100
0000
0000
0000
0001
0000
0000
0100
,  // measure 175
0000
0001
1000
0100
1000
0001
0100
0010
,  // measure 176
1000
0000
0100
0000
0001
0000
0010
0000
0001
0010
0000
0001
0010
0000
0000
0100
,  // measure 177
0000
0000
0001
0000
0000
1000
0000
0000
0010
0000
0000
0100
0000
0000
1000
0000
,  // measure 178
0001
0000
1000
0000
0010
0000
0100
0000
0010
0000
0000
0000
1000
0000
0000
0001
,  // measure 179
0000
0100
0001
0100
0000
1000
0000
0100
,  // measure 180
1000
0001
0011
0000
1000
0001
0100
0010
,  // measure 181
1000
0100
0010
0000
0001
1000
0100
0010
,  // measure 182
0001
0100
0010
0000
1000
0100
0001
0000
,  // measure 183
1000
0100
0010
0000
0001
0000
1000
0010
,  // measure 184
0001
0100
0001
0000
1000
0100
0001
0000
,  // measure 185
1000
0100
0010
0000
0001
0000
1000
0010
,  // measure 186
0001
0100
0010
0000
1000
0001
0100
0000
,  // measure 187
1000
0100
0010
0000
0001
0000
1000
0010
,  // measure 188
0001
0100
0010
0000
0001
1000
0010
0000
,  // measure 189
1000
0100
0010
0000
0001
0100
0001
0010
,  // measure 190
1000
0100
0010
0000
1000
0100
0001
0000
,  // measure 191
1000
0100
0010
0000
0001
0100
1000
0010
,  // measure 192
0001
0100
0010
0000
0001
0100
1000
0000
,  // measure 193
0001
0100
0010
0000
1000
0100
0001
0010
,  // measure 194
1000
0100
0010
0000
0001
0100
1000
0000
,  // measure 195
0001
0100
0010
0000
0001
1000
0010
0001
,  // measure 196
1000
0001
1100
0000
0001
0100
0001
0000
,  // measure 197
1000
0100
0010
0000
1000
0001
0100
0010
,  // measure 198
1000
0100
0010
0000
0001
1000
0100
0000
,  // measure 199
0001
0100
0010
0000
0001
1000
0100
0010
,  // measure 200
1000
0001
2000
0000
3010
0101
0000
0000
,  // measure 201
0000
0000
0002
0000
0013
1100
0000
0000
,  // measure 202
0000
0000
2010
0000
3010
0101
0000
0000
,  // measure 203
0000
0000
0001
1000
0010
0100
0001
0010
,  // measure 204
0100
0000
1010
0000
0010
0000
0010
0100
,  // measure 205
0010
0100
0001
1000
0001
0010
1000
0010
,  // measure 206
0001
1000
0001
0000
0010
1000
0001
1000
,  // measure 207
0100
0000
0010
1000
0001
1000
0001
1000
,  // measure 208
0100
0000
0101
0000
0100
0000
0100
0010
,  // measure 209
0100
0010
1000
0001
1000
0100
0001
0100
,  // measure 210
1000
0001
1000
0000
0100
0001
1000
0001
,  // measure 211
0010
0000
0100
0001
1000
0001
1000
0001
,  // measure 212
0010
0000
0011
0000
0010
0000
0010
0100
,  // measure 213
0010
0100
1000
0001
1000
0010
0001
0010
,  // measure 214
1000
0001
1000
0000
0010
0001
1000
0001
,  // measure 215
0100
0000
0010
0001
1000
0001
1000
0001
,  // measure 216
0100
0000
1100
0000
0100
0000
0100
0010
,  // measure 217
0100
0010
0001
1000
0001
0100
1000
0100
,  // measure 218
0001
1000
0001
0000
0100
1000
0001
1000
,  // measure 219
0010
0000
0100
1000
0001
0100
0001
1000
,  // measure 220
0010
0100
0010
0000
1100
0000
0010
0100
,  // measure 221
0001
0100
0010
0000
1000
0001
0200
0000
,  // measure 222
0001
0000
1300
0000
1100
0000
0100
1000
,  // measure 223
0001
0100
0001
0000
0010
0100
0001
1000
,  // measure 224
0100
0100
0010
0000
0101
0000
0010
0100
,  // measure 225
1000
0100
0010
0000
0001
1000
0200
0000
,  // measure 226
1000
0000
0301
0000
0101
0000
0100
0001
,  // measure 227
1000
0100
1000
0000
0010
0100
0001
1000
,  // measure 228
0001
0100
1000
0000
0100
0101
0000
0000
,  // measure 229
2010
0000
0001
0000
3100
1100
0000
0000
,  // measure 230
0012
0000
1000
0000
0103
0110
0000
0000
,  // measure 231
0011
0000
0101
0000
0010
0220
0000
0330
,  // measure 232
1001
0000
0010
0000
0100
1000
0010
0100
,  // measure 233
0001
0100
0001
0000
0001
0100
0001
1000
,  // measure 234
0010
0100
0001
0000
0010
1000
0010
0100
,  // measure 235
0010
1000
0100
0000
0001
1000
0010
0001
,  // measure 236
0010
0100
1000
0010
0100
0001
1000
0100
,  // measure 237
0010
0001
0100
0001
1000
0100
1000
0001
,  // measure 238
0010
0001
1000
0010
0100
0001
1000
0100
,  // measure 239
0010
0001
0100
0010
1000
0001
1000
0001
,  // measure 240
0000
1000
0100
0010
0001
1000
0001
1000
,  // measure 241
0100
0010
0001
0100
0010
1000
0001
1000
,  // measure 242
0000
0001
0100
0001
1000
0100
0010
0001
,  // measure 243
0100
0010
1000
0001
0100
0001
1000
0100
,  // measure 244
0001
0100
0000
1000
0001
1000
0010
0100
,  // measure 245
0001
1000
0100
0010
0001
0100
0001
0100
,  // measure 246
1000
0100
0000
0001
0010
0001
0100
0001
,  // measure 247
0010
0100
1000
0001
0100
0010
1000
0001
,  // measure 248
0000
1000
0001
0010
0001
0100
0001
1000
,  // measure 249
0100
0010
0001
1000
0100
1000
0001
0100
,  // measure 250
0000
0001
1000
0100
0010
0001
0100
0010
,  // measure 251
1000
0001
0010
0100
1000
0010
0100
0200
,  // measure 252
0001
0002
0000
0000
0000
0000
0000
0000
0000
0000
0000
0000
0000
0000
0000
0000
,  // measure 253
0303
0000
0000
0000
;
